osu file format v14

[General]
AudioFilename: audio.mp3
AudioLeadIn: 0
PreviewTime: -1
Countdown: 0
SampleSet: None
StackLeniency: 0.7
Mode: 3
LetterboxInBreaks: 0
SpecialStyle: 0
WidescreenStoryboard: 1

[Editor]
DistanceSpacing: 2.7
BeatDivisor: 4
GridSize: 16
TimelineZoom: 2.899999

[Metadata]
Title:HYPERVENTILATION
TitleUnicode:HYPERVENTILATION
Artist:Menniel
ArtistUnicode:Menniel
Creator:Menniel
Version:Insane
Source:
Tags:
BeatmapID:4584207
BeatmapSetID:2171867

[Difficulty]
HPDrainRate:8
CircleSize:4
OverallDifficulty:8
ApproachRate:5
SliderMultiplier:1.4
SliderTickRate:1

[Events]
//Background and Video events
//Break Periods
//Storyboard Layer 0 (Background)
//Storyboard Layer 1 (Fail)
//Storyboard Layer 2 (Pass)
//Storyboard Layer 3 (Foreground)
//Storyboard Layer 4 (Overlay)
//Storyboard Sound Samples

[TimingPoints]
0,333.333333333333,4,1,0,60,1,0

[HitObjects]
448,192,1333,5,0,0:0:0:0:
64,192,1333,1,0,0:0:0:0:
320,192,1416,1,0,0:0:0:0:
192,192,1500,1,0,0:0:0:0:
320,192,1583,1,0,0:0:0:0:
64,192,1666,1,0,0:0:0:0:
448,192,1666,1,0,0:0:0:0:
192,192,1749,1,0,0:0:0:0:
320,192,1833,1,0,0:0:0:0:
192,192,1916,1,0,0:0:0:0:
64,192,2000,1,0,0:0:0:0:
448,192,2000,1,0,0:0:0:0:
320,192,2083,1,0,0:0:0:0:
192,192,2083,1,0,0:0:0:0:
448,192,2166,1,0,0:0:0:0:
320,192,2249,1,0,0:0:0:0:
64,192,2250,1,0,0:0:0:0:
192,192,2333,1,0,0:0:0:0:
320,192,2416,1,0,0:0:0:0:
448,192,2500,1,0,0:0:0:0:
64,192,2500,1,0,0:0:0:0:
192,192,2583,1,0,0:0:0:0:
448,192,2666,1,0,0:0:0:0:
320,192,2666,1,0,0:0:0:0:
64,192,2749,1,0,0:0:0:0:
192,192,2833,1,0,0:0:0:0:
320,192,2833,1,0,0:0:0:0:
448,192,2916,1,0,0:0:0:0:
64,192,2999,1,0,0:0:0:0:
320,192,2999,1,0,0:0:0:0:
192,192,3083,1,0,0:0:0:0:
320,192,3166,1,0,0:0:0:0:
448,192,3166,1,0,0:0:0:0:
192,192,3249,1,0,0:0:0:0:
64,192,3333,128,0,3666:0:0:0:0:
192,192,3499,128,0,3666:0:0:0:0:
448,192,3666,128,0,3999:0:0:0:0:
320,192,3833,128,0,3999:0:0:0:0:
192,192,3999,1,0,0:0:0:0:
64,192,3999,1,0,0:0:0:0:
320,192,4083,1,0,0:0:0:0:
448,192,4166,1,0,0:0:0:0:
64,192,4249,1,0,0:0:0:0:
192,192,4333,1,0,0:0:0:0:
320,192,4333,1,0,0:0:0:0:
448,192,4416,1,0,0:0:0:0:
64,192,4499,1,0,0:0:0:0:
192,192,4583,1,0,0:0:0:0:
320,192,4666,1,0,0:0:0:0:
448,192,4666,1,0,0:0:0:0:
192,192,4749,1,0,0:0:0:0:
64,192,4749,1,0,0:0:0:0:
448,192,4833,1,0,0:0:0:0:
320,192,4916,1,0,0:0:0:0:
192,192,4916,1,0,0:0:0:0:
64,192,4999,1,0,0:0:0:0:
448,192,5083,1,0,0:0:0:0:
320,192,5166,1,0,0:0:0:0:
192,192,5166,1,0,0:0:0:0:
64,192,5249,1,0,0:0:0:0:
448,192,5333,1,0,0:0:0:0:
320,192,5333,1,0,0:0:0:0:
192,192,5416,1,0,0:0:0:0:
64,192,5499,1,0,0:0:0:0:
448,192,5499,1,0,0:0:0:0:
320,192,5583,1,0,0:0:0:0:
192,192,5666,1,0,0:0:0:0:
64,192,5666,1,0,0:0:0:0:
448,192,5749,1,0,0:0:0:0:
320,192,5833,1,0,0:0:0:0:
192,192,5833,1,0,0:0:0:0:
64,192,5916,1,0,0:0:0:0:
448,192,5999,128,0,6333:0:0:0:0:
320,192,6166,128,0,6333:0:0:0:0:
64,192,6333,128,0,6666:0:0:0:0:
192,192,6499,128,0,6666:0:0:0:0:
448,192,6666,1,0,0:0:0:0:
320,192,6666,1,0,0:0:0:0:
192,192,6749,1,0,0:0:0:0:
64,192,6833,1,0,0:0:0:0:
448,192,6833,1,0,0:0:0:0:
320,192,6916,1,0,0:0:0:0:
192,192,6999,1,0,0:0:0:0:
64,192,6999,1,0,0:0:0:0:
448,192,7083,1,0,0:0:0:0:
320,192,7166,1,0,0:0:0:0:
192,192,7166,1,0,0:0:0:0:
64,192,7249,1,0,0:0:0:0:
448,192,7333,1,0,0:0:0:0:
320,192,7333,1,0,0:0:0:0:
192,192,7416,1,0,0:0:0:0:
64,192,7416,1,0,0:0:0:0:
448,192,7499,1,0,0:0:0:0:
320,192,7583,1,0,0:0:0:0:
192,192,7583,1,0,0:0:0:0:
64,192,7666,1,0,0:0:0:0:
448,192,7749,1,0,0:0:0:0:
320,192,7833,1,0,0:0:0:0:
192,192,7833,1,0,0:0:0:0:
64,192,7916,1,0,0:0:0:0:
448,192,7999,1,0,0:0:0:0:
320,192,7999,1,0,0:0:0:0:
64,192,8083,1,0,0:0:0:0:
192,192,8166,1,0,0:0:0:0:
320,192,8166,1,0,0:0:0:0:
448,192,8249,1,0,0:0:0:0:
64,192,8333,1,0,0:0:0:0:
192,192,8333,1,0,0:0:0:0:
320,192,8416,1,0,0:0:0:0:
448,192,8499,1,0,0:0:0:0:
64,192,8499,1,0,0:0:0:0:
192,192,8583,1,0,0:0:0:0:
320,192,8666,128,0,8999:0:0:0:0:
448,192,8833,128,0,8999:0:0:0:0:
192,192,8999,128,0,9333:0:0:0:0:
64,192,9166,128,0,9333:0:0:0:0:
320,192,9333,1,0,0:0:0:0:
448,192,9333,1,0,0:0:0:0:
64,192,9416,1,0,0:0:0:0:
192,192,9499,1,0,0:0:0:0:
320,192,9499,1,0,0:0:0:0:
448,192,9583,1,0,0:0:0:0:
192,192,9666,1,0,0:0:0:0:
64,192,9666,1,0,0:0:0:0:
320,192,9749,1,0,0:0:0:0:
448,192,9833,1,0,0:0:0:0:
64,192,9833,1,0,0:0:0:0:
192,192,9916,1,0,0:0:0:0:
320,192,9999,1,0,0:0:0:0:
448,192,9999,1,0,0:0:0:0:
192,192,10083,1,0,0:0:0:0:
64,192,10083,1,0,0:0:0:0:
320,192,10166,1,0,0:0:0:0:
448,192,10249,1,0,0:0:0:0:
64,192,10249,1,0,0:0:0:0:
192,192,10333,1,0,0:0:0:0:
320,192,10333,1,0,0:0:0:0:
448,192,10416,1,0,0:0:0:0:
320,192,10499,1,0,0:0:0:0:
192,192,10499,1,0,0:0:0:0:
64,192,10583,1,0,0:0:0:0:
448,192,10583,1,0,0:0:0:0:
320,192,10666,1,0,0:0:0:0:
192,192,10666,1,0,0:0:0:0:
64,192,10749,1,0,0:0:0:0:
448,192,10833,1,0,0:0:0:0:
320,192,10833,1,0,0:0:0:0:
192,192,10916,1,0,0:0:0:0:
64,192,10999,1,0,0:0:0:0:
448,192,10999,1,0,0:0:0:0:
320,192,11083,1,0,0:0:0:0:
192,192,11166,1,0,0:0:0:0:
64,192,11166,1,0,0:0:0:0:
448,192,11249,1,0,0:0:0:0:
192,192,11333,128,0,11916:0:0:0:0:
320,192,11499,128,0,11916:0:0:0:0:
448,192,11666,128,0,11916:0:0:0:0:
64,192,11833,128,0,11916:0:0:0:0:
320,192,11999,1,0,0:0:0:0:
448,192,11999,1,0,0:0:0:0:
192,192,12083,1,0,0:0:0:0:
64,192,12166,1,0,0:0:0:0:
448,192,12166,1,0,0:0:0:0:
320,192,12249,1,0,0:0:0:0:
192,192,12333,1,0,0:0:0:0:
64,192,12333,1,0,0:0:0:0:
320,192,12416,1,0,0:0:0:0:
448,192,12499,1,0,0:0:0:0:
64,192,12583,1,0,0:0:0:0:
192,192,12583,1,0,0:0:0:0:
320,192,12666,1,0,0:0:0:0:
448,192,12749,1,0,0:0:0:0:
192,192,12833,1,0,0:0:0:0:
64,192,12833,1,0,0:0:0:0:
320,192,12916,1,0,0:0:0:0:
448,192,12999,1,0,0:0:0:0:
192,192,12999,1,0,0:0:0:0:
64,192,13083,1,0,0:0:0:0:
448,192,13166,1,0,0:0:0:0:
320,192,13249,1,0,0:0:0:0:
192,192,13333,1,0,0:0:0:0:
64,192,13333,1,0,0:0:0:0:
448,192,13416,1,0,0:0:0:0:
192,192,13499,1,0,0:0:0:0:
64,192,13499,1,0,0:0:0:0:
320,192,13583,1,0,0:0:0:0:
320,192,13666,1,0,0:0:0:0:
448,192,13666,1,0,0:0:0:0:
64,192,13749,1,0,0:0:0:0:
192,192,13833,1,0,0:0:0:0:
320,192,13916,1,0,0:0:0:0:
448,192,13916,1,0,0:0:0:0:
64,192,13999,1,0,0:0:0:0:
192,192,14083,1,0,0:0:0:0:
320,192,14166,1,0,0:0:0:0:
448,192,14166,1,0,0:0:0:0:
192,192,14249,1,0,0:0:0:0:
64,192,14333,1,0,0:0:0:0:
320,192,14416,1,0,0:0:0:0:
448,192,14499,1,0,0:0:0:0:
320,192,14583,1,0,0:0:0:0:
192,192,14666,1,0,0:0:0:0:
64,192,14666,1,0,0:0:0:0:
320,192,14749,1,0,0:0:0:0:
448,192,14833,1,0,0:0:0:0:
64,192,14833,1,0,0:0:0:0:
192,192,14916,1,0,0:0:0:0:
320,192,14999,1,0,0:0:0:0:
448,192,14999,1,0,0:0:0:0:
192,192,15083,1,0,0:0:0:0:
64,192,15166,1,0,0:0:0:0:
448,192,15249,1,0,0:0:0:0:
320,192,15249,1,0,0:0:0:0:
192,192,15333,1,0,0:0:0:0:
64,192,15416,1,0,0:0:0:0:
320,192,15499,1,0,0:0:0:0:
448,192,15499,1,0,0:0:0:0:
192,192,15583,1,0,0:0:0:0:
64,192,15666,1,0,0:0:0:0:
320,192,15666,1,0,0:0:0:0:
448,192,15749,1,0,0:0:0:0:
64,192,15833,1,0,0:0:0:0:
192,192,15916,1,0,0:0:0:0:
320,192,15999,1,0,0:0:0:0:
448,192,15999,1,0,0:0:0:0:
64,192,16083,1,0,0:0:0:0:
320,192,16166,1,0,0:0:0:0:
448,192,16166,1,0,0:0:0:0:
192,192,16249,1,0,0:0:0:0:
192,192,16333,1,0,0:0:0:0:
64,192,16333,1,0,0:0:0:0:
448,192,16416,1,0,0:0:0:0:
320,192,16499,1,0,0:0:0:0:
192,192,16583,1,0,0:0:0:0:
64,192,16583,1,0,0:0:0:0:
448,192,16666,1,0,0:0:0:0:
320,192,16749,1,0,0:0:0:0:
192,192,16833,1,0,0:0:0:0:
64,192,16833,1,0,0:0:0:0:
320,192,16916,1,0,0:0:0:0:
448,192,16999,1,0,0:0:0:0:
320,192,17083,1,0,0:0:0:0:
192,192,17166,1,0,0:0:0:0:
64,192,17249,1,0,0:0:0:0:
448,192,17333,1,0,0:0:0:0:
320,192,17333,1,0,0:0:0:0:
192,192,17416,1,0,0:0:0:0:
64,192,17499,1,0,0:0:0:0:
448,192,17499,1,0,0:0:0:0:
320,192,17583,1,0,0:0:0:0:
192,192,17666,1,0,0:0:0:0:
64,192,17666,1,0,0:0:0:0:
448,192,17749,1,0,0:0:0:0:
320,192,17833,1,0,0:0:0:0:
64,192,17916,1,0,0:0:0:0:
192,192,17916,1,0,0:0:0:0:
320,192,17999,1,0,0:0:0:0:
448,192,18083,1,0,0:0:0:0:
192,192,18166,1,0,0:0:0:0:
64,192,18166,1,0,0:0:0:0:
320,192,18249,1,0,0:0:0:0:
448,192,18333,1,0,0:0:0:0:
64,192,18333,1,0,0:0:0:0:
320,192,18416,1,0,0:0:0:0:
192,192,18499,1,0,0:0:0:0:
64,192,18583,1,0,0:0:0:0:
448,192,18666,1,0,0:0:0:0:
320,192,18666,1,0,0:0:0:0:
64,192,18749,1,0,0:0:0:0:
192,192,18833,1,0,0:0:0:0:
320,192,18833,1,0,0:0:0:0:
448,192,18916,1,0,0:0:0:0:
64,192,18999,1,0,0:0:0:0:
192,192,18999,1,0,0:0:0:0:
320,192,19083,1,0,0:0:0:0:
448,192,19166,1,0,0:0:0:0:
64,192,19166,1,0,0:0:0:0:
192,192,19249,1,0,0:0:0:0:
320,192,19333,128,0,19666:0:0:0:0:
448,192,19499,128,0,19666:0:0:0:0:
64,192,19499,1,0,0:0:0:0:
192,192,19499,1,0,0:0:0:0:
192,192,19666,128,0,19999:0:0:0:0:
64,192,19833,128,0,19999:0:0:0:0:
448,192,19833,1,0,0:0:0:0:
320,192,19999,1,0,0:0:0:0:
448,192,19999,1,0,0:0:0:0:
64,192,20083,1,0,0:0:0:0:
192,192,20166,1,0,0:0:0:0:
320,192,20166,1,0,0:0:0:0:
448,192,20249,1,0,0:0:0:0:
192,192,20333,1,0,0:0:0:0:
64,192,20333,1,0,0:0:0:0:
320,192,20416,1,0,0:0:0:0:
448,192,20499,1,0,0:0:0:0:
192,192,20583,1,0,0:0:0:0:
64,192,20583,1,0,0:0:0:0:
320,192,20666,1,0,0:0:0:0:
448,192,20749,1,0,0:0:0:0:
192,192,20833,1,0,0:0:0:0:
64,192,20833,1,0,0:0:0:0:
448,192,20916,1,0,0:0:0:0:
192,192,20999,1,0,0:0:0:0:
320,192,20999,1,0,0:0:0:0:
64,192,21083,1,0,0:0:0:0:
448,192,21166,1,0,0:0:0:0:
320,192,21249,1,0,0:0:0:0:
192,192,21333,1,0,0:0:0:0:
64,192,21333,1,0,0:0:0:0:
448,192,21416,1,0,0:0:0:0:
320,192,21499,1,0,0:0:0:0:
192,192,21499,1,0,0:0:0:0:
64,192,21583,1,0,0:0:0:0:
448,192,21666,1,0,0:0:0:0:
320,192,21666,1,0,0:0:0:0:
192,192,21749,1,0,0:0:0:0:
64,192,21833,1,0,0:0:0:0:
448,192,21916,1,0,0:0:0:0:
64,192,21999,1,0,0:0:0:0:
192,192,22083,1,0,0:0:0:0:
320,192,22083,1,0,0:0:0:0:
448,192,22166,1,0,0:0:0:0:
64,192,22166,1,0,0:0:0:0:
320,192,22249,1,0,0:0:0:0:
192,192,22333,128,0,22666:0:0:0:0:
64,192,22333,128,0,22666:0:0:0:0:
448,192,22333,128,0,22666:0:0:0:0:
320,192,22666,1,0,0:0:0:0:
320,192,22833,1,0,0:0:0:0:
192,192,22999,1,0,0:0:0:0:
64,192,22999,1,0,0:0:0:0:
64,192,23166,1,0,0:0:0:0:
192,192,23333,1,0,0:0:0:0:
320,192,23333,1,0,0:0:0:0:
320,192,23499,1,0,0:0:0:0:
192,192,23583,1,0,0:0:0:0:
64,192,23583,1,0,0:0:0:0:
448,192,23666,1,0,0:0:0:0:
320,192,23666,1,0,0:0:0:0:
192,192,23749,1,0,0:0:0:0:
64,192,23749,1,0,0:0:0:0:
64,192,23999,1,0,0:0:0:0:
192,192,23999,1,0,0:0:0:0:
192,192,24166,1,0,0:0:0:0:
320,192,24333,1,0,0:0:0:0:
448,192,24333,1,0,0:0:0:0:
448,192,24499,1,0,0:0:0:0:
192,192,24666,1,0,0:0:0:0:
64,192,24666,1,0,0:0:0:0:
64,192,24833,1,0,0:0:0:0:
320,192,24916,1,0,0:0:0:0:
448,192,24916,1,0,0:0:0:0:
192,192,24999,1,0,0:0:0:0:
64,192,24999,1,0,0:0:0:0:
320,192,25083,1,0,0:0:0:0:
448,192,25083,1,0,0:0:0:0:
192,192,25166,1,0,0:0:0:0:
64,192,25166,1,0,0:0:0:0:
448,192,25333,1,0,0:0:0:0:
320,192,25333,1,0,0:0:0:0:
448,192,25499,1,0,0:0:0:0:
64,192,25666,1,0,0:0:0:0:
192,192,25666,1,0,0:0:0:0:
64,192,25833,1,0,0:0:0:0:
320,192,25999,1,0,0:0:0:0:
448,192,25999,1,0,0:0:0:0:
192,192,26249,1,0,0:0:0:0:
320,192,26249,1,0,0:0:0:0:
64,192,26333,1,0,0:0:0:0:
448,192,26333,1,0,0:0:0:0:
320,192,26416,1,0,0:0:0:0:
192,192,26416,1,0,0:0:0:0:
64,192,26499,1,0,0:0:0:0:
448,192,26499,1,0,0:0:0:0:
192,192,26666,1,0,0:0:0:0:
320,192,26666,1,0,0:0:0:0:
192,192,26833,1,0,0:0:0:0:
64,192,26999,1,0,0:0:0:0:
448,192,26999,1,0,0:0:0:0:
448,192,27166,1,0,0:0:0:0:
320,192,27333,1,0,0:0:0:0:
192,192,27333,1,0,0:0:0:0:
448,192,27499,1,0,0:0:0:0:
320,192,27499,1,0,0:0:0:0:
192,192,27583,1,0,0:0:0:0:
64,192,27583,1,0,0:0:0:0:
320,192,27666,128,0,27916:0:0:0:0:
448,192,27666,128,0,27916:0:0:0:0:
320,192,27999,1,0,0:0:0:0:
448,192,27999,1,0,0:0:0:0:
64,192,27999,1,0,0:0:0:0:
64,192,28166,1,0,0:0:0:0:
320,192,28166,1,0,0:0:0:0:
192,192,28333,1,0,0:0:0:0:
448,192,28333,1,0,0:0:0:0:
320,192,28333,1,0,0:0:0:0:
192,192,28499,1,0,0:0:0:0:
64,192,28499,1,0,0:0:0:0:
320,192,28666,1,0,0:0:0:0:
448,192,28666,1,0,0:0:0:0:
64,192,28666,1,0,0:0:0:0:
448,192,28833,1,0,0:0:0:0:
320,192,28833,1,0,0:0:0:0:
320,192,28999,1,0,0:0:0:0:
192,192,28999,1,0,0:0:0:0:
64,192,28999,1,0,0:0:0:0:
192,192,29166,1,0,0:0:0:0:
64,192,29166,1,0,0:0:0:0:
448,192,29333,1,0,0:0:0:0:
320,192,29333,1,0,0:0:0:0:
64,192,29333,1,0,0:0:0:0:
192,192,29499,1,0,0:0:0:0:
320,192,29499,1,0,0:0:0:0:
64,192,29666,1,0,0:0:0:0:
192,192,29666,1,0,0:0:0:0:
320,192,29666,1,0,0:0:0:0:
448,192,29833,1,0,0:0:0:0:
64,192,29833,1,0,0:0:0:0:
448,192,29999,1,0,0:0:0:0:
64,192,29999,1,0,0:0:0:0:
192,192,29999,1,0,0:0:0:0:
320,192,30166,1,0,0:0:0:0:
192,192,30166,1,0,0:0:0:0:
192,192,30333,1,0,0:0:0:0:
320,192,30333,1,0,0:0:0:0:
448,192,30333,1,0,0:0:0:0:
64,192,30499,1,0,0:0:0:0:
64,192,30666,1,0,0:0:0:0:
192,192,30666,1,0,0:0:0:0:
320,192,30749,1,0,0:0:0:0:
448,192,30749,1,0,0:0:0:0:
448,192,30833,1,0,0:0:0:0:
320,192,30833,1,0,0:0:0:0:
192,192,30916,1,0,0:0:0:0:
64,192,30916,1,0,0:0:0:0:
64,192,30999,1,0,0:0:0:0:
192,192,30999,1,0,0:0:0:0:
320,192,31083,1,0,0:0:0:0:
448,192,31083,1,0,0:0:0:0:
192,192,31166,1,0,0:0:0:0:
64,192,31166,1,0,0:0:0:0:
448,192,31249,1,0,0:0:0:0:
320,192,31333,1,0,0:0:0:0:
192,192,31333,1,0,0:0:0:0:
64,192,31416,1,0,0:0:0:0:
448,192,31416,1,0,0:0:0:0:
320,192,31499,1,0,0:0:0:0:
192,192,31499,1,0,0:0:0:0:
64,192,31583,1,0,0:0:0:0:
448,192,31583,1,0,0:0:0:0:
320,192,31666,1,0,0:0:0:0:
192,192,31666,1,0,0:0:0:0:
64,192,31749,1,0,0:0:0:0:
448,192,31749,1,0,0:0:0:0:
320,192,31833,1,0,0:0:0:0:
192,192,31833,1,0,0:0:0:0:
448,192,31916,1,0,0:0:0:0:
64,192,31999,1,0,0:0:0:0:
192,192,31999,1,0,0:0:0:0:
448,192,32333,1,0,0:0:0:0:
448,192,32666,1,0,0:0:0:0:
320,192,32749,1,0,0:0:0:0:
192,192,32833,1,0,0:0:0:0:
64,192,32916,1,0,0:0:0:0:
320,192,32999,128,0,33249:0:0:0:0:
448,192,32999,128,0,33249:0:0:0:0:
64,192,33333,1,0,0:0:0:0:
192,192,33333,1,0,0:0:0:0:
320,192,33444,1,0,0:0:0:0:
448,192,33444,1,0,0:0:0:0:
192,192,33555,1,0,0:0:0:0:
64,192,33555,1,0,0:0:0:0:
320,192,33666,1,0,0:0:0:0:
448,192,33666,1,0,0:0:0:0:
64,192,33777,1,0,0:0:0:0:
192,192,33777,1,0,0:0:0:0:
320,192,33888,1,0,0:0:0:0:
448,192,33888,1,0,0:0:0:0:
192,192,33999,1,0,0:0:0:0:
64,192,33999,1,0,0:0:0:0:
320,192,34111,1,0,0:0:0:0:
448,192,34111,1,0,0:0:0:0:
64,192,34333,128,0,34555:0:0:0:0:
192,192,34333,128,0,34555:0:0:0:0:
320,192,34333,128,0,34555:0:0:0:0:
448,192,34333,128,0,34555:0:0:0:0:
64,192,34666,1,0,0:0:0:0:
192,192,34666,1,0,0:0:0:0:
320,192,34666,1,0,0:0:0:0:
448,192,34666,1,0,0:0:0:0:
448,192,34833,1,0,0:0:0:0:
320,192,34833,1,0,0:0:0:0:
448,192,34999,1,0,0:0:0:0:
320,192,34999,1,0,0:0:0:0:
192,192,34999,1,0,0:0:0:0:
64,192,34999,1,0,0:0:0:0:
192,192,35166,1,0,0:0:0:0:
64,192,35166,1,0,0:0:0:0:
448,192,35333,1,0,0:0:0:0:
320,192,35333,1,0,0:0:0:0:
192,192,35333,1,0,0:0:0:0:
64,192,35333,1,0,0:0:0:0:
64,192,35499,1,0,0:0:0:0:
448,192,35499,1,0,0:0:0:0:
448,192,35666,1,0,0:0:0:0:
320,192,35666,1,0,0:0:0:0:
192,192,35666,1,0,0:0:0:0:
64,192,35666,1,0,0:0:0:0:
192,192,35833,1,0,0:0:0:0:
320,192,35833,1,0,0:0:0:0:
64,192,35999,1,0,0:0:0:0:
192,192,35999,1,0,0:0:0:0:
320,192,35999,1,0,0:0:0:0:
448,192,35999,1,0,0:0:0:0:
448,192,36166,1,0,0:0:0:0:
320,192,36166,1,0,0:0:0:0:
448,192,36333,1,0,0:0:0:0:
192,192,36333,1,0,0:0:0:0:
320,192,36333,1,0,0:0:0:0:
64,192,36333,1,0,0:0:0:0:
64,192,36499,1,0,0:0:0:0:
192,192,36499,1,0,0:0:0:0:
448,192,36666,1,0,0:0:0:0:
320,192,36666,1,0,0:0:0:0:
192,192,36666,1,0,0:0:0:0:
64,192,36666,1,0,0:0:0:0:
192,192,36833,1,0,0:0:0:0:
320,192,36833,1,0,0:0:0:0:
448,192,36833,1,0,0:0:0:0:
448,192,36999,1,0,0:0:0:0:
320,192,36999,1,0,0:0:0:0:
192,192,36999,1,0,0:0:0:0:
64,192,36999,1,0,0:0:0:0:
320,192,37166,1,0,0:0:0:0:
192,192,37166,1,0,0:0:0:0:
64,192,37166,1,0,0:0:0:0:
192,192,37333,1,0,0:0:0:0:
320,192,37333,1,0,0:0:0:0:
64,192,37416,1,0,0:0:0:0:
448,192,37416,1,0,0:0:0:0:
320,192,37499,1,0,0:0:0:0:
192,192,37499,1,0,0:0:0:0:
320,192,37583,1,0,0:0:0:0:
192,192,37583,1,0,0:0:0:0:
448,192,37666,1,0,0:0:0:0:
64,192,37666,1,0,0:0:0:0:
64,192,37833,1,0,0:0:0:0:
320,192,37833,1,0,0:0:0:0:
64,192,37999,1,0,0:0:0:0:
192,192,37999,1,0,0:0:0:0:
320,192,37999,1,0,0:0:0:0:
448,192,37999,1,0,0:0:0:0:
448,192,38166,1,0,0:0:0:0:
192,192,38166,1,0,0:0:0:0:
448,192,38333,1,0,0:0:0:0:
320,192,38333,1,0,0:0:0:0:
192,192,38333,1,0,0:0:0:0:
64,192,38333,1,0,0:0:0:0:
64,192,38499,1,0,0:0:0:0:
448,192,38499,1,0,0:0:0:0:
448,192,38666,1,0,0:0:0:0:
320,192,38666,1,0,0:0:0:0:
192,192,38666,1,0,0:0:0:0:
64,192,38666,1,0,0:0:0:0:
192,192,38833,1,0,0:0:0:0:
320,192,38833,1,0,0:0:0:0:
64,192,38999,1,0,0:0:0:0:
192,192,38999,1,0,0:0:0:0:
320,192,38999,1,0,0:0:0:0:
448,192,38999,1,0,0:0:0:0:
448,192,39166,1,0,0:0:0:0:
320,192,39166,1,0,0:0:0:0:
448,192,39333,1,0,0:0:0:0:
320,192,39333,1,0,0:0:0:0:
192,192,39333,1,0,0:0:0:0:
64,192,39333,1,0,0:0:0:0:
64,192,39499,1,0,0:0:0:0:
448,192,39666,1,0,0:0:0:0:
320,192,39666,1,0,0:0:0:0:
192,192,39666,1,0,0:0:0:0:
64,192,39666,1,0,0:0:0:0:
192,192,39833,1,0,0:0:0:0:
448,192,39999,1,0,0:0:0:0:
320,192,39999,1,0,0:0:0:0:
192,192,39999,1,0,0:0:0:0:
64,192,39999,1,0,0:0:0:0:
192,192,40166,1,0,0:0:0:0:
320,192,40249,1,0,0:0:0:0:
448,192,40333,1,0,0:0:0:0:
192,192,40333,1,0,0:0:0:0:
64,192,40333,1,0,0:0:0:0:
320,192,40499,1,0,0:0:0:0:
192,192,40499,1,0,0:0:0:0:
64,192,40666,1,0,0:0:0:0:
448,192,40666,1,0,0:0:0:0:
320,192,40666,1,0,0:0:0:0:
192,192,40666,1,0,0:0:0:0:
320,192,40833,1,0,0:0:0:0:
448,192,40916,1,0,0:0:0:0:
320,192,40999,1,0,0:0:0:0:
192,192,40999,1,0,0:0:0:0:
64,192,40999,1,0,0:0:0:0:
192,192,41166,1,0,0:0:0:0:
64,192,41166,1,0,0:0:0:0:
192,192,41333,1,0,0:0:0:0:
320,192,41333,1,0,0:0:0:0:
448,192,41333,1,0,0:0:0:0:
64,192,41333,1,0,0:0:0:0:
192,192,41499,1,0,0:0:0:0:
64,192,41583,1,0,0:0:0:0:
192,192,41666,1,0,0:0:0:0:
320,192,41666,1,0,0:0:0:0:
448,192,41666,1,0,0:0:0:0:
448,192,41833,1,0,0:0:0:0:
192,192,41833,1,0,0:0:0:0:
448,192,41999,1,0,0:0:0:0:
192,192,41999,1,0,0:0:0:0:
320,192,41999,1,0,0:0:0:0:
64,192,41999,1,0,0:0:0:0:
320,192,42166,1,0,0:0:0:0:
448,192,42166,1,0,0:0:0:0:
192,192,42249,1,0,0:0:0:0:
320,192,42333,1,0,0:0:0:0:
448,192,42333,1,0,0:0:0:0:
64,192,42333,1,0,0:0:0:0:
64,192,42499,1,0,0:0:0:0:
192,192,42499,1,0,0:0:0:0:
320,192,42499,1,0,0:0:0:0:
64,192,42666,1,0,0:0:0:0:
192,192,42666,1,0,0:0:0:0:
320,192,42749,1,0,0:0:0:0:
448,192,42749,1,0,0:0:0:0:
192,192,42833,1,0,0:0:0:0:
64,192,42833,1,0,0:0:0:0:
320,192,42916,1,0,0:0:0:0:
448,192,42916,1,0,0:0:0:0:
192,192,42999,1,0,0:0:0:0:
64,192,42999,1,0,0:0:0:0:
320,192,43166,1,0,0:0:0:0:
192,192,43166,1,0,0:0:0:0:
448,192,43333,1,0,0:0:0:0:
320,192,43333,1,0,0:0:0:0:
192,192,43333,1,0,0:0:0:0:
64,192,43333,1,0,0:0:0:0:
64,192,43499,1,0,0:0:0:0:
320,192,43583,1,0,0:0:0:0:
192,192,43666,1,0,0:0:0:0:
64,192,43666,1,0,0:0:0:0:
448,192,43666,1,0,0:0:0:0:
320,192,43833,1,0,0:0:0:0:
192,192,43833,1,0,0:0:0:0:
448,192,43999,1,0,0:0:0:0:
320,192,43999,1,0,0:0:0:0:
192,192,43999,1,0,0:0:0:0:
64,192,43999,1,0,0:0:0:0:
448,192,44166,1,0,0:0:0:0:
192,192,44249,1,0,0:0:0:0:
320,192,44333,1,0,0:0:0:0:
448,192,44333,1,0,0:0:0:0:
64,192,44333,1,0,0:0:0:0:
448,192,44499,1,0,0:0:0:0:
64,192,44666,1,0,0:0:0:0:
192,192,44666,1,0,0:0:0:0:
320,192,44666,1,0,0:0:0:0:
320,192,44916,1,0,0:0:0:0:
192,192,44916,1,0,0:0:0:0:
64,192,44999,128,0,45249:0:0:0:0:
448,192,44999,128,0,45249:0:0:0:0:
448,192,45333,128,0,45583:0:0:0:0:
320,192,45333,1,0,0:0:0:0:
192,192,45333,1,0,0:0:0:0:
64,192,45333,1,0,0:0:0:0:
192,192,45499,1,0,0:0:0:0:
320,192,45499,1,0,0:0:0:0:
64,192,45666,128,0,45749:0:0:0:0:
448,192,45666,1,0,0:0:0:0:
320,192,45666,1,0,0:0:0:0:
192,192,45666,1,0,0:0:0:0:
192,192,45833,128,0,45916:0:0:0:0:
448,192,45833,1,0,0:0:0:0:
448,192,45999,128,0,46166:0:0:0:0:
320,192,45999,1,0,0:0:0:0:
192,192,45999,1,0,0:0:0:0:
64,192,45999,1,0,0:0:0:0:
192,192,46166,1,0,0:0:0:0:
320,192,46166,1,0,0:0:0:0:
64,192,46249,128,0,46416:0:0:0:0:
448,192,46333,1,0,0:0:0:0:
320,192,46333,1,0,0:0:0:0:
192,192,46333,1,0,0:0:0:0:
192,192,46499,128,0,46583:0:0:0:0:
64,192,46499,1,0,0:0:0:0:
448,192,46666,128,0,46833:0:0:0:0:
320,192,46666,1,0,0:0:0:0:
192,192,46666,1,0,0:0:0:0:
64,192,46666,1,0,0:0:0:0:
64,192,46833,1,0,0:0:0:0:
320,192,46833,1,0,0:0:0:0:
192,192,46916,128,0,47083:0:0:0:0:
448,192,46999,1,0,0:0:0:0:
320,192,46999,1,0,0:0:0:0:
64,192,46999,1,0,0:0:0:0:
320,192,47166,128,0,47249:0:0:0:0:
448,192,47166,1,0,0:0:0:0:
64,192,47333,128,0,47499:0:0:0:0:
448,192,47333,1,0,0:0:0:0:
320,192,47333,1,0,0:0:0:0:
192,192,47333,1,0,0:0:0:0:
320,192,47499,1,0,0:0:0:0:
192,192,47499,1,0,0:0:0:0:
448,192,47583,128,0,47916:0:0:0:0:
320,192,47666,1,0,0:0:0:0:
192,192,47666,1,0,0:0:0:0:
64,192,47666,1,0,0:0:0:0:
320,192,47833,1,0,0:0:0:0:
192,192,47833,1,0,0:0:0:0:
64,192,47999,128,0,48249:0:0:0:0:
448,192,47999,1,0,0:0:0:0:
320,192,47999,1,0,0:0:0:0:
192,192,48083,1,0,0:0:0:0:
448,192,48166,1,0,0:0:0:0:
320,192,48249,1,0,0:0:0:0:
448,192,48333,128,0,48416:0:0:0:0:
192,192,48333,1,0,0:0:0:0:
64,192,48333,1,0,0:0:0:0:
320,192,48499,128,0,48583:0:0:0:0:
64,192,48499,1,0,0:0:0:0:
64,192,48666,128,0,48833:0:0:0:0:
448,192,48666,1,0,0:0:0:0:
320,192,48666,1,0,0:0:0:0:
192,192,48666,1,0,0:0:0:0:
320,192,48833,1,0,0:0:0:0:
448,192,48916,128,0,49083:0:0:0:0:
320,192,48999,1,0,0:0:0:0:
192,192,48999,1,0,0:0:0:0:
64,192,48999,1,0,0:0:0:0:
320,192,49166,128,0,49249:0:0:0:0:
448,192,49166,1,0,0:0:0:0:
64,192,49333,128,0,49499:0:0:0:0:
448,192,49333,1,0,0:0:0:0:
320,192,49333,1,0,0:0:0:0:
192,192,49333,1,0,0:0:0:0:
448,192,49499,1,0,0:0:0:0:
192,192,49499,1,0,0:0:0:0:
320,192,49583,128,0,49749:0:0:0:0:
448,192,49666,1,0,0:0:0:0:
192,192,49666,1,0,0:0:0:0:
64,192,49666,1,0,0:0:0:0:
192,192,49833,128,0,49916:0:0:0:0:
64,192,49833,1,0,0:0:0:0:
320,192,49833,1,0,0:0:0:0:
448,192,49833,1,0,0:0:0:0:
448,192,49999,128,0,50166:0:0:0:0:
320,192,49999,1,0,0:0:0:0:
192,192,49999,1,0,0:0:0:0:
64,192,49999,1,0,0:0:0:0:
320,192,50166,1,0,0:0:0:0:
192,192,50166,1,0,0:0:0:0:
64,192,50249,128,0,50583:0:0:0:0:
448,192,50333,1,0,0:0:0:0:
320,192,50333,1,0,0:0:0:0:
192,192,50333,1,0,0:0:0:0:
320,192,50499,1,0,0:0:0:0:
448,192,50499,1,0,0:0:0:0:
64,192,50666,128,0,50916:0:0:0:0:
448,192,50666,1,0,0:0:0:0:
320,192,50666,1,0,0:0:0:0:
192,192,50666,1,0,0:0:0:0:
192,192,50833,1,0,0:0:0:0:
320,192,50833,1,0,0:0:0:0:
448,192,50999,128,0,51083:0:0:0:0:
320,192,50999,1,0,0:0:0:0:
192,192,50999,1,0,0:0:0:0:
64,192,50999,1,0,0:0:0:0:
320,192,51166,128,0,51249:0:0:0:0:
448,192,51166,1,0,0:0:0:0:
64,192,51333,128,0,51499:0:0:0:0:
448,192,51333,1,0,0:0:0:0:
320,192,51333,1,0,0:0:0:0:
192,192,51333,1,0,0:0:0:0:
320,192,51499,1,0,0:0:0:0:
192,192,51499,1,0,0:0:0:0:
448,192,51583,128,0,51749:0:0:0:0:
320,192,51666,1,0,0:0:0:0:
192,192,51666,1,0,0:0:0:0:
64,192,51666,1,0,0:0:0:0:
320,192,51833,128,0,51916:0:0:0:0:
64,192,51833,1,0,0:0:0:0:
64,192,51999,128,0,52166:0:0:0:0:
448,192,51999,1,0,0:0:0:0:
192,192,51999,1,0,0:0:0:0:
320,192,51999,1,0,0:0:0:0:
448,192,52166,1,0,0:0:0:0:
192,192,52166,1,0,0:0:0:0:
320,192,52249,128,0,52416:0:0:0:0:
448,192,52333,1,0,0:0:0:0:
192,192,52333,1,0,0:0:0:0:
64,192,52333,1,0,0:0:0:0:
192,192,52499,128,0,52583:0:0:0:0:
64,192,52499,1,0,0:0:0:0:
448,192,52666,128,0,52833:0:0:0:0:
320,192,52666,1,0,0:0:0:0:
192,192,52666,1,0,0:0:0:0:
64,192,52666,1,0,0:0:0:0:
192,192,52833,1,0,0:0:0:0:
320,192,52833,1,0,0:0:0:0:
64,192,52916,128,0,53249:0:0:0:0:
448,192,52999,1,0,0:0:0:0:
192,192,52999,1,0,0:0:0:0:
320,192,52999,1,0,0:0:0:0:
320,192,53166,1,0,0:0:0:0:
448,192,53166,1,0,0:0:0:0:
448,192,53333,128,0,53583:0:0:0:0:
192,192,53333,1,0,0:0:0:0:
64,192,53333,1,0,0:0:0:0:
320,192,53416,1,0,0:0:0:0:
64,192,53499,1,0,0:0:0:0:
192,192,53583,1,0,0:0:0:0:
64,192,53666,128,0,53749:0:0:0:0:
320,192,53666,1,0,0:0:0:0:
448,192,53666,1,0,0:0:0:0:
192,192,53833,128,0,53916:0:0:0:0:
64,192,53833,1,0,0:0:0:0:
448,192,53999,128,0,54166:0:0:0:0:
320,192,53999,1,0,0:0:0:0:
192,192,53999,1,0,0:0:0:0:
64,192,53999,1,0,0:0:0:0:
192,192,54166,1,0,0:0:0:0:
320,192,54166,1,0,0:0:0:0:
64,192,54249,128,0,54416:0:0:0:0:
192,192,54333,1,0,0:0:0:0:
320,192,54333,1,0,0:0:0:0:
448,192,54333,1,0,0:0:0:0:
192,192,54499,128,0,54583:0:0:0:0:
448,192,54499,1,0,0:0:0:0:
448,192,54666,128,0,54833:0:0:0:0:
320,192,54666,1,0,0:0:0:0:
192,192,54666,1,0,0:0:0:0:
64,192,54666,1,0,0:0:0:0:
64,192,54833,1,0,0:0:0:0:
320,192,54833,1,0,0:0:0:0:
192,192,54916,128,0,55083:0:0:0:0:
448,192,54999,1,0,0:0:0:0:
320,192,54999,1,0,0:0:0:0:
64,192,54999,1,0,0:0:0:0:
320,192,55166,128,0,55249:0:0:0:0:
192,192,55166,1,0,0:0:0:0:
64,192,55333,128,0,55499:0:0:0:0:
192,192,55333,1,0,0:0:0:0:
320,192,55333,1,0,0:0:0:0:
448,192,55333,1,0,0:0:0:0:
320,192,55499,1,0,0:0:0:0:
192,192,55499,1,0,0:0:0:0:
448,192,55583,128,0,55916:0:0:0:0:
64,192,55666,128,0,55916:0:0:0:0:
192,192,55666,128,0,55916:0:0:0:0:
320,192,55666,128,0,55916:0:0:0:0:
448,192,55999,128,0,56249:0:0:0:0:
320,192,55999,1,0,0:0:0:0:
192,192,55999,1,0,0:0:0:0:
64,192,55999,1,0,0:0:0:0:
192,192,56166,1,0,0:0:0:0:
320,192,56166,1,0,0:0:0:0:
64,192,56333,128,0,56416:0:0:0:0:
448,192,56333,1,0,0:0:0:0:
320,192,56333,1,0,0:0:0:0:
192,192,56333,1,0,0:0:0:0:
192,192,56499,128,0,56583:0:0:0:0:
448,192,56499,1,0,0:0:0:0:
448,192,56666,128,0,56833:0:0:0:0:
320,192,56666,1,0,0:0:0:0:
192,192,56666,1,0,0:0:0:0:
64,192,56666,1,0,0:0:0:0:
192,192,56833,1,0,0:0:0:0:
320,192,56833,1,0,0:0:0:0:
64,192,56916,128,0,57083:0:0:0:0:
448,192,56999,1,0,0:0:0:0:
320,192,56999,1,0,0:0:0:0:
192,192,56999,1,0,0:0:0:0:
192,192,57166,128,0,57249:0:0:0:0:
64,192,57166,1,0,0:0:0:0:
448,192,57333,128,0,57499:0:0:0:0:
320,192,57333,1,0,0:0:0:0:
192,192,57333,1,0,0:0:0:0:
64,192,57333,1,0,0:0:0:0:
64,192,57499,1,0,0:0:0:0:
320,192,57499,1,0,0:0:0:0:
192,192,57583,128,0,57749:0:0:0:0:
448,192,57666,1,0,0:0:0:0:
320,192,57666,1,0,0:0:0:0:
64,192,57666,1,0,0:0:0:0:
320,192,57833,128,0,57916:0:0:0:0:
448,192,57833,1,0,0:0:0:0:
64,192,57999,128,0,58166:0:0:0:0:
448,192,57999,1,0,0:0:0:0:
320,192,57999,1,0,0:0:0:0:
192,192,57999,1,0,0:0:0:0:
320,192,58166,1,0,0:0:0:0:
192,192,58166,1,0,0:0:0:0:
448,192,58249,128,0,58583:0:0:0:0:
320,192,58333,1,0,0:0:0:0:
192,192,58333,1,0,0:0:0:0:
64,192,58333,1,0,0:0:0:0:
320,192,58499,1,0,0:0:0:0:
192,192,58499,1,0,0:0:0:0:
64,192,58666,128,0,58916:0:0:0:0:
448,192,58666,1,0,0:0:0:0:
320,192,58666,1,0,0:0:0:0:
192,192,58749,1,0,0:0:0:0:
448,192,58833,1,0,0:0:0:0:
320,192,58916,1,0,0:0:0:0:
448,192,58999,128,0,59083:0:0:0:0:
192,192,58999,1,0,0:0:0:0:
64,192,58999,1,0,0:0:0:0:
320,192,59166,128,0,59249:0:0:0:0:
64,192,59166,1,0,0:0:0:0:
64,192,59333,128,0,59499:0:0:0:0:
448,192,59333,1,0,0:0:0:0:
320,192,59333,1,0,0:0:0:0:
192,192,59333,1,0,0:0:0:0:
320,192,59499,1,0,0:0:0:0:
448,192,59583,128,0,59749:0:0:0:0:
320,192,59666,1,0,0:0:0:0:
192,192,59666,1,0,0:0:0:0:
64,192,59666,1,0,0:0:0:0:
320,192,59833,128,0,59916:0:0:0:0:
448,192,59833,1,0,0:0:0:0:
64,192,59999,128,0,60166:0:0:0:0:
448,192,59999,1,0,0:0:0:0:
320,192,59999,1,0,0:0:0:0:
192,192,59999,1,0,0:0:0:0:
448,192,60166,1,0,0:0:0:0:
192,192,60166,1,0,0:0:0:0:
320,192,60249,128,0,60416:0:0:0:0:
448,192,60333,1,0,0:0:0:0:
192,192,60333,1,0,0:0:0:0:
64,192,60333,1,0,0:0:0:0:
192,192,60499,128,0,60583:0:0:0:0:
64,192,60499,1,0,0:0:0:0:
320,192,60499,1,0,0:0:0:0:
448,192,60499,1,0,0:0:0:0:
448,192,60666,128,0,60833:0:0:0:0:
320,192,60666,1,0,0:0:0:0:
192,192,60666,1,0,0:0:0:0:
64,192,60666,1,0,0:0:0:0:
320,192,60833,1,0,0:0:0:0:
192,192,60833,1,0,0:0:0:0:
64,192,60916,128,0,61249:0:0:0:0:
448,192,60999,1,0,0:0:0:0:
320,192,60999,1,0,0:0:0:0:
192,192,60999,1,0,0:0:0:0:
320,192,61166,1,0,0:0:0:0:
448,192,61166,1,0,0:0:0:0:
64,192,61333,128,0,61583:0:0:0:0:
448,192,61333,1,0,0:0:0:0:
320,192,61333,1,0,0:0:0:0:
192,192,61333,1,0,0:0:0:0:
192,192,61499,1,0,0:0:0:0:
320,192,61499,1,0,0:0:0:0:
448,192,61666,128,0,61749:0:0:0:0:
320,192,61666,1,0,0:0:0:0:
192,192,61666,1,0,0:0:0:0:
64,192,61666,1,0,0:0:0:0:
320,192,61833,128,0,61916:0:0:0:0:
448,192,61833,1,0,0:0:0:0:
64,192,61999,128,0,62166:0:0:0:0:
448,192,61999,1,0,0:0:0:0:
320,192,61999,1,0,0:0:0:0:
192,192,61999,1,0,0:0:0:0:
320,192,62166,1,0,0:0:0:0:
192,192,62166,1,0,0:0:0:0:
448,192,62249,128,0,62416:0:0:0:0:
320,192,62333,1,0,0:0:0:0:
192,192,62333,1,0,0:0:0:0:
64,192,62333,1,0,0:0:0:0:
320,192,62499,128,0,62583:0:0:0:0:
64,192,62499,1,0,0:0:0:0:
64,192,62666,128,0,62833:0:0:0:0:
448,192,62666,1,0,0:0:0:0:
192,192,62666,1,0,0:0:0:0:
320,192,62666,1,0,0:0:0:0:
448,192,62833,1,0,0:0:0:0:
192,192,62833,1,0,0:0:0:0:
320,192,62916,128,0,63083:0:0:0:0:
448,192,62999,1,0,0:0:0:0:
192,192,62999,1,0,0:0:0:0:
64,192,62999,1,0,0:0:0:0:
192,192,63166,128,0,63249:0:0:0:0:
64,192,63166,1,0,0:0:0:0:
448,192,63333,128,0,63499:0:0:0:0:
320,192,63333,1,0,0:0:0:0:
192,192,63333,1,0,0:0:0:0:
64,192,63333,1,0,0:0:0:0:
192,192,63499,1,0,0:0:0:0:
320,192,63499,1,0,0:0:0:0:
64,192,63583,128,0,63916:0:0:0:0:
448,192,63666,1,0,0:0:0:0:
192,192,63666,1,0,0:0:0:0:
320,192,63666,1,0,0:0:0:0:
320,192,63833,1,0,0:0:0:0:
448,192,63833,1,0,0:0:0:0:
448,192,63999,128,0,64249:0:0:0:0:
192,192,63999,1,0,0:0:0:0:
64,192,63999,1,0,0:0:0:0:
320,192,64083,1,0,0:0:0:0:
64,192,64166,1,0,0:0:0:0:
192,192,64249,1,0,0:0:0:0:
64,192,64333,128,0,64416:0:0:0:0:
320,192,64333,1,0,0:0:0:0:
448,192,64333,1,0,0:0:0:0:
192,192,64499,128,0,64583:0:0:0:0:
64,192,64499,1,0,0:0:0:0:
448,192,64666,128,0,64833:0:0:0:0:
320,192,64666,1,0,0:0:0:0:
192,192,64666,1,0,0:0:0:0:
64,192,64666,1,0,0:0:0:0:
192,192,64833,1,0,0:0:0:0:
320,192,64833,1,0,0:0:0:0:
64,192,64916,128,0,65083:0:0:0:0:
192,192,64999,1,0,0:0:0:0:
320,192,64999,1,0,0:0:0:0:
448,192,64999,1,0,0:0:0:0:
192,192,65166,128,0,65249:0:0:0:0:
448,192,65166,1,0,0:0:0:0:
448,192,65333,128,0,65499:0:0:0:0:
320,192,65333,1,0,0:0:0:0:
192,192,65333,1,0,0:0:0:0:
64,192,65333,1,0,0:0:0:0:
64,192,65499,1,0,0:0:0:0:
320,192,65499,1,0,0:0:0:0:
192,192,65583,128,0,65749:0:0:0:0:
448,192,65666,1,0,0:0:0:0:
320,192,65666,1,0,0:0:0:0:
64,192,65666,1,0,0:0:0:0:
320,192,65833,128,0,65916:0:0:0:0:
192,192,65833,1,0,0:0:0:0:
64,192,65999,128,0,66166:0:0:0:0:
192,192,65999,1,0,0:0:0:0:
320,192,65999,1,0,0:0:0:0:
448,192,65999,1,0,0:0:0:0:
320,192,66166,1,0,0:0:0:0:
192,192,66166,1,0,0:0:0:0:
448,192,66249,128,0,66583:0:0:0:0:
320,192,66333,1,0,0:0:0:0:
192,192,66333,1,0,0:0:0:0:
64,192,66333,1,0,0:0:0:0:
192,192,66499,1,0,0:0:0:0:
320,192,66666,128,0,67916:0:0:0:0:
64,192,66666,128,0,66916:0:0:0:0:
192,192,66666,1,0,0:0:0:0:
192,192,66833,1,0,0:0:0:0:
192,192,66999,1,0,0:0:0:0:
448,192,66999,128,0,67083:0:0:0:0:
448,192,67166,128,0,67249:0:0:0:0:
192,192,67333,1,0,0:0:0:0:
448,192,67333,128,0,67499:0:0:0:0:
192,192,67499,1,0,0:0:0:0:
64,192,67583,128,0,67749:0:0:0:0:
192,192,67666,1,0,0:0:0:0:
448,192,67833,128,0,67999:0:0:0:0:
192,192,67999,1,0,0:0:0:0:
64,192,68020,1,0,0:0:0:0:
320,192,68166,1,0,0:0:0:0:
192,192,68187,1,0,0:0:0:0:
448,192,68333,1,0,0:0:0:0:
320,192,68354,1,0,0:0:0:0:
64,192,68499,1,0,0:0:0:0:
192,192,68520,1,0,0:0:0:0:
192,192,68666,1,0,0:0:0:0:
64,192,68666,1,0,0:0:0:0:
320,192,68687,1,0,0:0:0:0:
448,192,68749,1,0,0:0:0:0:
192,192,68833,1,0,0:0:0:0:
64,192,68854,1,0,0:0:0:0:
320,192,68916,128,0,68999:0:0:0:0:
64,192,68999,1,0,0:0:0:0:
448,192,68999,128,0,69249:0:0:0:0:
192,192,69020,1,0,0:0:0:0:
64,192,69333,1,0,0:0:0:0:
192,192,69333,1,0,0:0:0:0:
320,192,69416,1,0,0:0:0:0:
448,192,69499,1,0,0:0:0:0:
64,192,69499,1,0,0:0:0:0:
192,192,69583,1,0,0:0:0:0:
320,192,69666,1,0,0:0:0:0:
448,192,69666,1,0,0:0:0:0:
192,192,69749,1,0,0:0:0:0:
64,192,69833,1,0,0:0:0:0:
448,192,69916,1,0,0:0:0:0:
320,192,69916,1,0,0:0:0:0:
192,192,69999,1,0,0:0:0:0:
64,192,69999,1,0,0:0:0:0:
448,192,70083,1,0,0:0:0:0:
320,192,70166,1,0,0:0:0:0:
192,192,70166,1,0,0:0:0:0:
64,192,70249,1,0,0:0:0:0:
448,192,70333,1,0,0:0:0:0:
320,192,70333,1,0,0:0:0:0:
64,192,70416,1,0,0:0:0:0:
192,192,70499,1,0,0:0:0:0:
448,192,70583,1,0,0:0:0:0:
320,192,70666,1,0,0:0:0:0:
192,192,70666,1,0,0:0:0:0:
64,192,70666,1,0,0:0:0:0:
448,192,70749,1,0,0:0:0:0:
192,192,70833,1,0,0:0:0:0:
320,192,70916,1,0,0:0:0:0:
64,192,70999,1,0,0:0:0:0:
192,192,70999,1,0,0:0:0:0:
320,192,71083,1,0,0:0:0:0:
448,192,71083,1,0,0:0:0:0:
64,192,71166,1,0,0:0:0:0:
192,192,71249,1,0,0:0:0:0:
320,192,71333,1,0,0:0:0:0:
448,192,71333,1,0,0:0:0:0:
192,192,71416,1,0,0:0:0:0:
64,192,71499,1,0,0:0:0:0:
320,192,71499,1,0,0:0:0:0:
448,192,71583,1,0,0:0:0:0:
64,192,71666,128,0,71916:0:0:0:0:
192,192,71666,128,0,71916:0:0:0:0:
320,192,71666,128,0,71916:0:0:0:0:
448,192,71833,1,0,0:0:0:0:
448,192,71999,1,0,0:0:0:0:
320,192,71999,1,0,0:0:0:0:
192,192,72083,1,0,0:0:0:0:
64,192,72166,1,0,0:0:0:0:
448,192,72249,1,0,0:0:0:0:
320,192,72333,1,0,0:0:0:0:
192,192,72333,1,0,0:0:0:0:
64,192,72416,1,0,0:0:0:0:
448,192,72499,1,0,0:0:0:0:
64,192,72583,1,0,0:0:0:0:
448,192,72666,1,0,0:0:0:0:
192,192,72749,1,0,0:0:0:0:
320,192,72833,1,0,0:0:0:0:
448,192,72833,1,0,0:0:0:0:
64,192,72999,1,0,0:0:0:0:
192,192,72999,1,0,0:0:0:0:
320,192,72999,1,0,0:0:0:0:
192,192,73111,1,0,0:0:0:0:
320,192,73111,1,0,0:0:0:0:
448,192,73111,1,0,0:0:0:0:
320,192,73222,1,0,0:0:0:0:
448,192,73222,1,0,0:0:0:0:
64,192,73222,1,0,0:0:0:0:
192,192,73333,1,0,0:0:0:0:
64,192,73333,1,0,0:0:0:0:
448,192,73333,1,0,0:0:0:0:
320,192,73416,1,0,0:0:0:0:
64,192,73499,1,0,0:0:0:0:
192,192,73520,1,0,0:0:0:0:
448,192,73583,1,0,0:0:0:0:
320,192,73666,1,0,0:0:0:0:
192,192,73666,1,0,0:0:0:0:
448,192,73687,1,0,0:0:0:0:
64,192,73749,1,0,0:0:0:0:
192,192,73833,1,0,0:0:0:0:
320,192,73854,1,0,0:0:0:0:
448,192,73916,1,0,0:0:0:0:
64,192,73999,1,0,0:0:0:0:
192,192,74020,1,0,0:0:0:0:
320,192,74166,1,0,0:0:0:0:
192,192,74166,1,0,0:0:0:0:
448,192,74187,1,0,0:0:0:0:
192,192,74333,128,0,74388:0:0:0:0:
64,192,74333,128,0,74388:0:0:0:0:
192,192,74444,128,0,74499:0:0:0:0:
320,192,74444,128,0,74499:0:0:0:0:
320,192,74555,128,0,74611:0:0:0:0:
448,192,74555,128,0,74611:0:0:0:0:
192,192,74666,1,0,0:0:0:0:
64,192,74666,1,0,0:0:0:0:
448,192,74749,1,0,0:0:0:0:
64,192,74874,1,0,0:0:0:0:
192,192,74895,1,0,0:0:0:0:
320,192,74916,1,0,0:0:0:0:
448,192,74937,1,0,0:0:0:0:
192,192,74999,1,0,0:0:0:0:
64,192,74999,1,0,0:0:0:0:
320,192,75083,1,0,0:0:0:0:
448,192,75166,1,0,0:0:0:0:
64,192,75249,1,0,0:0:0:0:
320,192,75333,1,0,0:0:0:0:
192,192,75416,1,0,0:0:0:0:
448,192,75499,1,0,0:0:0:0:
320,192,75499,1,0,0:0:0:0:
192,192,75583,1,0,0:0:0:0:
64,192,75666,1,0,0:0:0:0:
448,192,75749,1,0,0:0:0:0:
192,192,75833,1,0,0:0:0:0:
448,192,75916,1,0,0:0:0:0:
192,192,75999,1,0,0:0:0:0:
64,192,75999,1,0,0:0:0:0:
320,192,76083,1,0,0:0:0:0:
448,192,76166,1,0,0:0:0:0:
64,192,76166,1,0,0:0:0:0:
192,192,76249,1,0,0:0:0:0:
320,192,76333,1,0,0:0:0:0:
448,192,76333,1,0,0:0:0:0:
192,192,76416,1,0,0:0:0:0:
64,192,76499,1,0,0:0:0:0:
448,192,76583,1,0,0:0:0:0:
320,192,76666,1,0,0:0:0:0:
192,192,76666,1,0,0:0:0:0:
64,192,76749,1,0,0:0:0:0:
192,192,76833,1,0,0:0:0:0:
320,192,76833,1,0,0:0:0:0:
448,192,76916,1,0,0:0:0:0:
64,192,76999,128,0,77041:0:0:0:0:
192,192,76999,128,0,77041:0:0:0:0:
448,192,77083,128,0,77124:0:0:0:0:
320,192,77083,128,0,77124:0:0:0:0:
64,192,77166,128,0,77208:0:0:0:0:
192,192,77166,128,0,77208:0:0:0:0:
320,192,77249,128,0,77291:0:0:0:0:
448,192,77249,128,0,77291:0:0:0:0:
192,192,77333,1,0,0:0:0:0:
64,192,77333,1,0,0:0:0:0:
320,192,77416,1,0,0:0:0:0:
448,192,77499,1,0,0:0:0:0:
64,192,77583,1,0,0:0:0:0:
192,192,77666,1,0,0:0:0:0:
320,192,77666,1,0,0:0:0:0:
448,192,77749,1,0,0:0:0:0:
64,192,77833,1,0,0:0:0:0:
192,192,77916,1,0,0:0:0:0:
320,192,77916,1,0,0:0:0:0:
64,192,77999,1,0,0:0:0:0:
320,192,78083,1,0,0:0:0:0:
448,192,78083,1,0,0:0:0:0:
192,192,78166,1,0,0:0:0:0:
64,192,78166,1,0,0:0:0:0:
448,192,78249,1,0,0:0:0:0:
320,192,78333,1,0,0:0:0:0:
64,192,78416,1,0,0:0:0:0:
320,192,78499,1,0,0:0:0:0:
448,192,78583,1,0,0:0:0:0:
64,192,78666,1,0,0:0:0:0:
192,192,78666,1,0,0:0:0:0:
320,192,78749,1,0,0:0:0:0:
64,192,78833,1,0,0:0:0:0:
448,192,78916,1,0,0:0:0:0:
192,192,78999,1,0,0:0:0:0:
64,192,78999,1,0,0:0:0:0:
320,192,79083,1,0,0:0:0:0:
448,192,79166,1,0,0:0:0:0:
192,192,79249,1,0,0:0:0:0:
320,192,79249,1,0,0:0:0:0:
64,192,79333,1,0,0:0:0:0:
192,192,79416,1,0,0:0:0:0:
320,192,79499,1,0,0:0:0:0:
448,192,79499,1,0,0:0:0:0:
192,192,79583,1,0,0:0:0:0:
64,192,79666,1,0,0:0:0:0:
192,192,79708,1,0,0:0:0:0:
320,192,79749,1,0,0:0:0:0:
448,192,79791,1,0,0:0:0:0:
64,192,79833,1,0,0:0:0:0:
192,192,79874,1,0,0:0:0:0:
320,192,79916,1,0,0:0:0:0:
448,192,79958,1,0,0:0:0:0:
192,192,79999,1,0,0:0:0:0:
64,192,79999,1,0,0:0:0:0:
320,192,80083,1,0,0:0:0:0:
448,192,80166,1,0,0:0:0:0:
64,192,80249,1,0,0:0:0:0:
320,192,80333,1,0,0:0:0:0:
192,192,80333,1,0,0:0:0:0:
448,192,80416,1,0,0:0:0:0:
320,192,80499,1,0,0:0:0:0:
64,192,80583,1,0,0:0:0:0:
192,192,80583,1,0,0:0:0:0:
320,192,80666,1,0,0:0:0:0:
448,192,80749,1,0,0:0:0:0:
64,192,80833,1,0,0:0:0:0:
192,192,80833,1,0,0:0:0:0:
320,192,80916,1,0,0:0:0:0:
192,192,80999,1,0,0:0:0:0:
448,192,80999,1,0,0:0:0:0:
64,192,81083,1,0,0:0:0:0:
192,192,81166,1,0,0:0:0:0:
64,192,81249,1,0,0:0:0:0:
448,192,81333,1,0,0:0:0:0:
320,192,81333,1,0,0:0:0:0:
192,192,81416,1,0,0:0:0:0:
64,192,81499,1,0,0:0:0:0:
448,192,81583,1,0,0:0:0:0:
320,192,81666,1,0,0:0:0:0:
192,192,81666,1,0,0:0:0:0:
64,192,81749,1,0,0:0:0:0:
192,192,81833,1,0,0:0:0:0:
320,192,81916,1,0,0:0:0:0:
448,192,81916,1,0,0:0:0:0:
192,192,81999,1,0,0:0:0:0:
64,192,82083,1,0,0:0:0:0:
320,192,82166,1,0,0:0:0:0:
448,192,82166,1,0,0:0:0:0:
192,192,82249,1,0,0:0:0:0:
64,192,82333,1,0,0:0:0:0:
320,192,82333,1,0,0:0:0:0:
448,192,82416,1,0,0:0:0:0:
320,192,82499,1,0,0:0:0:0:
448,192,82583,1,0,0:0:0:0:
192,192,82666,1,0,0:0:0:0:
64,192,82666,1,0,0:0:0:0:
320,192,82749,1,0,0:0:0:0:
448,192,82833,1,0,0:0:0:0:
64,192,82916,1,0,0:0:0:0:
320,192,82999,1,0,0:0:0:0:
448,192,82999,1,0,0:0:0:0:
192,192,83083,1,0,0:0:0:0:
64,192,83166,1,0,0:0:0:0:
320,192,83249,1,0,0:0:0:0:
448,192,83249,1,0,0:0:0:0:
192,192,83333,1,0,0:0:0:0:
64,192,83416,1,0,0:0:0:0:
320,192,83499,1,0,0:0:0:0:
448,192,83499,1,0,0:0:0:0:
192,192,83583,1,0,0:0:0:0:
64,192,83666,1,0,0:0:0:0:
320,192,83749,1,0,0:0:0:0:
192,192,83749,1,0,0:0:0:0:
448,192,83833,1,0,0:0:0:0:
64,192,83916,1,0,0:0:0:0:
320,192,83999,1,0,0:0:0:0:
448,192,83999,1,0,0:0:0:0:
192,192,84083,1,0,0:0:0:0:
64,192,84166,1,0,0:0:0:0:
320,192,84249,1,0,0:0:0:0:
448,192,84333,1,0,0:0:0:0:
192,192,84333,1,0,0:0:0:0:
64,192,84416,1,0,0:0:0:0:
192,192,84499,1,0,0:0:0:0:
320,192,84583,1,0,0:0:0:0:
448,192,84583,1,0,0:0:0:0:
192,192,84666,1,0,0:0:0:0:
64,192,84749,1,0,0:0:0:0:
448,192,84833,1,0,0:0:0:0:
64,192,84916,1,0,0:0:0:0:
320,192,84999,1,0,0:0:0:0:
448,192,84999,1,0,0:0:0:0:
192,192,85083,1,0,0:0:0:0:
64,192,85083,1,0,0:0:0:0:
320,192,85166,1,0,0:0:0:0:
448,192,85166,1,0,0:0:0:0:
192,192,85333,1,0,0:0:0:0:
64,192,85333,1,0,0:0:0:0:
320,192,85416,1,0,0:0:0:0:
448,192,85499,1,0,0:0:0:0:
192,192,85499,1,0,0:0:0:0:
64,192,85583,1,0,0:0:0:0:
192,192,85666,1,0,0:0:0:0:
320,192,85666,1,0,0:0:0:0:
448,192,85749,1,0,0:0:0:0:
64,192,85833,1,0,0:0:0:0:
192,192,85916,1,0,0:0:0:0:
320,192,85916,1,0,0:0:0:0:
448,192,85999,1,0,0:0:0:0:
192,192,86083,1,0,0:0:0:0:
64,192,86083,1,0,0:0:0:0:
320,192,86166,1,0,0:0:0:0:
448,192,86166,1,0,0:0:0:0:
192,192,86249,1,0,0:0:0:0:
64,192,86333,1,0,0:0:0:0:
448,192,86416,1,0,0:0:0:0:
320,192,86499,1,0,0:0:0:0:
192,192,86583,1,0,0:0:0:0:
64,192,86583,1,0,0:0:0:0:
320,192,86666,1,0,0:0:0:0:
448,192,86666,1,0,0:0:0:0:
192,192,86749,1,0,0:0:0:0:
64,192,86833,1,0,0:0:0:0:
448,192,86916,1,0,0:0:0:0:
320,192,86999,1,0,0:0:0:0:
192,192,86999,1,0,0:0:0:0:
448,192,87083,1,0,0:0:0:0:
64,192,87166,1,0,0:0:0:0:
320,192,87249,1,0,0:0:0:0:
448,192,87249,1,0,0:0:0:0:
192,192,87333,1,0,0:0:0:0:
64,192,87416,1,0,0:0:0:0:
320,192,87499,1,0,0:0:0:0:
192,192,87499,1,0,0:0:0:0:
448,192,87583,1,0,0:0:0:0:
64,192,87666,1,0,0:0:0:0:
192,192,87708,1,0,0:0:0:0:
320,192,87749,1,0,0:0:0:0:
448,192,87791,1,0,0:0:0:0:
64,192,87833,1,0,0:0:0:0:
192,192,87874,1,0,0:0:0:0:
320,192,87916,1,0,0:0:0:0:
448,192,87958,1,0,0:0:0:0:
192,192,87999,1,0,0:0:0:0:
64,192,87999,1,0,0:0:0:0:
448,192,88083,1,0,0:0:0:0:
64,192,88166,1,0,0:0:0:0:
448,192,88249,1,0,0:0:0:0:
320,192,88333,1,0,0:0:0:0:
192,192,88333,1,0,0:0:0:0:
64,192,88416,1,0,0:0:0:0:
192,192,88499,1,0,0:0:0:0:
320,192,88583,1,0,0:0:0:0:
448,192,88583,1,0,0:0:0:0:
192,192,88666,1,0,0:0:0:0:
64,192,88666,1,0,0:0:0:0:
320,192,88749,1,0,0:0:0:0:
448,192,88833,1,0,0:0:0:0:
192,192,88916,1,0,0:0:0:0:
64,192,88999,1,0,0:0:0:0:
320,192,89083,1,0,0:0:0:0:
64,192,89166,1,0,0:0:0:0:
320,192,89249,1,0,0:0:0:0:
192,192,89333,1,0,0:0:0:0:
64,192,89333,1,0,0:0:0:0:
320,192,89416,1,0,0:0:0:0:
448,192,89499,1,0,0:0:0:0:
192,192,89583,1,0,0:0:0:0:
448,192,89666,1,0,0:0:0:0:
320,192,89666,1,0,0:0:0:0:
192,192,89749,1,0,0:0:0:0:
64,192,89833,1,0,0:0:0:0:
192,192,89916,1,0,0:0:0:0:
448,192,89999,1,0,0:0:0:0:
320,192,89999,1,0,0:0:0:0:
192,192,90083,1,0,0:0:0:0:
320,192,90166,1,0,0:0:0:0:
448,192,90166,1,0,0:0:0:0:
64,192,90249,1,0,0:0:0:0:
192,192,90333,128,0,90583:0:0:0:0:
320,192,90333,128,0,90583:0:0:0:0:
448,192,90333,128,0,90583:0:0:0:0:
64,192,90499,1,0,0:0:0:0:
320,192,90666,1,0,0:0:0:0:
448,192,90666,128,0,90749:0:0:0:0:
192,192,90749,1,0,0:0:0:0:
64,192,90833,1,0,0:0:0:0:
448,192,90833,1,0,0:0:0:0:
320,192,90916,128,0,90999:0:0:0:0:
192,192,90999,1,0,0:0:0:0:
64,192,90999,1,0,0:0:0:0:
320,192,91083,1,0,0:0:0:0:
448,192,91166,128,0,91249:0:0:0:0:
64,192,91249,1,0,0:0:0:0:
192,192,91249,1,0,0:0:0:0:
320,192,91333,1,0,0:0:0:0:
448,192,91333,1,0,0:0:0:0:
64,192,91416,1,0,0:0:0:0:
320,192,91499,1,0,0:0:0:0:
192,192,91499,128,0,91583:0:0:0:0:
448,192,91583,1,0,0:0:0:0:
192,192,91666,1,0,0:0:0:0:
64,192,91666,128,0,91749:0:0:0:0:
448,192,91749,1,0,0:0:0:0:
320,192,91833,128,0,91916:0:0:0:0:
64,192,91916,1,0,0:0:0:0:
192,192,91999,1,0,0:0:0:0:
320,192,91999,1,0,0:0:0:0:
448,192,91999,128,0,92083:0:0:0:0:
64,192,92083,1,0,0:0:0:0:
320,192,92166,1,0,0:0:0:0:
192,192,92249,128,0,92333:0:0:0:0:
448,192,92333,1,0,0:0:0:0:
320,192,92333,1,0,0:0:0:0:
192,192,92416,1,0,0:0:0:0:
64,192,92416,1,0,0:0:0:0:
448,192,92499,128,0,92583:0:0:0:0:
320,192,92583,1,0,0:0:0:0:
192,192,92666,1,0,0:0:0:0:
64,192,92666,1,0,0:0:0:0:
320,192,92749,1,0,0:0:0:0:
448,192,92833,1,0,0:0:0:0:
192,192,92833,128,0,92916:0:0:0:0:
64,192,92916,1,0,0:0:0:0:
448,192,92999,128,0,93249:0:0:0:0:
320,192,92999,128,0,93249:0:0:0:0:
192,192,92999,128,0,93249:0:0:0:0:
64,192,93166,128,0,93249:0:0:0:0:
192,192,93333,1,0,0:0:0:0:
64,192,93333,128,0,93416:0:0:0:0:
320,192,93416,1,0,0:0:0:0:
448,192,93499,1,0,0:0:0:0:
64,192,93583,128,0,93666:0:0:0:0:
192,192,93666,1,0,0:0:0:0:
320,192,93666,1,0,0:0:0:0:
448,192,93749,1,0,0:0:0:0:
64,192,93833,128,0,93916:0:0:0:0:
448,192,93916,1,0,0:0:0:0:
64,192,93999,1,0,0:0:0:0:
320,192,94083,1,0,0:0:0:0:
64,192,94166,1,0,0:0:0:0:
192,192,94166,128,0,94249:0:0:0:0:
320,192,94333,1,0,0:0:0:0:
192,192,94333,1,0,0:0:0:0:
448,192,94333,128,0,94416:0:0:0:0:
320,192,94444,1,0,0:0:0:0:
192,192,94444,1,0,0:0:0:0:
64,192,94444,1,0,0:0:0:0:
192,192,94555,1,0,0:0:0:0:
64,192,94555,1,0,0:0:0:0:
448,192,94555,1,0,0:0:0:0:
448,192,94666,1,0,0:0:0:0:
64,192,94666,1,0,0:0:0:0:
320,192,94666,128,0,94749:0:0:0:0:
192,192,94749,1,0,0:0:0:0:
448,192,94833,128,0,94916:0:0:0:0:
64,192,94916,1,0,0:0:0:0:
320,192,94999,1,0,0:0:0:0:
192,192,94999,128,0,95083:0:0:0:0:
448,192,95083,1,0,0:0:0:0:
320,192,95166,128,0,95249:0:0:0:0:
64,192,95249,1,0,0:0:0:0:
448,192,95333,128,0,95416:0:0:0:0:
320,192,95333,1,0,0:0:0:0:
64,192,95416,1,0,0:0:0:0:
320,192,95499,1,0,0:0:0:0:
192,192,95499,128,0,95583:0:0:0:0:
320,192,95666,128,0,95722:0:0:0:0:
448,192,95666,128,0,95722:0:0:0:0:
320,192,95777,128,0,95833:0:0:0:0:
192,192,95777,128,0,95833:0:0:0:0:
192,192,95888,128,0,95944:0:0:0:0:
64,192,95888,128,0,95944:0:0:0:0:
320,192,95999,1,0,0:0:0:0:
448,192,95999,128,0,96083:0:0:0:0:
64,192,96083,1,0,0:0:0:0:
448,192,96208,1,0,0:0:0:0:
320,192,96229,1,0,0:0:0:0:
192,192,96249,128,0,96333:0:0:0:0:
64,192,96270,1,0,0:0:0:0:
320,192,96333,1,0,0:0:0:0:
192,192,96416,1,0,0:0:0:0:
64,192,96499,128,0,96583:0:0:0:0:
448,192,96583,1,0,0:0:0:0:
192,192,96666,1,0,0:0:0:0:
320,192,96749,1,0,0:0:0:0:
64,192,96833,1,0,0:0:0:0:
192,192,96833,128,0,96916:0:0:0:0:
320,192,96916,1,0,0:0:0:0:
448,192,96999,128,0,97083:0:0:0:0:
64,192,97083,1,0,0:0:0:0:
320,192,97166,128,0,97249:0:0:0:0:
64,192,97249,1,0,0:0:0:0:
320,192,97333,1,0,0:0:0:0:
448,192,97333,128,0,97416:0:0:0:0:
192,192,97416,1,0,0:0:0:0:
64,192,97499,1,0,0:0:0:0:
448,192,97499,1,0,0:0:0:0:
320,192,97583,128,0,97666:0:0:0:0:
192,192,97666,1,0,0:0:0:0:
64,192,97666,1,0,0:0:0:0:
320,192,97749,1,0,0:0:0:0:
448,192,97833,128,0,97916:0:0:0:0:
64,192,97916,1,0,0:0:0:0:
192,192,97999,1,0,0:0:0:0:
320,192,97999,1,0,0:0:0:0:
448,192,98083,1,0,0:0:0:0:
320,192,98166,1,0,0:0:0:0:
192,192,98166,128,0,98249:0:0:0:0:
64,192,98249,1,0,0:0:0:0:
448,192,98333,128,0,98374:0:0:0:0:
320,192,98333,128,0,98374:0:0:0:0:
64,192,98416,128,0,98458:0:0:0:0:
192,192,98416,128,0,98458:0:0:0:0:
448,192,98499,128,0,98541:0:0:0:0:
320,192,98499,128,0,98541:0:0:0:0:
192,192,98583,128,0,98624:0:0:0:0:
64,192,98583,128,0,98624:0:0:0:0:
320,192,98666,1,0,0:0:0:0:
448,192,98666,128,0,98749:0:0:0:0:
192,192,98749,1,0,0:0:0:0:
64,192,98833,1,0,0:0:0:0:
448,192,98916,128,0,98999:0:0:0:0:
320,192,98999,1,0,0:0:0:0:
192,192,98999,1,0,0:0:0:0:
64,192,99083,1,0,0:0:0:0:
448,192,99166,128,0,99249:0:0:0:0:
320,192,99249,1,0,0:0:0:0:
192,192,99249,1,0,0:0:0:0:
448,192,99333,1,0,0:0:0:0:
192,192,99416,1,0,0:0:0:0:
64,192,99416,1,0,0:0:0:0:
448,192,99499,1,0,0:0:0:0:
320,192,99499,128,0,99583:0:0:0:0:
64,192,99583,1,0,0:0:0:0:
192,192,99666,128,0,99749:0:0:0:0:
448,192,99749,1,0,0:0:0:0:
192,192,99833,128,0,99916:0:0:0:0:
64,192,99916,1,0,0:0:0:0:
448,192,99999,1,0,0:0:0:0:
320,192,99999,1,0,0:0:0:0:
64,192,100166,1,0,0:0:0:0:
192,192,100166,1,0,0:0:0:0:
320,192,100333,1,0,0:0:0:0:
448,192,100333,1,0,0:0:0:0:
64,192,100499,1,0,0:0:0:0:
192,192,100499,1,0,0:0:0:0:
320,192,100583,1,0,0:0:0:0:
448,192,100583,1,0,0:0:0:0:
192,192,100666,1,0,0:0:0:0:
64,192,100666,1,0,0:0:0:0:
320,192,100749,1,0,0:0:0:0:
448,192,100749,1,0,0:0:0:0:
192,192,100833,1,0,0:0:0:0:
64,192,100833,1,0,0:0:0:0:
320,192,100916,1,0,0:0:0:0:
448,192,100999,1,0,0:0:0:0:
320,192,101041,1,0,0:0:0:0:
192,192,101083,1,0,0:0:0:0:
64,192,101124,1,0,0:0:0:0:
448,192,101166,1,0,0:0:0:0:
320,192,101208,1,0,0:0:0:0:
192,192,101249,1,0,0:0:0:0:
64,192,101291,1,0,0:0:0:0:
320,192,101333,1,0,0:0:0:0:
448,192,101333,1,0,0:0:0:0:
192,192,101416,1,0,0:0:0:0:
64,192,101499,1,0,0:0:0:0:
448,192,101583,1,0,0:0:0:0:
192,192,101666,1,0,0:0:0:0:
320,192,101666,1,0,0:0:0:0:
64,192,101749,1,0,0:0:0:0:
192,192,101833,1,0,0:0:0:0:
448,192,101916,1,0,0:0:0:0:
320,192,101916,1,0,0:0:0:0:
192,192,101999,1,0,0:0:0:0:
64,192,102083,1,0,0:0:0:0:
448,192,102166,1,0,0:0:0:0:
320,192,102166,1,0,0:0:0:0:
192,192,102249,1,0,0:0:0:0:
64,192,102249,1,0,0:0:0:0:
320,192,102333,1,0,0:0:0:0:
192,192,102333,1,0,0:0:0:0:
448,192,102416,1,0,0:0:0:0:
320,192,102416,1,0,0:0:0:0:
192,192,102499,1,0,0:0:0:0:
64,192,102499,1,0,0:0:0:0:
448,192,102583,1,0,0:0:0:0:
64,192,102666,1,0,0:0:0:0:
192,192,102666,1,0,0:0:0:0:
320,192,102749,1,0,0:0:0:0:
448,192,102833,1,0,0:0:0:0:
64,192,102916,1,0,0:0:0:0:
192,192,102999,1,0,0:0:0:0:
320,192,102999,1,0,0:0:0:0:
448,192,103083,1,0,0:0:0:0:
320,192,103166,1,0,0:0:0:0:
192,192,103249,1,0,0:0:0:0:
64,192,103333,1,0,0:0:0:0:
448,192,103333,1,0,0:0:0:0:
320,192,103416,1,0,0:0:0:0:
192,192,103499,1,0,0:0:0:0:
64,192,103499,1,0,0:0:0:0:
320,192,103583,1,0,0:0:0:0:
448,192,103666,1,0,0:0:0:0:
192,192,103666,1,0,0:0:0:0:
64,192,103749,1,0,0:0:0:0:
320,192,103749,1,0,0:0:0:0:
192,192,103833,1,0,0:0:0:0:
448,192,103833,1,0,0:0:0:0:
64,192,103916,1,0,0:0:0:0:
320,192,103999,1,0,0:0:0:0:
448,192,103999,1,0,0:0:0:0:
192,192,104083,1,0,0:0:0:0:
64,192,104166,1,0,0:0:0:0:
448,192,104249,1,0,0:0:0:0:
192,192,104333,1,0,0:0:0:0:
64,192,104333,1,0,0:0:0:0:
320,192,104416,1,0,0:0:0:0:
448,192,104499,1,0,0:0:0:0:
192,192,104583,1,0,0:0:0:0:
64,192,104583,1,0,0:0:0:0:
320,192,104666,1,0,0:0:0:0:
448,192,104666,1,0,0:0:0:0:
192,192,104749,1,0,0:0:0:0:
64,192,104833,1,0,0:0:0:0:
320,192,104833,1,0,0:0:0:0:
192,192,104916,1,0,0:0:0:0:
448,192,104999,1,0,0:0:0:0:
320,192,104999,1,0,0:0:0:0:
192,192,105083,1,0,0:0:0:0:
320,192,105083,1,0,0:0:0:0:
64,192,105166,1,0,0:0:0:0:
192,192,105166,1,0,0:0:0:0:
448,192,105249,1,0,0:0:0:0:
192,192,105333,1,0,0:0:0:0:
64,192,105333,1,0,0:0:0:0:
320,192,105416,1,0,0:0:0:0:
448,192,105499,1,0,0:0:0:0:
192,192,105583,1,0,0:0:0:0:
64,192,105666,1,0,0:0:0:0:
320,192,105666,1,0,0:0:0:0:
448,192,105749,1,0,0:0:0:0:
320,192,105833,1,0,0:0:0:0:
192,192,105916,1,0,0:0:0:0:
64,192,105916,1,0,0:0:0:0:
320,192,105999,1,0,0:0:0:0:
448,192,106083,1,0,0:0:0:0:
64,192,106166,1,0,0:0:0:0:
448,192,106249,1,0,0:0:0:0:
192,192,106333,1,0,0:0:0:0:
64,192,106333,1,0,0:0:0:0:
320,192,106416,1,0,0:0:0:0:
448,192,106416,1,0,0:0:0:0:
192,192,106499,1,0,0:0:0:0:
64,192,106499,1,0,0:0:0:0:
320,192,106666,1,0,0:0:0:0:
448,192,106666,1,0,0:0:0:0:
192,192,106749,1,0,0:0:0:0:
64,192,106833,1,0,0:0:0:0:
320,192,106833,1,0,0:0:0:0:
448,192,106916,1,0,0:0:0:0:
320,192,106999,1,0,0:0:0:0:
192,192,106999,1,0,0:0:0:0:
64,192,107083,1,0,0:0:0:0:
448,192,107166,1,0,0:0:0:0:
320,192,107166,1,0,0:0:0:0:
192,192,107249,1,0,0:0:0:0:
64,192,107333,1,0,0:0:0:0:
320,192,107333,1,0,0:0:0:0:
448,192,107416,1,0,0:0:0:0:
192,192,107499,1,0,0:0:0:0:
64,192,107499,1,0,0:0:0:0:
320,192,107583,1,0,0:0:0:0:
448,192,107666,1,0,0:0:0:0:
192,192,107666,1,0,0:0:0:0:
64,192,107749,1,0,0:0:0:0:
192,192,107833,1,0,0:0:0:0:
320,192,107833,1,0,0:0:0:0:
320,192,107916,1,0,0:0:0:0:
448,192,107916,1,0,0:0:0:0:
192,192,107999,1,0,0:0:0:0:
64,192,107999,1,0,0:0:0:0:
320,192,108083,1,0,0:0:0:0:
448,192,108166,1,0,0:0:0:0:
192,192,108166,1,0,0:0:0:0:
64,192,108249,1,0,0:0:0:0:
192,192,108333,1,0,0:0:0:0:
320,192,108333,1,0,0:0:0:0:
64,192,108416,1,0,0:0:0:0:
448,192,108499,1,0,0:0:0:0:
320,192,108499,1,0,0:0:0:0:
64,192,108583,1,0,0:0:0:0:
320,192,108666,1,0,0:0:0:0:
192,192,108666,1,0,0:0:0:0:
448,192,108749,1,0,0:0:0:0:
192,192,108833,1,0,0:0:0:0:
320,192,108833,1,0,0:0:0:0:
64,192,108916,1,0,0:0:0:0:
448,192,108999,1,0,0:0:0:0:
320,192,109041,1,0,0:0:0:0:
192,192,109083,1,0,0:0:0:0:
64,192,109124,1,0,0:0:0:0:
448,192,109166,1,0,0:0:0:0:
320,192,109208,1,0,0:0:0:0:
192,192,109249,1,0,0:0:0:0:
64,192,109291,1,0,0:0:0:0:
320,192,109333,1,0,0:0:0:0:
448,192,109333,1,0,0:0:0:0:
64,192,109416,1,0,0:0:0:0:
192,192,109416,1,0,0:0:0:0:
448,192,109499,1,0,0:0:0:0:
320,192,109499,1,0,0:0:0:0:
64,192,109583,1,0,0:0:0:0:
192,192,109583,1,0,0:0:0:0:
192,192,109666,1,0,0:0:0:0:
320,192,109666,1,0,0:0:0:0:
448,192,109749,1,0,0:0:0:0:
64,192,109749,1,0,0:0:0:0:
320,192,109833,1,0,0:0:0:0:
192,192,109833,1,0,0:0:0:0:
64,192,109916,1,0,0:0:0:0:
448,192,109916,1,0,0:0:0:0:
320,192,109999,1,0,0:0:0:0:
448,192,109999,1,0,0:0:0:0:
192,192,110083,1,0,0:0:0:0:
64,192,110083,1,0,0:0:0:0:
320,192,110166,1,0,0:0:0:0:
448,192,110166,1,0,0:0:0:0:
64,192,110249,128,0,110270:0:0:0:0:
192,192,110249,128,0,110270:0:0:0:0:
320,192,110333,128,0,110354:0:0:0:0:
448,192,110333,128,0,110354:0:0:0:0:
192,192,110416,128,0,110437:0:0:0:0:
64,192,110416,128,0,110437:0:0:0:0:
448,192,110499,128,0,110520:0:0:0:0:
320,192,110499,128,0,110520:0:0:0:0:
192,192,110583,128,0,110604:0:0:0:0:
64,192,110583,128,0,110604:0:0:0:0:
448,192,110666,128,0,110749:0:0:0:0:
320,192,110666,128,0,111416:0:0:0:0:
64,192,110833,128,0,110916:0:0:0:0:
192,192,110999,128,0,111083:0:0:0:0:
448,192,110999,1,0,0:0:0:0:
448,192,111333,1,0,0:0:0:0:
320,192,111666,128,0,111916:0:0:0:0:
192,192,111666,128,0,111916:0:0:0:0:
64,192,111666,128,0,111916:0:0:0:0:
448,192,111833,1,0,0:0:0:0:
320,192,111999,1,0,0:0:0:0:
192,192,111999,1,0,0:0:0:0:
64,192,111999,1,0,0:0:0:0:
448,192,111999,128,0,112249:0:0:0:0:
192,192,112166,1,0,0:0:0:0:
320,192,112166,1,0,0:0:0:0:
64,192,112333,128,0,112416:0:0:0:0:
448,192,112333,1,0,0:0:0:0:
320,192,112333,1,0,0:0:0:0:
192,192,112333,1,0,0:0:0:0:
192,192,112499,128,0,112583:0:0:0:0:
448,192,112499,1,0,0:0:0:0:
448,192,112666,128,0,112833:0:0:0:0:
320,192,112666,1,0,0:0:0:0:
192,192,112666,1,0,0:0:0:0:
64,192,112666,1,0,0:0:0:0:
192,192,112833,1,0,0:0:0:0:
320,192,112833,1,0,0:0:0:0:
64,192,112916,128,0,113083:0:0:0:0:
448,192,112999,1,0,0:0:0:0:
320,192,112999,1,0,0:0:0:0:
192,192,112999,1,0,0:0:0:0:
192,192,113166,128,0,113249:0:0:0:0:
64,192,113166,1,0,0:0:0:0:
448,192,113333,128,0,113499:0:0:0:0:
320,192,113333,1,0,0:0:0:0:
192,192,113333,1,0,0:0:0:0:
64,192,113333,1,0,0:0:0:0:
64,192,113499,1,0,0:0:0:0:
320,192,113499,1,0,0:0:0:0:
192,192,113583,128,0,113749:0:0:0:0:
448,192,113666,1,0,0:0:0:0:
320,192,113666,1,0,0:0:0:0:
64,192,113666,1,0,0:0:0:0:
320,192,113833,128,0,113916:0:0:0:0:
448,192,113833,1,0,0:0:0:0:
64,192,113999,128,0,114166:0:0:0:0:
448,192,113999,1,0,0:0:0:0:
320,192,113999,1,0,0:0:0:0:
192,192,113999,1,0,0:0:0:0:
320,192,114166,1,0,0:0:0:0:
192,192,114166,1,0,0:0:0:0:
448,192,114249,128,0,114583:0:0:0:0:
320,192,114333,1,0,0:0:0:0:
192,192,114333,1,0,0:0:0:0:
64,192,114333,1,0,0:0:0:0:
320,192,114499,1,0,0:0:0:0:
192,192,114499,1,0,0:0:0:0:
64,192,114666,128,0,114916:0:0:0:0:
448,192,114666,1,0,0:0:0:0:
320,192,114666,1,0,0:0:0:0:
192,192,114749,1,0,0:0:0:0:
448,192,114833,1,0,0:0:0:0:
320,192,114916,1,0,0:0:0:0:
448,192,114999,128,0,115083:0:0:0:0:
192,192,114999,1,0,0:0:0:0:
64,192,114999,1,0,0:0:0:0:
320,192,115166,128,0,115249:0:0:0:0:
64,192,115166,1,0,0:0:0:0:
64,192,115333,128,0,115499:0:0:0:0:
448,192,115333,1,0,0:0:0:0:
320,192,115333,1,0,0:0:0:0:
192,192,115333,1,0,0:0:0:0:
320,192,115499,1,0,0:0:0:0:
448,192,115583,128,0,115749:0:0:0:0:
320,192,115666,1,0,0:0:0:0:
192,192,115666,1,0,0:0:0:0:
64,192,115666,1,0,0:0:0:0:
320,192,115833,128,0,115916:0:0:0:0:
448,192,115833,1,0,0:0:0:0:
64,192,115999,128,0,116166:0:0:0:0:
448,192,115999,1,0,0:0:0:0:
320,192,115999,1,0,0:0:0:0:
192,192,115999,1,0,0:0:0:0:
448,192,116166,1,0,0:0:0:0:
192,192,116166,1,0,0:0:0:0:
320,192,116249,128,0,116416:0:0:0:0:
448,192,116333,1,0,0:0:0:0:
192,192,116333,1,0,0:0:0:0:
64,192,116333,1,0,0:0:0:0:
192,192,116499,128,0,116583:0:0:0:0:
64,192,116499,1,0,0:0:0:0:
320,192,116499,1,0,0:0:0:0:
448,192,116499,1,0,0:0:0:0:
448,192,116666,128,0,116833:0:0:0:0:
320,192,116666,1,0,0:0:0:0:
192,192,116666,1,0,0:0:0:0:
64,192,116666,1,0,0:0:0:0:
320,192,116833,1,0,0:0:0:0:
192,192,116833,1,0,0:0:0:0:
64,192,116916,128,0,117249:0:0:0:0:
448,192,116999,1,0,0:0:0:0:
320,192,116999,1,0,0:0:0:0:
192,192,116999,1,0,0:0:0:0:
320,192,117166,1,0,0:0:0:0:
448,192,117166,1,0,0:0:0:0:
64,192,117333,128,0,117583:0:0:0:0:
448,192,117333,1,0,0:0:0:0:
320,192,117333,1,0,0:0:0:0:
192,192,117333,1,0,0:0:0:0:
192,192,117499,1,0,0:0:0:0:
320,192,117499,1,0,0:0:0:0:
448,192,117666,128,0,117749:0:0:0:0:
320,192,117666,1,0,0:0:0:0:
192,192,117666,1,0,0:0:0:0:
64,192,117666,1,0,0:0:0:0:
320,192,117833,128,0,117916:0:0:0:0:
448,192,117833,1,0,0:0:0:0:
64,192,117999,128,0,118166:0:0:0:0:
448,192,117999,1,0,0:0:0:0:
320,192,117999,1,0,0:0:0:0:
192,192,117999,1,0,0:0:0:0:
320,192,118166,1,0,0:0:0:0:
192,192,118166,1,0,0:0:0:0:
448,192,118249,128,0,118416:0:0:0:0:
320,192,118333,1,0,0:0:0:0:
192,192,118333,1,0,0:0:0:0:
64,192,118333,1,0,0:0:0:0:
320,192,118499,128,0,118583:0:0:0:0:
64,192,118499,1,0,0:0:0:0:
64,192,118666,128,0,118833:0:0:0:0:
448,192,118666,1,0,0:0:0:0:
192,192,118666,1,0,0:0:0:0:
320,192,118666,1,0,0:0:0:0:
448,192,118833,1,0,0:0:0:0:
192,192,118833,1,0,0:0:0:0:
320,192,118916,128,0,119083:0:0:0:0:
448,192,118999,1,0,0:0:0:0:
192,192,118999,1,0,0:0:0:0:
64,192,118999,1,0,0:0:0:0:
192,192,119166,128,0,119249:0:0:0:0:
64,192,119166,1,0,0:0:0:0:
448,192,119333,128,0,119499:0:0:0:0:
320,192,119333,1,0,0:0:0:0:
192,192,119333,1,0,0:0:0:0:
64,192,119333,1,0,0:0:0:0:
192,192,119499,1,0,0:0:0:0:
320,192,119499,1,0,0:0:0:0:
64,192,119583,128,0,119916:0:0:0:0:
448,192,119666,1,0,0:0:0:0:
192,192,119666,1,0,0:0:0:0:
320,192,119666,1,0,0:0:0:0:
320,192,119833,1,0,0:0:0:0:
448,192,119833,1,0,0:0:0:0:
448,192,119999,128,0,120249:0:0:0:0:
192,192,119999,1,0,0:0:0:0:
64,192,119999,1,0,0:0:0:0:
320,192,120083,1,0,0:0:0:0:
64,192,120166,1,0,0:0:0:0:
192,192,120249,1,0,0:0:0:0:
64,192,120333,128,0,120416:0:0:0:0:
320,192,120333,1,0,0:0:0:0:
448,192,120333,1,0,0:0:0:0:
192,192,120499,128,0,120583:0:0:0:0:
64,192,120499,1,0,0:0:0:0:
448,192,120666,128,0,120833:0:0:0:0:
320,192,120666,1,0,0:0:0:0:
192,192,120666,1,0,0:0:0:0:
64,192,120666,1,0,0:0:0:0:
192,192,120833,1,0,0:0:0:0:
320,192,120833,1,0,0:0:0:0:
64,192,120916,128,0,121083:0:0:0:0:
192,192,120999,1,0,0:0:0:0:
320,192,120999,1,0,0:0:0:0:
448,192,120999,1,0,0:0:0:0:
192,192,121166,128,0,121249:0:0:0:0:
448,192,121166,1,0,0:0:0:0:
448,192,121333,128,0,121499:0:0:0:0:
320,192,121333,1,0,0:0:0:0:
192,192,121333,1,0,0:0:0:0:
64,192,121333,1,0,0:0:0:0:
64,192,121499,1,0,0:0:0:0:
320,192,121499,1,0,0:0:0:0:
192,192,121583,128,0,121749:0:0:0:0:
448,192,121666,1,0,0:0:0:0:
320,192,121666,1,0,0:0:0:0:
64,192,121666,1,0,0:0:0:0:
320,192,121833,128,0,121916:0:0:0:0:
192,192,121833,1,0,0:0:0:0:
64,192,121999,128,0,122166:0:0:0:0:
192,192,121999,1,0,0:0:0:0:
320,192,121999,1,0,0:0:0:0:
448,192,121999,1,0,0:0:0:0:
320,192,122166,1,0,0:0:0:0:
192,192,122166,1,0,0:0:0:0:
448,192,122249,128,0,122583:0:0:0:0:
64,192,122333,128,0,122583:0:0:0:0:
192,192,122333,128,0,122583:0:0:0:0:
320,192,122333,128,0,122583:0:0:0:0:
64,192,122666,1,0,0:0:0:0:
192,192,122666,1,0,0:0:0:0:
320,192,122666,1,0,0:0:0:0:
448,192,122666,1,0,0:0:0:0:
448,192,122833,1,0,0:0:0:0:
320,192,122833,1,0,0:0:0:0:
192,192,122833,1,0,0:0:0:0:
64,192,122999,1,0,0:0:0:0:
320,192,122999,1,0,0:0:0:0:
448,192,122999,1,0,0:0:0:0:
192,192,122999,1,0,0:0:0:0:
64,192,123166,1,0,0:0:0:0:
192,192,123166,1,0,0:0:0:0:
320,192,123166,1,0,0:0:0:0:
448,192,123333,1,0,0:0:0:0:
320,192,123333,1,0,0:0:0:0:
192,192,123333,1,0,0:0:0:0:
64,192,123333,1,0,0:0:0:0:
192,192,123499,1,0,0:0:0:0:
448,192,123499,1,0,0:0:0:0:
64,192,123499,1,0,0:0:0:0:
448,192,123666,1,0,0:0:0:0:
320,192,123666,1,0,0:0:0:0:
192,192,123666,1,0,0:0:0:0:
64,192,123666,1,0,0:0:0:0:
320,192,123833,1,0,0:0:0:0:
64,192,123833,1,0,0:0:0:0:
448,192,123833,1,0,0:0:0:0:
64,192,123999,1,0,0:0:0:0:
192,192,123999,1,0,0:0:0:0:
320,192,123999,1,0,0:0:0:0:
448,192,123999,1,0,0:0:0:0:
448,192,124166,1,0,0:0:0:0:
192,192,124166,1,0,0:0:0:0:
64,192,124166,1,0,0:0:0:0:
64,192,124333,1,0,0:0:0:0:
192,192,124333,1,0,0:0:0:0:
320,192,124333,1,0,0:0:0:0:
448,192,124333,1,0,0:0:0:0:
64,192,124499,1,0,0:0:0:0:
320,192,124499,1,0,0:0:0:0:
448,192,124499,1,0,0:0:0:0:
448,192,124666,1,0,0:0:0:0:
320,192,124666,1,0,0:0:0:0:
192,192,124666,1,0,0:0:0:0:
64,192,124666,1,0,0:0:0:0:
448,192,124833,1,0,0:0:0:0:
192,192,124833,1,0,0:0:0:0:
320,192,124833,1,0,0:0:0:0:
64,192,124999,128,0,125249:0:0:0:0:
192,192,124999,128,0,125249:0:0:0:0:
320,192,124999,128,0,125249:0:0:0:0:
448,192,124999,128,0,125249:0:0:0:0:
448,192,125333,1,0,0:0:0:0:
320,192,125333,1,0,0:0:0:0:
64,192,125333,1,0,0:0:0:0:
192,192,125333,1,0,0:0:0:0:
192,192,125499,1,0,0:0:0:0:
64,192,125499,1,0,0:0:0:0:
448,192,125499,1,0,0:0:0:0:
192,192,125666,1,0,0:0:0:0:
64,192,125666,1,0,0:0:0:0:
448,192,125749,1,0,0:0:0:0:
320,192,125749,1,0,0:0:0:0:
192,192,125833,1,0,0:0:0:0:
64,192,125833,1,0,0:0:0:0:
320,192,125916,1,0,0:0:0:0:
448,192,125916,1,0,0:0:0:0:
64,192,125999,1,0,0:0:0:0:
192,192,125999,1,0,0:0:0:0:
320,192,125999,1,0,0:0:0:0:
448,192,125999,1,0,0:0:0:0:
448,192,126166,1,0,0:0:0:0:
320,192,126166,1,0,0:0:0:0:
64,192,126166,1,0,0:0:0:0:
448,192,126333,1,0,0:0:0:0:
320,192,126333,1,0,0:0:0:0:
64,192,126333,1,0,0:0:0:0:
192,192,126333,1,0,0:0:0:0:
320,192,126499,1,0,0:0:0:0:
64,192,126499,1,0,0:0:0:0:
192,192,126499,1,0,0:0:0:0:
320,192,126666,1,0,0:0:0:0:
448,192,126666,1,0,0:0:0:0:
64,192,126666,1,0,0:0:0:0:
192,192,126666,1,0,0:0:0:0:
448,192,126833,1,0,0:0:0:0:
192,192,126833,1,0,0:0:0:0:
320,192,126833,1,0,0:0:0:0:
64,192,126999,1,0,0:0:0:0:
192,192,126999,1,0,0:0:0:0:
320,192,126999,1,0,0:0:0:0:
448,192,126999,1,0,0:0:0:0:
448,192,127166,1,0,0:0:0:0:
320,192,127166,1,0,0:0:0:0:
64,192,127166,1,0,0:0:0:0:
64,192,127333,1,0,0:0:0:0:
192,192,127333,1,0,0:0:0:0:
320,192,127333,1,0,0:0:0:0:
448,192,127333,1,0,0:0:0:0:
192,192,127499,1,0,0:0:0:0:
320,192,127499,1,0,0:0:0:0:
64,192,127499,1,0,0:0:0:0:
448,192,127666,1,0,0:0:0:0:
320,192,127666,1,0,0:0:0:0:
192,192,127666,1,0,0:0:0:0:
64,192,127666,1,0,0:0:0:0:
192,192,127833,1,0,0:0:0:0:
64,192,127999,1,0,0:0:0:0:
192,192,127999,1,0,0:0:0:0:
320,192,127999,1,0,0:0:0:0:
448,192,127999,1,0,0:0:0:0:
448,192,128166,1,0,0:0:0:0:
320,192,128166,1,0,0:0:0:0:
64,192,128166,1,0,0:0:0:0:
64,192,128333,1,0,0:0:0:0:
192,192,128333,1,0,0:0:0:0:
320,192,128333,1,0,0:0:0:0:
448,192,128333,1,0,0:0:0:0:
320,192,128499,1,0,0:0:0:0:
192,192,128499,1,0,0:0:0:0:
64,192,128499,1,0,0:0:0:0:
448,192,128666,1,0,0:0:0:0:
320,192,128666,1,0,0:0:0:0:
192,192,128666,1,0,0:0:0:0:
64,192,128666,1,0,0:0:0:0:
192,192,128833,1,0,0:0:0:0:
320,192,128833,1,0,0:0:0:0:
448,192,128833,1,0,0:0:0:0:
448,192,128999,1,0,0:0:0:0:
192,192,128999,1,0,0:0:0:0:
64,192,128999,1,0,0:0:0:0:
320,192,128999,1,0,0:0:0:0:
192,192,129166,1,0,0:0:0:0:
64,192,129166,1,0,0:0:0:0:
448,192,129166,1,0,0:0:0:0:
448,192,129333,1,0,0:0:0:0:
320,192,129333,1,0,0:0:0:0:
192,192,129333,1,0,0:0:0:0:
64,192,129333,1,0,0:0:0:0:
320,192,129499,1,0,0:0:0:0:
192,192,129499,1,0,0:0:0:0:
64,192,129499,1,0,0:0:0:0:
448,192,129666,1,0,0:0:0:0:
320,192,129666,1,0,0:0:0:0:
192,192,129666,1,0,0:0:0:0:
64,192,129666,1,0,0:0:0:0:
192,192,129833,1,0,0:0:0:0:
320,192,129833,1,0,0:0:0:0:
448,192,129833,1,0,0:0:0:0:
448,192,129999,1,0,0:0:0:0:
320,192,129999,1,0,0:0:0:0:
64,192,129999,1,0,0:0:0:0:
192,192,129999,1,0,0:0:0:0:
64,192,130166,1,0,0:0:0:0:
192,192,130166,1,0,0:0:0:0:
448,192,130166,1,0,0:0:0:0:
64,192,130333,128,0,130583:0:0:0:0:
192,192,130333,128,0,130583:0:0:0:0:
320,192,130333,128,0,130583:0:0:0:0:
448,192,130333,128,0,130583:0:0:0:0:
192,192,130666,1,0,0:0:0:0:
64,192,130666,1,0,0:0:0:0:
320,192,130666,1,0,0:0:0:0:
448,192,130666,1,0,0:0:0:0:
448,192,130833,1,0,0:0:0:0:
192,192,130833,1,0,0:0:0:0:
64,192,130833,1,0,0:0:0:0:
64,192,130999,128,0,131083:0:0:0:0:
192,192,130999,128,0,131083:0:0:0:0:
320,192,130999,128,0,131083:0:0:0:0:
448,192,130999,128,0,131083:0:0:0:0:
448,192,131166,128,0,131249:0:0:0:0:
320,192,131166,128,0,131249:0:0:0:0:
192,192,131166,128,0,131249:0:0:0:0:
64,192,131166,128,0,131249:0:0:0:0:
192,192,131333,1,0,0:0:0:0:
64,192,131333,1,0,0:0:0:0:
320,192,131333,1,0,0:0:0:0:
448,192,131333,1,0,0:0:0:0:
448,192,131499,1,0,0:0:0:0:
320,192,131499,1,0,0:0:0:0:
192,192,131499,1,0,0:0:0:0:
192,192,131666,1,0,0:0:0:0:
64,192,131666,1,0,0:0:0:0:
320,192,131666,1,0,0:0:0:0:
448,192,131666,1,0,0:0:0:0:
320,192,131833,1,0,0:0:0:0:
192,192,131833,1,0,0:0:0:0:
64,192,131833,1,0,0:0:0:0:
320,192,131999,1,0,0:0:0:0:
448,192,131999,1,0,0:0:0:0:
192,192,131999,1,0,0:0:0:0:
64,192,131999,1,0,0:0:0:0:
192,192,132166,1,0,0:0:0:0:
320,192,132166,1,0,0:0:0:0:
448,192,132166,1,0,0:0:0:0:
192,192,132333,1,0,0:0:0:0:
64,192,132333,1,0,0:0:0:0:
448,192,132499,1,0,0:0:0:0:
320,192,132499,1,0,0:0:0:0:
192,192,132666,1,0,0:0:0:0:
64,192,132666,1,0,0:0:0:0:
320,192,132749,1,0,0:0:0:0:
448,192,132749,1,0,0:0:0:0:
192,192,132833,1,0,0:0:0:0:
64,192,132833,1,0,0:0:0:0:
448,192,132916,1,0,0:0:0:0:
320,192,132916,1,0,0:0:0:0:
64,192,132999,1,0,0:0:0:0:
192,192,133041,1,0,0:0:0:0:
448,192,133083,1,0,0:0:0:0:
320,192,133124,1,0,0:0:0:0:
64,192,133166,1,0,0:0:0:0:
192,192,133208,1,0,0:0:0:0:
64,192,133333,1,0,0:0:0:0:
192,192,133333,1,0,0:0:0:0:
320,192,133333,1,0,0:0:0:0:
448,192,133333,1,0,0:0:0:0:
64,192,133499,128,0,133583:0:0:0:0:
192,192,133499,128,0,133583:0:0:0:0:
320,192,133499,1,0,0:0:0:0:
448,192,133666,1,0,0:0:0:0:
320,192,133666,1,0,0:0:0:0:
192,192,133666,1,0,0:0:0:0:
64,192,133666,1,0,0:0:0:0:
320,192,133833,128,0,133916:0:0:0:0:
448,192,133833,128,0,133916:0:0:0:0:
192,192,133833,1,0,0:0:0:0:
64,192,133999,1,0,0:0:0:0:
192,192,133999,1,0,0:0:0:0:
320,192,133999,1,0,0:0:0:0:
448,192,133999,1,0,0:0:0:0:
192,192,134166,128,0,134249:0:0:0:0:
320,192,134166,128,0,134249:0:0:0:0:
448,192,134166,1,0,0:0:0:0:
448,192,134333,1,0,0:0:0:0:
320,192,134333,1,0,0:0:0:0:
192,192,134333,1,0,0:0:0:0:
64,192,134333,1,0,0:0:0:0:
192,192,134499,128,0,134583:0:0:0:0:
320,192,134499,128,0,134583:0:0:0:0:
64,192,134499,1,0,0:0:0:0:
64,192,134666,1,0,0:0:0:0:
192,192,134666,1,0,0:0:0:0:
320,192,134666,1,0,0:0:0:0:
448,192,134666,1,0,0:0:0:0:
192,192,134833,128,0,134916:0:0:0:0:
448,192,134833,128,0,134916:0:0:0:0:
320,192,134833,1,0,0:0:0:0:
448,192,134999,1,0,0:0:0:0:
64,192,134999,1,0,0:0:0:0:
192,192,134999,1,0,0:0:0:0:
320,192,134999,1,0,0:0:0:0:
64,192,135166,128,0,135249:0:0:0:0:
320,192,135166,128,0,135249:0:0:0:0:
192,192,135166,1,0,0:0:0:0:
64,192,135333,1,0,0:0:0:0:
192,192,135333,1,0,0:0:0:0:
320,192,135333,1,0,0:0:0:0:
448,192,135333,1,0,0:0:0:0:
64,192,135499,128,0,135583:0:0:0:0:
448,192,135499,128,0,135583:0:0:0:0:
320,192,135499,1,0,0:0:0:0:
448,192,135666,128,0,135916:0:0:0:0:
320,192,135666,128,0,135916:0:0:0:0:
192,192,135666,128,0,135916:0:0:0:0:
64,192,135666,128,0,135916:0:0:0:0:
64,192,135999,1,0,0:0:0:0:
192,192,135999,1,0,0:0:0:0:
320,192,135999,1,0,0:0:0:0:
448,192,135999,1,0,0:0:0:0:
64,192,136166,128,0,136249:0:0:0:0:
448,192,136166,128,0,136249:0:0:0:0:
320,192,136166,1,0,0:0:0:0:
448,192,136333,1,0,0:0:0:0:
320,192,136333,1,0,0:0:0:0:
192,192,136333,1,0,0:0:0:0:
64,192,136333,1,0,0:0:0:0:
192,192,136499,128,0,136583:0:0:0:0:
320,192,136499,128,0,136583:0:0:0:0:
64,192,136499,1,0,0:0:0:0:
448,192,136666,1,0,0:0:0:0:
320,192,136666,1,0,0:0:0:0:
192,192,136666,1,0,0:0:0:0:
64,192,136666,1,0,0:0:0:0:
448,192,136833,128,0,136916:0:0:0:0:
64,192,136833,128,0,136916:0:0:0:0:
192,192,136833,1,0,0:0:0:0:
64,192,136999,1,0,0:0:0:0:
192,192,136999,1,0,0:0:0:0:
320,192,136999,1,0,0:0:0:0:
448,192,136999,1,0,0:0:0:0:
192,192,137166,128,0,137249:0:0:0:0:
320,192,137166,128,0,137249:0:0:0:0:
448,192,137166,1,0,0:0:0:0:
448,192,137333,1,0,0:0:0:0:
192,192,137333,1,0,0:0:0:0:
320,192,137333,1,0,0:0:0:0:
64,192,137333,1,0,0:0:0:0:
448,192,137499,128,0,137583:0:0:0:0:
320,192,137499,128,0,137583:0:0:0:0:
64,192,137499,1,0,0:0:0:0:
64,192,137666,1,0,0:0:0:0:
192,192,137666,1,0,0:0:0:0:
320,192,137666,1,0,0:0:0:0:
448,192,137666,1,0,0:0:0:0:
64,192,137833,128,0,137916:0:0:0:0:
192,192,137833,128,0,137916:0:0:0:0:
448,192,137833,1,0,0:0:0:0:
64,192,137999,128,0,138083:0:0:0:0:
192,192,137999,128,0,138083:0:0:0:0:
320,192,137999,128,0,138083:0:0:0:0:
448,192,137999,128,0,138083:0:0:0:0:
192,192,138166,128,0,138249:0:0:0:0:
448,192,138166,128,0,138249:0:0:0:0:
64,192,138166,1,0,0:0:0:0:
448,192,138333,128,0,138416:0:0:0:0:
320,192,138333,128,0,138416:0:0:0:0:
192,192,138333,128,0,138416:0:0:0:0:
64,192,138333,128,0,138416:0:0:0:0:
64,192,138499,128,0,138583:0:0:0:0:
320,192,138499,128,0,138583:0:0:0:0:
448,192,138499,1,0,0:0:0:0:
64,192,138666,1,0,0:0:0:0:
192,192,138666,1,0,0:0:0:0:
320,192,138666,1,0,0:0:0:0:
448,192,138666,1,0,0:0:0:0:
64,192,138833,128,0,138916:0:0:0:0:
192,192,138833,128,0,138916:0:0:0:0:
320,192,138833,1,0,0:0:0:0:
448,192,138999,1,0,0:0:0:0:
192,192,138999,1,0,0:0:0:0:
320,192,138999,1,0,0:0:0:0:
64,192,138999,1,0,0:0:0:0:
448,192,139166,128,0,139249:0:0:0:0:
320,192,139166,128,0,139249:0:0:0:0:
192,192,139166,1,0,0:0:0:0:
64,192,139333,1,0,0:0:0:0:
192,192,139333,1,0,0:0:0:0:
320,192,139333,1,0,0:0:0:0:
448,192,139333,1,0,0:0:0:0:
64,192,139499,128,0,139583:0:0:0:0:
448,192,139499,128,0,139583:0:0:0:0:
320,192,139499,1,0,0:0:0:0:
448,192,139666,1,0,0:0:0:0:
320,192,139666,1,0,0:0:0:0:
192,192,139666,1,0,0:0:0:0:
64,192,139666,1,0,0:0:0:0:
192,192,139833,128,0,139916:0:0:0:0:
320,192,139833,128,0,139916:0:0:0:0:
64,192,139833,1,0,0:0:0:0:
64,192,139999,1,0,0:0:0:0:
192,192,139999,1,0,0:0:0:0:
320,192,139999,1,0,0:0:0:0:
448,192,139999,1,0,0:0:0:0:
448,192,140166,128,0,140249:0:0:0:0:
64,192,140166,128,0,140249:0:0:0:0:
320,192,140166,1,0,0:0:0:0:
448,192,140333,1,0,0:0:0:0:
320,192,140333,1,0,0:0:0:0:
192,192,140333,1,0,0:0:0:0:
64,192,140333,1,0,0:0:0:0:
320,192,140499,128,0,140583:0:0:0:0:
192,192,140499,128,0,140583:0:0:0:0:
448,192,140499,1,0,0:0:0:0:
64,192,140666,1,0,0:0:0:0:
192,192,140666,1,0,0:0:0:0:
320,192,140666,1,0,0:0:0:0:
448,192,140666,1,0,0:0:0:0:
64,192,140833,128,0,140916:0:0:0:0:
192,192,140833,128,0,140916:0:0:0:0:
320,192,140833,1,0,0:0:0:0:
448,192,140999,128,0,141249:0:0:0:0:
320,192,140999,128,0,141249:0:0:0:0:
192,192,140999,128,0,141249:0:0:0:0:
64,192,140999,128,0,141249:0:0:0:0:
64,192,141333,1,0,0:0:0:0:
192,192,141333,1,0,0:0:0:0:
320,192,141333,1,0,0:0:0:0:
448,192,141333,1,0,0:0:0:0:
448,192,141499,128,0,141583:0:0:0:0:
320,192,141499,128,0,141583:0:0:0:0:
64,192,141499,1,0,0:0:0:0:
448,192,141666,1,0,0:0:0:0:
320,192,141666,1,0,0:0:0:0:
192,192,141666,1,0,0:0:0:0:
64,192,141666,1,0,0:0:0:0:
64,192,141833,128,0,141916:0:0:0:0:
192,192,141833,128,0,141916:0:0:0:0:
448,192,141833,1,0,0:0:0:0:
64,192,141999,1,0,0:0:0:0:
192,192,141999,1,0,0:0:0:0:
320,192,141999,1,0,0:0:0:0:
448,192,141999,1,0,0:0:0:0:
192,192,142166,128,0,142249:0:0:0:0:
448,192,142166,128,0,142249:0:0:0:0:
320,192,142166,1,0,0:0:0:0:
448,192,142333,1,0,0:0:0:0:
320,192,142333,1,0,0:0:0:0:
192,192,142333,1,0,0:0:0:0:
64,192,142333,1,0,0:0:0:0:
64,192,142499,128,0,142583:0:0:0:0:
320,192,142499,128,0,142583:0:0:0:0:
192,192,142499,1,0,0:0:0:0:
64,192,142666,128,0,142749:0:0:0:0:
192,192,142666,128,0,142749:0:0:0:0:
320,192,142666,128,0,142749:0:0:0:0:
448,192,142666,128,0,142749:0:0:0:0:
320,192,142833,128,0,142916:0:0:0:0:
192,192,142833,128,0,142916:0:0:0:0:
448,192,142999,128,0,143083:0:0:0:0:
320,192,142999,128,0,143083:0:0:0:0:
192,192,142999,128,0,143083:0:0:0:0:
64,192,142999,128,0,143083:0:0:0:0:
448,192,143166,128,0,143249:0:0:0:0:
64,192,143166,128,0,143249:0:0:0:0:
64,192,143333,128,0,143499:0:0:0:0:
192,192,143333,128,0,143499:0:0:0:0:
320,192,143333,128,0,143499:0:0:0:0:
448,192,143333,128,0,143499:0:0:0:0:
448,192,143666,128,0,143916:0:0:0:0:
64,192,143666,128,0,143916:0:0:0:0:
192,192,143666,128,0,143916:0:0:0:0:
320,192,143666,128,0,143916:0:0:0:0:
64,192,143999,1,0,0:0:0:0:
192,192,144041,1,0,0:0:0:0:
320,192,144083,1,0,0:0:0:0:
448,192,144124,1,0,0:0:0:0:
192,192,144166,1,0,0:0:0:0:
64,192,144208,1,0,0:0:0:0:
320,192,144249,1,0,0:0:0:0:
448,192,144291,1,0,0:0:0:0:
192,192,144333,1,0,0:0:0:0:
64,192,144374,1,0,0:0:0:0:
448,192,144416,1,0,0:0:0:0:
320,192,144458,1,0,0:0:0:0:
192,192,144499,1,0,0:0:0:0:
64,192,144541,1,0,0:0:0:0:
448,192,144583,1,0,0:0:0:0:
320,192,144624,1,0,0:0:0:0:
192,192,144666,1,0,0:0:0:0:
64,192,144708,1,0,0:0:0:0:
320,192,144749,1,0,0:0:0:0:
448,192,144791,1,0,0:0:0:0:
192,192,144833,1,0,0:0:0:0:
64,192,144874,1,0,0:0:0:0:
448,192,144916,1,0,0:0:0:0:
320,192,144958,1,0,0:0:0:0:
64,192,144999,1,0,0:0:0:0:
192,192,145041,1,0,0:0:0:0:
448,192,145083,1,0,0:0:0:0:
320,192,145124,1,0,0:0:0:0:
64,192,145166,1,0,0:0:0:0:
192,192,145208,1,0,0:0:0:0:
448,192,145249,1,0,0:0:0:0:
320,192,145291,1,0,0:0:0:0:
64,192,145333,128,0,145416:0:0:0:0:
192,192,145416,128,0,145499:0:0:0:0:
320,192,145499,128,0,146249:0:0:0:0:
