osu file format v14

[General]
AudioFilename: Men Without Hats - The Safety Dance (Gens) [Music].mp3
AudioLeadIn: 2000
PreviewTime: 56582
Countdown: 0
SampleSet: None
StackLeniency: 0.7
Mode: 0
LetterboxInBreaks: 0
WidescreenStoryboard: 0

[Editor]
Bookmarks: 35,9360,28308,37782,56730,75678,85152,94626,113574,132522,151470,160944,161537
DistanceSpacing: 0.8
BeatDivisor: 4
GridSize: 4
TimelineZoom: 1

[Metadata]
Title:The Safety Dance
TitleUnicode:The Safety Dance
Artist:Men Without Hats
ArtistUnicode:Men Without Hats
Creator:Gens
Version:Insane
Source:
Tags:
BeatmapID:1746040
BeatmapSetID:833562

[Difficulty]
HPDrainRate:6
CircleSize:4
OverallDifficulty:7
ApproachRate:8
SliderMultiplier:3.2
SliderTickRate:2

[Events]
//Background and Video events
0,0,"Men Without Hats - The Safety Dance (Gens) [Background].png",0,0
//Break Periods
2,28656,37180
2,85500,94024
//Storyboard Layer 0 (Background)
//Storyboard Layer 1 (Fail)
//Storyboard Layer 2 (Pass)
//Storyboard Layer 3 (Foreground)
//Storyboard Sound Samples

[TimingPoints]
35,592.124740945426,4,1,0,60,1,0
9508,-100,4,1,0,50,0,0
56878,-100,4,1,0,55,0,0
75826,-100,4,1,0,60,0,1
85300,-100,4,1,0,55,0,0
94774,-100,4,1,0,50,0,0
113722,-100,4,1,0,55,0,0
132670,-100,4,1,0,60,0,1
151617,-100,4,1,0,65,0,0
151618,-100,4,1,0,65,0,1
161092,-100,4,1,0,70,0,1
161684,-100,4,1,0,70,0,0
161685,-100,4,1,0,70,0,1

[HitObjects]
298,85,35,6,0,P|349:26|427:12,2,160,4|2|10,0:0|0:0|0:0,0:0:0:0:
424,288,923,1,0,0:0:0:0:
356,328,1071,1,0,0:0:0:0:
280,352,1219,1,4,0:0:0:0:
200,356,1367,2,0,P|96:332|12:232,1,240,2|10,0:0|0:0,0:0:0:0:
48,76,2107,1,0,0:0:0:0:
123,105,2255,1,0,0:0:0:0:
187,153,2403,1,4,0:0:0:0:
85,12,2699,6,0,P|162:26|214:88,1,160,2|10,0:0|0:0,0:0:0:0:
88,288,3291,1,0,0:0:0:0:
156,328,3439,1,0,0:0:0:0:
232,352,3587,1,4,0:0:0:0:
312,356,3735,2,0,P|416:332|500:232,1,240,2|10,0:0|0:0,0:0:0:0:
464,76,4475,1,0,0:0:0:0:
389,105,4623,1,0,0:0:0:0:
325,153,4771,1,4,0:0:0:0:
427,12,5067,6,0,P|349:26|297:88,1,160,2|10,0:0|0:0,0:0:0:0:
424,288,5660,1,0,0:0:0:0:
356,328,5808,1,0,0:0:0:0:
280,352,5956,1,4,0:0:0:0:
200,356,6104,2,0,P|96:332|12:232,1,240,2|10,0:0|0:0,0:0:0:0:
48,76,6844,1,0,0:0:0:0:
123,105,6992,1,0,0:0:0:0:
187,153,7140,1,4,0:0:0:0:
85,12,7436,6,0,P|162:26|214:88,1,160,2|10,0:0|0:0,0:0:0:0:
88,288,8028,1,0,0:0:0:0:
156,328,8176,1,0,0:0:0:0:
232,352,8324,1,4,0:0:0:0:
312,356,8472,2,0,P|416:332|500:232,1,240,2|10,0:0|0:0,0:0:0:0:
464,76,9212,1,0,0:0:0:0:
389,105,9360,1,0,0:0:0:0:
325,153,9508,1,4,0:0:0:0:
216,152,9805,5,0,0:0:0:0:
144,120,9953,1,0,0:0:0:0:
72,88,10101,1,8,0:0:0:0:
296,152,10397,1,0,0:0:0:0:
368,120,10545,1,0,0:0:0:0:
440,88,10693,1,2,0:0:0:0:
472,16,10841,2,0,P|352:12|256:80,1,240,0|4,0:0|0:0,0:0:0:0:
216,232,11581,5,0,0:0:0:0:
144,264,11729,1,0,0:0:0:0:
72,296,11877,1,8,0:0:0:0:
296,232,12173,2,0,L|456:304,1,160,0|2,0:0|0:0,0:0:0:0:
352,136,12765,2,0,L|336:56,1,80,0|8,0:0|0:0,0:0:0:0:
175,57,13209,2,0,L|160:136,1,80
256,264,13653,1,4,0:0:0:0:
332,120,13949,5,0,0:0:0:0:
256,96,14097,1,0,0:0:0:0:
180,120,14245,1,8,0:0:0:0:
328,40,14542,2,0,P|256:8|184:40,1,160,0|12,0:0|0:0,0:0:0:0:
108,176,15134,2,0,L|180:224,1,80,0|2,0:0|0:0,0:0:0:0:
337,220,15578,2,0,L|404:176,1,80,2|0,0:0|0:0,0:0:0:0:
256,96,16022,1,12,0:0:0:0:
216,276,16318,2,0,L|296:276,1,80,0|8,0:0|0:0,0:0:0:0:
256,20,16910,6,0,B|200:100|312:84|256:164,1,160,2|4,0:0|0:0,0:0:0:0:
388,260,17502,1,0,0:0:0:0:
368,336,17650,2,0,P|256:372|144:336,1,240,12|0,0:0|0:0,0:0:0:0:
0,256,18390,2,4,P|44:108|188:116,1,320,4|4,0:0|0:0,0:0:0:0:
296,232,19279,5,0,0:0:0:0:
368,264,19427,1,0,0:0:0:0:
440,296,19575,1,8,0:0:0:0:
216,232,19871,1,0,0:0:0:0:
144,264,20019,1,0,0:0:0:0:
72,296,20167,1,2,0:0:0:0:
40,368,20315,2,0,P|160:372|256:304,1,240,0|4,0:0|0:0,0:0:0:0:
352,176,21055,5,0,0:0:0:0:
360,96,21203,1,0,0:0:0:0:
368,16,21351,1,8,0:0:0:0:
144,16,21647,2,0,L|160:176,1,160,0|2,0:0|0:0,0:0:0:0:
100,324,22239,2,0,L|172:364,1,80,0|8,0:0|0:0,0:0:0:0:
342,362,22683,2,0,L|412:324,1,80
320,192,23127,1,4,0:0:0:0:
180,272,23423,5,0,0:0:0:0:
256,296,23571,1,0,0:0:0:0:
332,272,23719,1,8,0:0:0:0:
332,112,24016,1,0,0:0:0:0:
256,88,24164,1,0,0:0:0:0:
180,112,24312,1,2,0:0:0:0:
112,288,24608,2,0,P|132:324|165:341,1,80,0|8,0:0|0:0,0:0:0:0:
400,96,25052,2,0,P|380:60|346:42,1,80,0|2,0:0|0:0,0:0:0:0:
256,192,25496,1,4,0:0:0:0:
408,244,25792,6,0,L|392:324,1,80,0|8,0:0|0:0,0:0:0:0:
316,308,26088,2,0,L|332:228,1,80
380,168,26384,1,2,0:0:0:0:
228,112,26680,1,4,0:0:0:0:
76,36,26976,1,0,0:0:0:0:
0,16,27124,2,0,P|16:119|132:122,1,240,8|0,0:0|0:0,0:0:0:0:
280,56,27864,2,0,P|253:197|102:262,1,320,4|4,0:0|0:0,0:0:0:0:
256,192,37930,5,4,0:0:0:0:
104,168,38227,1,0,0:0:0:0:
136,96,38375,1,0,0:0:0:0:
168,24,38523,1,8,0:0:0:0:
344,24,38819,1,0,0:0:0:0:
376,96,38967,1,0,0:0:0:0:
408,168,39115,1,2,0:0:0:0:
440,240,39263,2,0,P|376:332|256:352,1,240,0|4,0:0|0:0,0:0:0:0:
144,220,40003,5,0,0:0:0:0:
72,184,40151,1,0,0:0:0:0:
0,148,40299,1,8,0:0:0:0:
368,220,40595,2,0,L|512:148,1,160,0|2,0:0|0:0,0:0:0:0:
376,80,41187,2,0,L|336:8,1,80,0|8,0:0|0:0,0:0:0:0:
174,10,41631,2,0,L|136:80,1,80
256,192,42075,1,4,0:0:0:0:
328,328,42371,5,0,0:0:0:0:
408,340,42519,1,0,0:0:0:0:
488,352,42667,1,8,0:0:0:0:
184,328,42964,2,0,L|24:352,1,160,2|2,0:0|0:0,0:0:0:0:
344,252,43556,5,0,0:0:0:0:
380,180,43704,1,0,0:0:0:0:
416,108,43852,1,12,0:0:0:0:
96,108,44148,1,0,0:0:0:0:
132,180,44296,1,0,0:0:0:0:
168,252,44444,1,2,0:0:0:0:
416,108,44740,6,0,L|476:56,1,80,8|0,0:0|0:0,0:0:0:0:
336,88,45036,2,0,L|376:12,1,80,6|0,0:0|0:0,0:0:0:0:
256,80,45332,2,0,L|256:0,1,80
176,92,45628,2,0,P|96:116|76:184,1,160,8|0,0:0|0:0,0:0:0:0:
152,168,46072,2,0,P|186:276|299:291,1,240,2|0,0:0|0:0,0:0:0:0:
282,383,46812,2,0,P|133:336|61:197,1,320,4|4,0:0|0:0,0:0:0:0:
64,56,47701,5,0,0:0:0:0:
140,40,47849,1,0,0:0:0:0:
216,24,47997,1,8,0:0:0:0:
448,56,48293,1,0,0:0:0:0:
372,40,48441,1,0,0:0:0:0:
296,24,48589,1,2,0:0:0:0:
216,24,48737,2,0,P|80:24|16:96,1,240,0|4,0:0|0:0,0:0:0:0:
64,256,49477,5,0,0:0:0:0:
120,312,49625,1,0,0:0:0:0:
176,368,49773,1,8,0:0:0:0:
336,368,50069,2,0,P|416:328|448:264,2,160,0|2|0,0:0|0:0|0:0,0:0:0:0:
260,344,50809,2,0,B|176:288|272:184|188:128,1,240,4|0,0:0|0:0,0:0:0:0:
96,0,51549,1,4,0:0:0:0:
56,120,51845,5,0,0:0:0:0:
24,192,51993,1,0,0:0:0:0:
56,264,52141,1,8,0:0:0:0:
448,264,52438,2,0,P|478:192|448:120,1,160,2|2,0:0|0:0,0:0:0:0:
192,56,53030,1,0,0:0:0:0:
144,120,53178,2,0,P|114:192|144:264,1,160,4|0,0:0|0:0,0:0:0:0:
192,328,53622,1,0,0:0:0:0:
256,376,53770,1,0,0:0:0:0:
320,328,53918,1,12,0:0:0:0:
368,264,54066,2,0,P|392:232|396:192,2,80,0|2|0,0:0|0:0|0:0,0:0:0:0:
288,256,54510,6,0,P|232:212|224:128,1,160,4|0,0:0|0:0,0:0:0:0:
164,76,54954,1,8,0:0:0:0:
104,128,55102,2,0,P|99:205|40:256,1,160,2|0,0:0|0:0,0:0:0:0:
96,312,55546,2,0,P|208:297|243:188,1,240,4|8,0:0|0:0,0:0:0:0:
220,32,56286,2,0,P|314:155|294:310,1,320,4|4,0:0|0:0,0:0:0:0:
48,192,57175,5,0,0:0:0:0:
104,136,57323,1,0,0:0:0:0:
160,80,57471,2,0,P|272:16|424:112,1,320,6|0,0:0|0:0,0:0:0:0:
464,352,58359,5,0,0:0:0:0:
408,296,58507,1,0,0:0:0:0:
352,240,58655,2,0,P|240:176|88:272,1,320,6|4,0:0|0:0,0:0:0:0:
24,312,59395,5,0,0:0:0:0:
96,344,59543,1,0,0:0:0:0:
296,300,59839,2,0,P|329:280|343:243,2,80,8|0|0,0:0|0:0|0:0,0:0:0:0:
304,376,60283,2,0,P|392:320|408:192,1,240,6|0,0:0|0:0,0:0:0:0:
296,112,61023,2,0,P|160:184|176:336,1,320,4|0,0:0|0:0,0:0:0:0:
464,192,61912,5,0,0:0:0:0:
408,136,62060,1,0,0:0:0:0:
352,80,62208,2,0,P|240:16|88:112,1,320,6|0,0:0|0:0,0:0:0:0:
48,352,63096,5,0,0:0:0:0:
104,296,63244,1,0,0:0:0:0:
160,240,63392,2,0,P|272:176|424:272,1,320,6|4,0:0|0:0,0:0:0:0:
408,376,64428,6,0,L|360:296,1,80,0|8,0:0|0:0,0:0:0:0:
256,304,64872,2,0,L|214:372,1,80,0|2,0:0|0:0,0:0:0:0:
104,376,65316,2,0,L|62:307,1,80
62,307,65760,1,4,0:0:0:0:
256,192,66056,1,0,0:0:0:0:
200,248,66204,1,0,0:0:0:0:
144,304,66352,1,4,0:0:0:0:
48,192,66649,5,0,0:0:0:0:
104,136,66797,1,0,0:0:0:0:
160,80,66945,2,0,P|272:16|424:112,1,320,6|0,0:0|0:0,0:0:0:0:
464,352,67833,5,0,0:0:0:0:
408,296,67981,1,0,0:0:0:0:
352,240,68129,2,0,P|240:176|88:272,1,320,6|4,0:0|0:0,0:0:0:0:
128,336,68869,1,0,0:0:0:0:
196,376,69017,1,0,0:0:0:0:
272,352,69165,1,0,0:0:0:0:
320,288,69313,2,0,P|340:248|324:220,2,80,8|0|0,0:0|0:0|0:0,0:0:0:0:
380,332,69757,2,0,P|400:200|320:144,1,240,6|0,0:0|0:0,0:0:0:0:
208,160,70497,2,0,P|168:304|296:376,1,320,4|0,0:0|0:0,0:0:0:0:
464,192,71386,5,0,0:0:0:0:
408,136,71534,1,0,0:0:0:0:
352,80,71682,2,0,P|240:16|88:112,1,320,6|0,0:0|0:0,0:0:0:0:
48,352,72570,5,0,0:0:0:0:
104,296,72718,1,0,0:0:0:0:
160,240,72866,2,0,P|272:176|424:272,1,320,6|4,0:0|0:0,0:0:0:0:
352,320,73606,5,0,0:0:0:0:
296,376,73754,1,0,0:0:0:0:
216,376,73902,1,0,0:0:0:0:
160,320,74050,1,8,0:0:0:0:
160,240,74198,1,0,0:0:0:0:
216,184,74346,1,0,0:0:0:0:
296,184,74494,1,2,0:0:0:0:
400,344,75234,2,2,B|352:392|296:392|272:280|240:280|216:392|160:392|112:344,2,320,2|4|0,0:0|0:0|0:0,0:0:0:0:
504,0,76715,5,0,0:0:0:0:
436,40,76863,1,0,0:0:0:0:
392,104,77011,2,0,P|368:248|512:264,1,320,4|8,0:0|0:0,0:0:0:0:
352,368,77899,1,0,0:0:0:0:
280,336,78047,2,0,P|240:248|256:108,1,240,6|0,0:0|0:0,0:0:0:0:
256,108,78787,1,8,0:0:0:0:
8,0,79083,5,0,0:0:0:0:
76,40,79231,1,0,0:0:0:0:
120,104,79379,2,0,P|144:248|0:264,1,320,4|8,0:0|0:0,0:0:0:0:
160,368,80267,1,0,0:0:0:0:
232,336,80415,2,0,P|272:248|256:108,1,240,6|0,0:0|0:0,0:0:0:0:
256,108,81155,1,8,0:0:0:0:
504,0,81452,5,0,0:0:0:0:
436,40,81600,1,0,0:0:0:0:
392,104,81748,2,0,P|368:248|512:264,1,320,4|8,0:0|0:0,0:0:0:0:
352,368,82636,1,0,0:0:0:0:
280,336,82784,2,0,P|240:248|256:108,1,240,6|0,0:0|0:0,0:0:0:0:
256,108,83524,1,8,0:0:0:0:
8,0,83820,5,0,0:0:0:0:
76,40,83968,1,0,0:0:0:0:
120,104,84116,2,0,P|144:248|0:264,1,320,4|8,0:0|0:0,0:0:0:0:
256,352,85300,1,4,0:0:0:0:
256,304,94774,5,4,0:0:0:0:
112,192,95071,1,0,0:0:0:0:
136,116,95219,1,0,0:0:0:0:
160,40,95367,1,8,0:0:0:0:
352,40,95663,1,0,0:0:0:0:
376,116,95811,1,0,0:0:0:0:
400,192,95959,1,2,0:0:0:0:
376,268,96107,2,0,L|136:268,1,240,0|4,0:0|0:0,0:0:0:0:
0,192,96847,5,0,0:0:0:0:
0,112,96995,1,0,0:0:0:0:
0,32,97143,1,8,0:0:0:0:
144,32,97439,2,0,L|144:192,1,160,0|2,0:0|0:0,0:0:0:0:
288,156,98031,2,0,L|288:76,1,80,0|8,0:0|0:0,0:0:0:0:
432,76,98475,2,0,L|432:156,1,80
380,312,98919,1,4,0:0:0:0:
216,312,99215,5,0,0:0:0:0:
136,312,99363,2,0,P|68:264|56:192,1,160,4|0,0:0|0:0,0:0:0:0:
42,122,99808,2,0,L|82:50,1,80,8|0,0:0|0:0,0:0:0:0:
152,76,100104,2,0,L|114:146,1,80,2|0,0:0|0:0,0:0:0:0:
376,312,100548,2,0,P|444:264|456:192,1,160,4|0,0:0|0:0,0:0:0:0:
470,122,100993,2,0,L|430:50,1,80,8|0,0:0|0:0,0:0:0:0:
360,76,101289,2,0,L|398:146,1,80,2|0,0:0|0:0,0:0:0:0:
224,368,101732,6,0,B|264:292|184:292|224:216,1,160,2|0,0:0|0:0,0:0:0:0:
284,168,102176,1,0,0:0:0:0:
228,112,102324,1,0,0:0:0:0:
284,56,102472,1,4,0:0:0:0:
228,0,102620,1,0,0:0:0:0:
104,72,102916,2,0,P|88:176|200:208,1,240,8|0,0:0|0:0,0:0:0:0:
176,304,103656,2,0,P|40:256|0:96,1,320,4|4,0:0|0:0,0:0:0:0:
384,72,104545,5,0,0:0:0:0:
424,140,104693,1,0,0:0:0:0:
464,208,104841,1,2,0:0:0:0:
48,208,105137,1,0,0:0:0:0:
88,140,105285,1,0,0:0:0:0:
128,72,105433,1,8,0:0:0:0:
184,16,105581,2,0,B|236:44|256:108|256:108|276:44|328:16,1,240,0|4,0:0|0:0,0:0:0:0:
336,256,106321,5,0,0:0:0:0:
256,256,106469,1,0,0:0:0:0:
176,256,106617,1,8,0:0:0:0:
416,256,106913,1,0,0:0:0:0:
96,256,107209,1,2,0:0:0:0:
416,256,107505,1,0,0:0:0:0:
464,192,107653,2,0,P|464:56|376:32,1,240,12|0,0:0|0:0,0:0:0:0:
416,256,108393,1,4,0:0:0:0:
400,144,108689,5,0,0:0:0:0:
344,88,108837,1,0,0:0:0:0:
288,32,108985,1,2,0:0:0:0:
168,160,109282,2,0,L|288:280,1,160,8|12,0:0|0:0,0:0:0:0:
256,120,109874,2,0,L|192:64,1,80,0|2,0:0|0:0,0:0:0:0:
64,192,110318,2,0,L|128:248,1,80,2|0,0:0|0:0,0:0:0:0:
281,273,110762,1,12,0:0:0:0:
400,164,111058,2,0,L|456:100,1,80,0|8,0:0|0:0,0:0:0:0:
232,12,111650,6,0,P|160:56|124:120,1,160,2|4,0:0|0:0,0:0:0:0:
224,248,112242,1,0,0:0:0:0:
298,281,112390,2,0,P|408:248|392:144,1,240,8|0,0:0|0:0,0:0:0:0:
500,168,113130,2,0,P|460:326|324:374,1,320,4|4,0:0|0:0,0:0:0:0:
2,4,114019,5,0,0:0:0:0:
81,18,114167,1,0,0:0:0:0:
160,32,114315,2,0,B|323:-20|295:137|459:84,1,320,6|0,0:0|0:0,0:0:0:0:
512,264,115203,5,0,0:0:0:0:
433,278,115351,1,0,0:0:0:0:
354,292,115499,2,0,B|190:239|218:397|54:344,1,320,6|4,0:0|0:0,0:0:0:0:
76,268,116239,5,0,0:0:0:0:
100,188,116387,1,0,0:0:0:0:
240,60,116683,2,0,L|304:12,2,80,8|0|0,0:0|0:0|0:0,0:0:0:0:
168,96,117127,2,0,P|256:160|344:88,1,240,2|0,0:0|0:0,0:0:0:0:
400,176,117867,2,4,P|256:240|112:176,1,320
510,4,118756,5,0,0:0:0:0:
431,18,118904,1,0,0:0:0:0:
352,32,119052,2,0,B|188:-20|216:137|52:84,1,320,6|0,0:0|0:0,0:0:0:0:
0,264,119940,5,0,0:0:0:0:
79,278,120088,1,0,0:0:0:0:
158,292,120236,2,0,B|321:239|293:397|457:344,1,320,6|4,0:0|0:0,0:0:0:0:
480,192,121272,6,0,L|480:96,1,80,0|8,0:0|0:0,0:0:0:0:
336,136,121716,2,0,L|336:216,1,80,0|2,0:0|0:0,0:0:0:0:
192,240,122160,2,0,L|192:160,1,80,0|0,0:0|0:0,0:0:0:0:
48,184,122604,1,4,0:0:0:0:
160,312,122900,1,0,0:0:0:0:
80,296,123048,1,0,0:0:0:0:
0,280,123196,1,0,0:0:0:0:
2,4,123493,5,0,0:0:0:0:
81,18,123641,1,0,0:0:0:0:
160,32,123789,2,0,B|323:-20|295:137|459:84,1,320,6|0,0:0|0:0,0:0:0:0:
512,264,124677,5,0,0:0:0:0:
433,278,124825,1,0,0:0:0:0:
354,292,124973,2,0,B|190:239|218:397|54:344,1,320,6|4,0:0|0:0,0:0:0:0:
80,268,125713,1,0,0:0:0:0:
104,192,125861,1,0,0:0:0:0:
128,116,126009,1,0,0:0:0:0:
156,40,126157,2,0,P|196:32|236:40,2,80,8|0|0,0:0|0:0|0:0,0:0:0:0:
168,120,126601,2,0,P|256:184|344:112,1,240,2|0,0:0|0:0,0:0:0:0:
400,200,127341,2,4,P|256:264|112:200,1,320
510,4,128230,5,0,0:0:0:0:
431,18,128378,1,0,0:0:0:0:
352,32,128526,2,0,B|188:-20|216:137|52:84,1,320,6|0,0:0|0:0,0:0:0:0:
0,264,129414,5,0,0:0:0:0:
79,278,129562,1,0,0:0:0:0:
158,292,129710,2,0,B|321:239|293:397|457:344,1,320,6|4,0:0|0:0,0:0:0:0:
448,268,130450,1,0,0:0:0:0:
408,196,130598,1,0,0:0:0:0:
336,156,130746,1,0,0:0:0:0:
256,132,130894,1,8,0:0:0:0:
176,156,131042,1,0,0:0:0:0:
104,196,131190,1,0,0:0:0:0:
64,268,131338,1,2,0:0:0:0:
112,336,132078,6,2,B|160:384|216:384|240:272|272:272|296:384|352:384|400:336,2,320,2|4|0,0:0|0:0|0:0,0:0:0:0:
104,168,133559,5,0,0:0:0:0:
144,100,133707,1,0,0:0:0:0:
204,48,133855,2,0,P|368:42|408:168,1,320,4|8,0:0|0:0,0:0:0:0:
436,300,134743,1,0,0:0:0:0:
368,340,134891,2,0,P|256:377|144:340,1,240,6|0,0:0|0:0,0:0:0:0:
256,192,135631,1,8,0:0:0:0:
104,168,135927,5,0,0:0:0:0:
144,100,136075,1,0,0:0:0:0:
204,48,136223,2,0,P|368:42|408:168,1,320,4|8,0:0|0:0,0:0:0:0:
436,300,137111,1,0,0:0:0:0:
368,340,137259,2,0,P|256:377|144:340,1,240,6|0,0:0|0:0,0:0:0:0:
256,192,137999,1,8,0:0:0:0:
408,168,138296,5,0,0:0:0:0:
368,100,138444,1,0,0:0:0:0:
308,48,138592,2,0,P|144:42|104:168,1,320,4|8,0:0|0:0,0:0:0:0:
76,300,139480,1,0,0:0:0:0:
144,340,139628,2,0,P|256:377|368:340,1,240,6|0,0:0|0:0,0:0:0:0:
256,192,140368,1,8,0:0:0:0:
408,168,140664,5,0,0:0:0:0:
368,100,140812,1,0,0:0:0:0:
308,48,140960,2,0,P|144:42|104:168,1,320,4|8,0:0|0:0,0:0:0:0:
76,300,141848,1,0,0:0:0:0:
144,340,141996,2,0,P|256:377|368:340,1,240,6|0,0:0|0:0,0:0:0:0:
256,192,142736,1,8,0:0:0:0:
328,32,143033,5,0,0:0:0:0:
340,112,143181,1,0,0:0:0:0:
332,192,143329,2,0,B|296:345|132:193|77:302|103:344,1,320,4|8,0:0|0:0,0:0:0:0:
264,336,144217,1,0,0:0:0:0:
344,324,144365,2,0,P|408:244|420:108,1,240,6|0,0:0|0:0,0:0:0:0:
256,80,145105,1,8,0:0:0:0:
136,32,145401,5,0,0:0:0:0:
124,112,145549,1,0,0:0:0:0:
132,192,145697,2,0,B|167:345|331:193|386:302|360:344,1,320,4|8,0:0|0:0,0:0:0:0:
200,336,146585,1,0,0:0:0:0:
120,324,146733,2,0,P|56:244|44:108,1,240,6|0,0:0|0:0,0:0:0:0:
256,80,147473,1,8,0:0:0:0:
412,32,147770,5,0,0:0:0:0:
424,112,147918,1,0,0:0:0:0:
416,192,148066,2,0,B|380:345|216:193|161:302|187:344,1,320,4|8,0:0|0:0,0:0:0:0:
348,336,148954,1,0,0:0:0:0:
428,324,149102,2,0,P|492:244|504:108,1,240,6|0,0:0|0:0,0:0:0:0:
256,80,149842,1,8,0:0:0:0:
68,32,150138,5,0,0:0:0:0:
56,112,150286,1,0,0:0:0:0:
64,192,150434,2,0,B|99:345|263:193|318:302|292:344,1,320,4|10,0:0|0:0,0:0:0:0:
116,332,151322,1,0,0:0:0:0:
132,160,151618,6,0,P|152:88|224:48,2,160,4|2|10,0:0|0:0|0:0,0:0:0:0:
312,40,152507,1,0,0:0:0:0:
376,88,152655,1,0,0:0:0:0:
412,160,152803,1,4,0:0:0:0:
420,240,152951,2,0,P|404:340|284:376,1,240,2|10,0:0|0:0,0:0:0:0:
132,160,153691,1,0,0:0:0:0:
156,84,153839,1,0,0:0:0:0:
224,48,153987,1,4,0:0:0:0:
420,224,154283,6,0,P|400:296|328:336,1,160,2|10,0:0|0:0,0:0:0:0:
160,344,154875,1,0,0:0:0:0:
96,296,155023,1,0,0:0:0:0:
60,224,155171,1,4,0:0:0:0:
52,144,155319,2,0,P|68:44|188:8,1,240,2|10,0:0|0:0,0:0:0:0:
420,224,156059,1,0,0:0:0:0:
396,300,156207,1,0,0:0:0:0:
328,336,156355,1,4,0:0:0:0:
52,160,156651,6,0,P|72:88|144:48,1,160,2|10,0:0|0:0,0:0:0:0:
392,40,157243,1,0,0:0:0:0:
456,88,157391,1,0,0:0:0:0:
492,160,157539,1,4,0:0:0:0:
500,240,157687,2,0,P|484:340|364:376,1,240,2|10,0:0|0:0,0:0:0:0:
52,160,158427,1,0,0:0:0:0:
76,84,158575,1,0,0:0:0:0:
144,48,158723,1,4,0:0:0:0:
512,224,159020,6,0,P|492:296|420:336,1,160,2|10,0:0|0:0,0:0:0:0:
108,344,159612,1,0,0:0:0:0:
44,296,159760,1,0,0:0:0:0:
8,224,159908,1,4,0:0:0:0:
0,144,160056,2,0,P|16:44|136:8,1,240,2|10,0:0|0:0,0:0:0:0:
416,248,160796,1,8,0:0:0:0:
336,224,160944,1,0,0:0:0:0:
256,192,161092,5,12,0:0:0:0:
256,192,161240,1,8,0:0:0:0:
256,192,161388,1,8,0:0:0:0:
256,192,161537,1,8,0:0:0:0:
256,192,161685,1,12,0:0:0:0:
