osu file format v14

[General]
AudioFilename: Memtrix - All You Are.mp3
AudioLeadIn: 0
PreviewTime: 85764
Countdown: 0
SampleSet: Soft
StackLeniency: 0.4
Mode: 0
LetterboxInBreaks: 0
WidescreenStoryboard: 0

[Editor]
Bookmarks: 45596,89734,111803,133872,155941,178010,211113,244216,277320,293872,310423
DistanceSpacing: 1.4
BeatDivisor: 4
GridSize: 4
TimelineZoom: 1

[Metadata]
Title:All You Are
TitleUnicode:All You Are
Artist:Memtrix
ArtistUnicode:Memtrix
Creator:Come[Back]Home
Version:Brink
Source:
Tags:drumstep dnb drum and bass cbh Aia
BeatmapID:837605
BeatmapSetID:383095

[Difficulty]
HPDrainRate:6.5
CircleSize:4.6
OverallDifficulty:8
ApproachRate:9
SliderMultiplier:1.7
SliderTickRate:1

[Events]
//Background and Video events
0,0,"38.jpg",0,0
//Break Periods
//Storyboard Layer 0 (Background)
//Storyboard Layer 1 (Fail)
//Storyboard Layer 2 (Pass)
//Storyboard Layer 3 (Foreground)
//Storyboard Sound Samples

[TimingPoints]
75,344.827586206897,4,1,0,100,1,0
1454,-166.666666666667,4,2,0,30,0,0
23523,-142.857142857143,4,2,0,35,0,0
45592,-153.846153846154,4,2,0,30,0,0
67661,-153.846153846154,4,2,0,35,0,0
78695,-153.846153846154,4,2,0,40,0,0
81454,-153.846153846154,4,2,0,45,0,0
84212,-153.846153846154,4,2,0,50,0,0
85592,-153.846153846154,4,2,0,55,0,0
86971,-153.846153846154,4,2,0,60,0,0
89730,-100,4,2,1,70,0,1
110419,-100,4,2,1,70,0,0
110764,-111.111111111111,4,2,1,70,0,0
111109,-125,4,2,1,70,0,0
111454,-142.857142857143,4,2,1,70,0,0
111799,-100,4,2,1,70,0,1
118350,-133.333333333333,4,2,1,70,0,1
119385,-100,4,2,1,70,0,1
121109,-133.333333333333,4,2,1,70,0,1
122057,-100,4,2,1,70,0,1
131109,-100,4,2,0,70,0,0
133868,-111.111111111111,4,2,1,70,0,0
154902,-125,4,2,1,70,0,0
155247,-142.857142857143,4,2,1,70,0,0
155592,-166.666666666667,4,2,1,70,0,0
155937,-111.111111111111,4,2,1,70,0,0
156454,-111.111111111111,4,2,1,90,0,0
156626,-111.111111111111,4,2,1,70,0,0
162488,-133.333333333333,4,2,1,70,0,0
163523,-111.111111111111,4,2,1,70,0,0
165247,-133.333333333333,4,2,1,70,0,0
166195,-111.111111111111,4,2,1,70,0,0
176971,-125,4,2,1,70,0,0
177316,-142.857142857143,4,2,1,70,0,0
177661,-166.666666666667,4,2,1,70,0,0
179040,-153.846153846154,4,2,1,40,0,0
180419,-153.846153846154,4,2,1,30,0,0
200075,-153.846153846154,4,2,1,35,0,0
213868,-133.333333333333,4,2,1,50,0,0
216626,-117.647058823529,4,2,1,60,0,0
219385,-105.263157894737,4,2,1,70,0,0
222143,-86.9565217391304,4,2,2,70,0,1
242833,-86.9565217391304,4,2,2,70,0,0
244212,-86.9565217391304,4,2,2,70,0,1
250764,-117.647058823529,4,2,2,70,0,1
252488,-86.9565217391304,4,2,2,70,0,1
253523,-117.647058823529,4,2,2,70,0,1
255247,-86.9565217391304,4,2,2,70,0,1
263523,-153.846153846154,4,2,1,70,0,0
264902,-153.846153846154,4,2,0,70,0,0
265419,-153.846153846154,4,2,1,70,0,0
266281,-111.111111111111,4,2,1,70,0,0
287316,-125,4,2,1,70,0,0
287661,-142.857142857143,4,2,1,70,0,0
288006,-166.666666666667,4,2,1,70,0,0
288350,-111.111111111111,4,2,1,70,0,0
294902,-133.333333333333,4,2,1,70,0,0
296626,-111.111111111111,4,2,1,70,0,0
297661,-133.333333333333,4,2,1,70,0,0
299385,-111.111111111111,4,2,1,70,0,0
311799,-111.111111111111,4,2,1,60,0,0
313178,-111.111111111111,4,2,1,50,0,0
314557,-111.111111111111,4,2,1,40,0,0
315937,-111.111111111111,4,2,1,30,0,0
317316,-111.111111111111,4,2,1,20,0,0
318695,-111.111111111111,4,2,1,10,0,0
320075,-111.111111111111,4,2,1,5,0,0

[Colours]
Combo1 : 255,0,128
Combo2 : 159,0,159
Combo3 : 0,225,225
Combo4 : 255,128,255

[HitObjects]
57,100,1454,6,0,B|90:107|90:107|164:99,1,101.999996887207
272,57,2143,2,0,B|270:123|270:123|292:192|292:192|290:265,1,203.999993774414,2|0,0:0|0:0,0:0:0:0:
193,331,3178,5,0,0:0:0:0:
315,340,3523,2,0,B|380:324|377:253|377:253|434:263|460:208,1,203.999993774414,2|0,0:0|0:0,0:0:0:0:
371,131,4557,5,0,0:0:0:0:
281,47,4902,2,0,B|216:56|216:56|160:48|160:48|76:60,1,203.999993774414,2|0,0:0|0:0,0:0:0:0:
157,173,5937,5,0,0:0:0:0:
137,293,6281,2,0,B|236:336|236:252|355:309,1,203.999993774414,2|0,0:0|0:0,0:0:0:0:
441,234,7316,5,0,0:0:0:0:
372,132,7661,2,0,P|321:134|382:67,1,203.999993774414,2|0,0:0|0:0,0:0:0:0:
476,123,8695,5,0,0:0:0:0:
395,214,9040,2,0,B|274:207|274:207|310:304,1,203.999993774414,2|0,0:0|0:0,0:0:0:0:
390,370,10075,5,0,0:0:0:0:
268,362,10419,2,0,B|182:332|118:362|118:362|96:302,1,203.999993774414,2|0,0:0|0:0,0:0:0:0:
205,250,11454,5,0,0:0:0:0:
122,159,11799,2,0,P|123:109|166:64,1,101.999996887207,2|0,0:0|0:0,0:0:0:0:
276,60,12316,1,0,0:0:0:0:
276,60,12402,1,0,0:0:0:0:
276,60,12488,6,0,L|379:68,1,101.999996887207
480,136,13178,2,0,L|469:242,1,101.999996887207,2|0,0:0|0:0,0:0:0:0:
346,278,13868,5,0,0:0:0:0:
456,329,14212,1,0,0:0:0:0:
306,163,14557,1,2,0:0:0:0:
195,215,14902,1,0,0:0:0:0:
82,167,15247,6,0,P|90:122|59:66,1,101.999996887207
28,284,15937,2,0,L|146:273,1,101.999996887207,2|0,0:0|0:0,0:0:0:0:
227,348,16626,5,0,0:0:0:0:
199,228,16971,1,0,0:0:0:0:
321,47,17316,1,2,0:0:0:0:
284,164,17661,1,0,0:0:0:0:
284,164,18006,6,0,B|168:168,1,101.999996887207
258,295,18695,2,0,B|360:292,1,101.999996887207,2|0,0:0|0:0,0:0:0:0:
349,133,19385,5,0,0:0:0:0:
448,204,19730,1,0,0:0:0:0:
175,187,20075,1,2,0:0:0:0:
293,214,20419,1,0,0:0:0:0:
298,91,20764,6,0,L|185:100,1,101.999996887207
95,168,21454,2,0,P|122:216|69:298,1,152.999995330811,2|0,0:0|0:0,0:0:0:0:
64,364,22143,6,0,L|226:348,1,152.999995330811,2|0,0:0|0:0,0:0:0:0:
240,284,22833,1,2,0:0:0:0:
340,349,23178,1,2,0:0:0:0:
405,222,23523,6,0,P|394:185|442:117,1,118.999996368408,2|0,0:0|0:0,0:0:0:0:
310,48,24212,2,0,P|321:85|273:153,1,118.999996368408,2|0,0:0|0:0,0:0:0:0:
138,153,24902,5,0,0:0:0:0:
80,284,25247,1,0,0:0:0:0:
146,308,25419,1,0,0:0:0:0:
216,295,25592,2,0,P|252:287|281:291,1,59.4999981842042,2|0,0:0|0:0,0:0:0:0:
331,331,25937,2,0,P|360:332|389:325,1,59.4999981842042
432,156,26281,6,0,L|439:275,1,118.999996368408,2|0,0:0|0:0,0:0:0:0:
389,325,26799,1,0,0:0:0:0:
397,71,26971,2,0,L|403:189,1,118.999996368408,2|0,0:0|0:0,0:0:0:0:
341,225,27488,1,0,0:0:0:0:
279,260,27661,6,0,L|214:255,1,59.4999981842042
165,303,28006,1,0,0:0:0:0:
108,172,28350,1,2,0:0:0:0:
108,172,28695,2,0,P|113:136|101:102,1,59.4999981842042
51,218,29040,6,0,L|169:208,1,118.999996368408,2|0,0:0|0:0,0:0:0:0:
221,159,29557,1,0,0:0:0:0:
272,208,29730,2,0,P|265:107|285:77,1,118.999996368408,2|0,0:0|0:0,0:0:0:0:
335,62,30247,1,0,0:0:0:0:
312,268,30419,2,0,P|280:280|248:272,1,59.4999981842042
204,224,30764,1,0,0:0:0:0:
455,233,31109,2,0,P|450:264|461:297,1,59.4999981842042,2|0,0:0|0:0,0:0:0:0:
500,348,31454,1,0,0:0:0:0:
357,344,31799,5,0,0:0:0:0:
273,228,32143,1,0,0:0:0:0:
236,289,32316,1,0,0:0:0:0:
202,225,32488,1,2,0:0:0:0:
93,131,32833,1,0,0:0:0:0:
130,70,33006,1,0,0:0:0:0:
164,134,33178,6,0,L|160:203,1,59.4999981842042
232,264,33523,2,0,L|236:205,1,59.4999981842042
308,128,33868,2,0,L|311:187,1,59.4999981842042,2|0,0:0|0:0,0:0:0:0:
388,260,34212,2,0,L|385:201,1,59.4999981842042
283,102,34557,6,0,P|307:74|389:75,1,118.999996368408,2|0,0:0|0:0,0:0:0:0:
348,134,35075,1,0,0:0:0:0:
288,173,35247,1,2,0:0:0:0:
161,106,35592,2,0,L|164:172,1,59.4999981842042
125,337,35937,6,0,B|109:302|109:302|121:223,1,118.999996368408
164,165,36454,1,0,0:0:0:0:
217,211,36626,2,0,B|248:215|248:215|285:207,1,59.4999981842042,2|0,0:0|0:0,0:0:0:0:
309,145,36971,1,0,0:0:0:0:
336,285,37316,6,0,B|288:272|288:272|208:292,1,118.999996368408,2|0,0:0|0:0,0:0:0:0:
200,356,37833,1,0,0:0:0:0:
376,352,38006,2,0,P|412:288|384:228,1,118.999996368408,2|0,0:0|0:0,0:0:0:0:
371,182,38523,1,0,0:0:0:0:
309,145,38695,6,0,L|243:147,1,59.4999981842042
132,50,39040,2,0,L|198:52,1,59.4999981842042
89,189,39385,2,0,B|37:189|37:189|56:122,1,118.999996368408,2|0,0:0|0:0,0:0:0:0:
194,247,39902,1,0,0:0:0:0:
194,247,40075,6,0,B|175:311|175:311|227:311,1,118.999996368408,2|0,0:0|0:0,0:0:0:0:
271,254,40592,1,0,0:0:0:0:
274,84,40764,2,0,P|237:129|241:188,1,118.999996368408,2|0,0:0|0:0,0:0:0:0:
312,188,41281,1,0,0:0:0:0:
271,50,41454,6,0,L|193:58,1,59.4999981842042
95,142,41799,2,0,B|159:151,1,59.4999981842042
256,264,42143,2,0,L|186:266,1,59.4999981842042,2|0,0:0|0:0,0:0:0:0:
150,217,42488,1,0,0:0:0:0:
286,201,42833,6,0,P|313:222|297:320,1,118.999996368408
264,341,43350,1,0,0:0:0:0:
176,168,43523,2,0,L|320:163,1,118.999996368408,2|0,0:0|0:0,0:0:0:0:
349,117,44040,1,0,0:0:0:0:
393,172,44212,5,0,0:0:0:0:
333,274,44385,1,0,0:0:0:0:
426,316,44557,1,0,0:0:0:0:
319,190,44730,1,0,0:0:0:0:
262,335,44902,2,0,B|223:332|223:332|164:340|164:340|128:338,1,118.999996368408,2|0,0:0|0:0,0:0:0:0:
103,201,45592,5,2,0:0:0:0:
308,72,46626,1,0,0:0:0:0:
318,82,46971,2,0,L|325:202,1,110.499994941712,2|0,0:0|0:0,0:0:0:0:
396,276,47661,1,2,0:0:0:0:
238,320,48006,6,0,P|210:228|107:268,1,220.999989883423
140,364,49040,1,2,0:0:0:0:
72,192,49385,1,0,0:0:0:0:
27,292,49730,2,0,L|152:274,1,110.499994941712,2|0,0:0|0:0,0:0:0:0:
232,220,50419,1,2,0:0:0:0:
136,168,50764,1,0,0:0:0:0:
136,276,51109,5,2,0:0:0:0:
220,136,51454,1,0,0:0:0:0:
69,225,51799,1,2,0:0:0:0:
215,302,52143,1,0,0:0:0:0:
300,232,52488,2,0,L|319:99,1,110.499994941712,2|0,0:0|0:0,0:0:0:0:
404,56,53178,1,2,0:0:0:0:
302,135,53523,6,0,P|214:105|301:45,1,220.999989883423
381,161,54557,2,0,P|345:202|273:222,1,110.499994941712,2|0,0:0|0:0,0:0:0:0:
184,200,55247,1,2,0:0:0:0:
68,116,55592,1,0,0:0:0:0:
252,65,55937,1,2,0:0:0:0:
173,213,56281,1,0,0:0:0:0:
143,57,56626,6,0,L|154:-5,1,55.2499974708558,2|0,0:0|0:0,0:0:0:0:
251,64,56971,2,0,L|261:119,1,55.2499974708558
173,213,57316,2,0,L|184:151,1,55.2499974708558,2|0,0:0|0:0,0:0:0:0:
238,292,57661,1,0,0:0:0:0:
232,304,58006,2,0,L|100:312,1,110.499994941712,2|0,0:0|0:0,0:0:0:0:
286,210,58695,1,2,0:0:0:0:
376,304,59040,6,0,P|376:240|496:260,1,220.999989883423
468,364,60075,1,2,0:0:0:0:
366,296,60419,1,0,0:0:0:0:
480,180,60764,1,2,0:0:0:0:
436,304,61109,1,0,0:0:0:0:
403,193,61454,2,0,L|392:76,1,110.499994941712,2|0,0:0|0:0,0:0:0:0:
119,82,62143,6,0,L|109:193,1,110.499994941712,2|0,0:0|0:0,0:0:0:0:
160,292,62833,1,2,0:0:0:0:
220,196,63178,1,0,0:0:0:0:
256,352,63523,2,0,L|384:332,1,110.499994941712,2|0,0:0|0:0,0:0:0:0:
452,268,64212,1,2,0:0:0:0:
314,209,64557,1,0,0:0:0:0:
376,348,64902,5,2,0:0:0:0:
399,172,65247,1,0,0:0:0:0:
379,152,65419,1,0,0:0:0:0:
359,132,65592,2,0,L|231:124,1,110.499994941712,2|0,0:0|0:0,0:0:0:0:
188,76,66109,1,0,0:0:0:0:
132,216,66281,2,0,L|128:148,1,55.2499974708558,2|0,0:0|0:0,0:0:0:0:
228,300,66626,2,0,L|231:244,1,55.2499974708558,2|0,0:0|0:0,0:0:0:0:
138,374,66971,1,6,0:0:0:0:
240,152,67661,6,0,L|372:136,1,110.499994941712,2|0,0:0|0:0,0:0:0:0:
412,188,68178,1,0,0:0:0:0:
336,321,68350,2,0,P|315:269|341:215,1,110.499994941712,2|0,0:0|0:0,0:0:0:0:
432,84,69040,6,0,L|372:76,1,55.2499974708558,2|0,0:0|0:0,0:0:0:0:
304,48,69385,2,0,L|249:55,1,55.2499974708558,2|0,0:0|0:0,0:0:0:0:
172,40,69730,2,0,P|119:40|88:88,1,110.499994941712,2|0,0:0|0:0,0:0:0:0:
108,160,70247,1,0,0:0:0:0:
172,204,70419,6,0,L|304:192,1,110.499994941712,2|0,0:0|0:0,0:0:0:0:
183,127,70937,1,0,0:0:0:0:
104,236,71109,2,0,B|101:260|101:260|105:307,1,55.2499974708558,2|0,0:0|0:0,0:0:0:0:
148,352,71454,1,0,0:0:0:0:
157,342,71799,6,0,L|224:336,1,55.2499974708558,2|0,0:0|0:0,0:0:0:0:
356,304,72143,2,0,L|289:298,1,55.2499974708558,2|0,0:0|0:0,0:0:0:0:
104,236,72488,2,0,L|171:230,1,55.2499974708558,2|0,0:0|0:0,0:0:0:0:
220,184,72833,1,0,0:0:0:0:
220,184,73006,1,0,0:0:0:0:
356,304,73178,6,0,L|367:189,1,110.499994941712,2|0,0:0|0:0,0:0:0:0:
340,120,73695,1,0,0:0:0:0:
220,184,73868,2,0,B|178:188|178:188|107:165,1,110.499994941712,2|0,0:0|0:0,0:0:0:0:
54,271,74557,6,0,L|47:216,1,55.2499974708558,2|0,0:0|0:0,0:0:0:0:
151,335,74902,2,0,L|159:271,1,55.2499974708558,2|0,0:0|0:0,0:0:0:0:
220,184,75247,1,2,0:0:0:0:
232,172,75592,6,0,B|268:171|294:159|294:159|343:181|343:181|395:175|395:175|458:185,1,220.999989883423
488,248,76454,1,0,0:0:0:0:
440,308,76626,2,0,P|410:309|372:299,1,55.2499974708558,2|0,0:0|0:0,0:0:0:0:
324,256,76971,1,0,0:0:0:0:
315,247,77316,6,0,L|311:183,1,55.2499974708558,2|0,0:0|0:0,0:0:0:0:
204,168,77661,2,0,L|208:104,1,55.2499974708558,2|0,0:0|0:0,0:0:0:0:
329,268,78006,2,0,L|325:212,1,55.2499974708558,2|0,0:0|0:0,0:0:0:0:
218,189,78351,2,0,L|222:125,1,55.2499974708558
272,76,78695,6,0,P|328:64|401:88,1,110.499994941712,2|0,0:0|0:0,0:0:0:0:
432,132,79212,1,0,0:0:0:0:
380,192,79385,2,0,L|392:260,1,55.2499974708558,2|0,0:0|0:0,0:0:0:0:
364,320,79730,1,0,0:0:0:0:
357,331,80075,6,0,B|340:333|340:333|288:324,1,55.2499974708558,2|0,0:0|0:0,0:0:0:0:
232,296,80419,2,0,B|218:294|218:294|177:299,1,55.2499974708558,2|0,0:0|0:0,0:0:0:0:
112,260,80764,2,0,L|88:136,1,110.499994941712,2|0,0:0|0:0,0:0:0:0:
288,44,81454,6,0,L|267:152,1,110.499994941712,2|0,0:0|0:0,0:0:0:0:
208,204,81971,1,0,0:0:0:0:
252,268,82143,2,0,B|291:263|291:263|383:281,1,110.499994941712,2|0,0:0|0:0,0:0:0:0:
448,216,82833,6,0,L|463:153,1,55.2499974708558,2|0,0:0|0:0,0:0:0:0:
376,128,83178,2,0,L|361:65,1,55.2499974708558,2|0,0:0|0:0,0:0:0:0:
292,40,83523,2,0,B|251:52|251:52|176:40,1,110.499994941712,2|0,0:0|0:0,0:0:0:0:
71,108,84212,5,2,0:0:0:0:
201,214,84557,1,0,0:0:0:0:
180,128,84902,1,2,0:0:0:0:
116,189,85247,1,0,0:0:0:0:
244,91,85592,5,2,0:0:0:0:
65,117,85937,1,0,0:0:0:0:
176,32,86281,1,2,0:0:0:0:
111,200,86626,1,0,0:0:0:0:
80,24,86971,5,2,0:0:0:0:
254,100,87316,1,0,0:0:0:0:
36,164,87661,1,2,0:0:0:0:
185,27,88006,1,0,0:0:0:0:
216,248,88350,6,0,L|284:252,1,55.2499974708558,2|0,0:0|0:0,0:0:0:0:
336,296,88695,1,2,0:0:0:0:
336,296,88868,1,0,0:0:0:0:
432,130,89040,2,0,L|364:134,1,55.2499974708558,2|0,0:0|0:0,0:0:0:0:
312,178,89385,1,2,0:0:0:0:
312,178,89558,1,0,0:0:0:0:
203,226,89730,6,0,P|193:168|222:111,1,85,6|0,0:0|0:0,0:0:0:0:
290,96,90075,1,0,0:0:0:0:
161,49,90247,1,0,0:0:0:0:
335,43,90419,2,0,B|331:87|331:87|344:161|344:161|343:233,1,170,12|0,0:0|0:0,0:0:0:0:
427,270,90937,1,0,0:0:0:0:
427,270,91023,1,0,0:0:0:0:
427,270,91109,5,2,0:0:0:0:
170,221,91281,1,2,0:0:0:0:
318,343,91454,1,2,0:0:0:0:
251,123,91626,1,2,0:0:0:0:
100,303,91799,2,0,L|226:296,1,85,12|0,0:0|0:0,0:0:0:0:
344,149,92143,2,0,L|218:156,1,85,2|0,0:0|0:0,0:0:0:0:
405,101,92488,6,0,P|420:146|407:193,1,85,2|0,0:0|0:0,0:0:0:0:
326,236,92833,1,0,0:0:0:0:
454,318,93006,1,0,0:0:0:0:
285,294,93178,2,0,B|296:185|296:185|225:250,1,170,12|0,0:0|0:0,0:0:0:0:
161,304,93695,1,0,0:0:0:0:
368,338,93868,5,2,0:0:0:0:
151,198,94040,1,2,0:0:0:0:
325,58,94212,1,2,0:0:0:0:
359,245,94385,1,2,0:0:0:0:
171,90,94557,2,0,B|163:39|163:39|195:45,1,85,12|0,0:0|0:0,0:0:0:0:
85,226,94902,2,0,B|93:277|93:277|60:270,1,85,2|0,0:0|0:0,0:0:0:0:
227,340,95247,6,0,B|282:343|282:343|335:328,1,85,2|0,0:0|0:0,0:0:0:0:
360,245,95592,1,0,0:0:0:0:
478,348,95764,1,0,0:0:0:0:
455,131,95937,2,0,L|281:148,1,170,12|0,0:0|0:0,0:0:0:0:
199,202,96454,2,0,L|156:198,1,42.5
91,152,96626,5,2,0:0:0:0:
218,331,96799,1,2,0:0:0:0:
287,114,96971,1,2,0:0:0:0:
64,300,97143,1,2,0:0:0:0:
241,310,97316,2,0,L|333:313,1,85,12|0,0:0|0:0,0:0:0:0:
404,88,97661,2,0,L|312:85,1,85,2|0,0:0|0:0,0:0:0:0:
50,39,98006,6,0,L|142:36,1,85,2|0,0:0|0:0,0:0:0:0:
227,187,98350,1,0,0:0:0:0:
265,20,98523,1,2,0:0:0:0:
303,208,98695,2,0,P|281:246|221:266,1,85,14|0,0:0|0:0,0:0:0:0:
245,61,99040,2,0,L|349:56,1,85,8|0,0:0|0:0,0:0:0:0:
426,190,99385,5,2,0:0:0:0:
233,155,99557,1,2,0:0:0:0:
318,324,99730,1,2,0:0:0:0:
349,71,99902,1,2,0:0:0:0:
134,190,100075,2,0,B|175:197|175:197|219:191,1,85,12|0,0:0|0:0,0:0:0:0:
401,146,100419,2,0,B|360:139|360:139|316:145,1,85,12|0,0:0|0:0,0:0:0:0:
134,190,100764,6,0,B|129:144|142:101,1,85,6|0,0:0|0:0,0:0:0:0:
316,56,101109,1,0,0:0:0:0:
172,14,101281,1,0,0:0:0:0:
357,3,101454,2,0,B|345:139|345:139|378:135,1,170,12|0,0:0|0:0,0:0:0:0:
473,97,101971,1,0,0:0:0:0:
473,97,102057,1,0,0:0:0:0:
473,97,102143,5,2,0:0:0:0:
370,232,102316,1,2,0:0:0:0:
251,72,102488,1,2,0:0:0:0:
318,312,102661,1,2,0:0:0:0:
477,189,102833,2,0,B|434:175|434:175|479:158,1,85,12|0,0:0|0:0,0:0:0:0:
312,41,103178,2,0,B|355:55|355:55|318:70,1,85,2|0,0:0|0:0,0:0:0:0:
140,176,103523,6,0,P|110:150|120:111,1,85,2|0,0:0|0:0,0:0:0:0:
230,45,103868,1,0,0:0:0:0:
267,207,104040,1,0,0:0:0:0:
99,316,104212,2,0,B|153:320|153:320|219:312|219:312|285:318,1,170,12|0,0:0|0:0,0:0:0:0:
355,262,104730,1,0,0:0:0:0:
350,363,104902,5,2,0:0:0:0:
269,228,105075,1,2,0:0:0:0:
433,228,105247,1,2,0:0:0:0:
182,358,105419,1,2,0:0:0:0:
315,165,105592,2,0,P|270:151|212:173,1,85,12|0,0:0|0:0,0:0:0:0:
98,203,105937,2,0,B|109:240|109:240|106:287,1,85,2|0,0:0|0:0,0:0:0:0:
233,346,106281,6,0,L|329:340,1,85,2|0,0:0|0:0,0:0:0:0:
375,255,106626,1,0,0:0:0:0:
436,337,106799,1,0,0:0:0:0:
314,217,106971,2,0,B|324:192|343:180|372:171|400:185|400:185|384:150|412:117,1,170,12|0,0:0|0:0,0:0:0:0:
357,31,107488,2,0,L|306:37,1,42.5
244,12,107661,5,2,0:0:0:0:
226,173,107833,1,2,0:0:0:0:
172,85,108006,1,2,0:0:0:0:
158,279,108178,1,2,0:0:0:0:
369,224,108350,2,0,B|323:228|323:228|286:212,1,85,12|0,0:0|0:0,0:0:0:0:
187,48,108695,2,0,B|233:44|233:44|270:60,1,85,2|0,0:0|0:0,0:0:0:0:
435,247,109040,6,0,L|256:264,1,170,2|0,0:0|0:0,0:0:0:0:
197,339,109557,1,2,0:0:0:0:
87,185,109730,2,0,P|86:134|127:139,1,85,12|0,0:0|0:0,0:0:0:0:
300,36,110075,2,0,P|334:54|322:91,1,85,8|0,0:0|0:0,0:0:0:0:
254,167,110419,6,0,L|343:174,1,85,2|0,0:0|0:0,0:0:0:0:
144,310,110764,6,0,L|60:318,1,76.4999976654053,0|2,0:0|0:0,0:0:0:0:
310,350,111109,6,0,L|383:353,1,68,12|0,0:0|0:0,0:0:0:0:
183,182,111454,6,0,L|109:182,1,59.4999981842042,2|0,0:0|0:0,0:0:0:0:
350,78,111799,6,0,L|365:166,1,85,6|0,0:0|0:0,0:0:0:0:
316,280,112143,1,0,0:0:0:0:
316,280,112316,1,0,0:0:0:0:
98,192,112488,2,0,L|190:180,1,85,12|0,0:0|0:0,0:0:0:0:
248,72,112833,1,0,0:0:0:0:
316,280,113006,1,0,0:0:0:0:
316,280,113092,1,0,0:0:0:0:
316,280,113178,5,2,0:0:0:0:
416,132,113350,1,2,0:0:0:0:
179,201,113523,1,2,0:0:0:0:
411,274,113695,1,2,0:0:0:0:
170,193,113868,2,0,B|189:77|189:77|218:125,1,170,12|2,0:0|0:0,0:0:0:0:
216,284,114385,1,0,0:0:0:0:
92,230,114557,6,0,L|84:138,1,85,2|0,0:0|0:0,0:0:0:0:
298,76,114902,2,0,L|290:160,1,85
184,43,115247,1,12,0:0:0:0:
184,43,115419,1,0,0:0:0:0:
216,284,115592,1,0,0:0:0:0:
272,175,115764,1,0,0:0:0:0:
216,296,115937,5,2,0:0:0:0:
157,143,116109,1,2,0:0:0:0:
378,155,116281,1,2,0:0:0:0:
378,155,116454,1,2,0:0:0:0:
296,196,116626,2,0,P|225:142|267:70,1,170,12|2,0:0|0:0,0:0:0:0:
336,80,117143,1,0,0:0:0:0:
211,213,117316,6,0,B|167:218|167:218|101:207,1,85,2|0,0:0|0:0,0:0:0:0:
60,160,117661,1,0,0:0:0:0:
144,60,117833,1,0,0:0:0:0:
144,288,118006,1,12,0:0:0:0:
153,44,118350,6,0,P|238:1|213:179,1,382.500014591218,0|12,0:0|0:0,0:0:0:0:
109,232,119730,6,0,L|101:146,1,85,2|2,0:0|0:0,0:0:0:0:
124,64,120075,5,2,0:0:0:0:
194,162,120247,1,0,0:0:0:0:
41,101,120419,1,0,0:0:0:0:
183,18,120592,1,2,0:0:0:0:
109,232,120764,1,12,0:0:0:0:
116,244,121109,6,0,P|262:221|205:55,1,350.625013375283
185,159,122143,6,0,L|58:156,1,127.5,12|0,0:0|0:0,0:0:0:0:
49,147,122488,1,6,0:0:0:0:
158,291,122661,1,0,0:0:0:0:
99,65,122833,1,6,0:0:0:0:
6,218,123006,1,0,0:0:0:0:
194,214,123178,2,0,B|199:177|199:177|188:117,1,85
53,303,123523,1,12,0:0:0:0:
104,228,123695,1,0,0:0:0:0:
240,344,123868,2,0,L|340:336,1,85
340,326,124126,1,0,0:0:0:0:
340,326,124212,5,2,0:0:0:0:
196,256,124385,1,2,0:0:0:0:
400,216,124557,1,2,0:0:0:0:
286,118,124730,1,2,0:0:0:0:
342,319,124902,1,12,0:0:0:0:
331,333,125247,2,0,L|234:325,1,85,2|0,0:0|0:0,0:0:0:0:
148,256,125592,6,0,P|146:214|160:148,1,85,2|0,0:0|0:0,0:0:0:0:
364,81,125937,2,0,P|366:123|352:189,1,85
227,50,126281,1,12,0:0:0:0:
227,50,126454,1,0,0:0:0:0:
120,285,126626,2,0,P|118:243|132:177,1,85
235,65,126971,5,2,0:0:0:0:
261,229,127143,1,2,0:0:0:0:
115,121,127316,1,2,0:0:0:0:
320,112,127488,1,2,0:0:0:0:
203,283,127661,2,0,P|160:291|101:277,1,85,12|0,0:0|0:0,0:0:0:0:
24,200,128006,1,2,0:0:0:0:
96,96,128178,1,0,0:0:0:0:
164,192,128350,6,0,L|344:172,1,170,2|0,0:0|0:0,0:0:0:0:
276,264,128868,1,0,0:0:0:0:
210,139,129040,2,0,P|205:98|216:46,1,85,12|0,0:0|0:0,0:0:0:0:
415,132,129385,2,0,P|420:173|409:225,1,85
276,264,129730,6,0,B|212:278|212:278|100:258,1,170,2|0,0:0|0:0,0:0:0:0:
48,200,130247,1,2,0:0:0:0:
172,63,130419,1,12,0:0:0:0:
210,139,130592,1,2,0:0:0:0:
125,136,130764,1,2,0:0:0:0:
258,68,130937,1,2,0:0:0:0:
203,226,131109,5,2,0:0:0:0:
256,192,131195,12,0,133523,0:0:0:0:
95,266,133868,6,0,L|252:269,1,152.999995330811,6|0,0:0|0:0,0:0:0:0:
352,195,134385,1,0,0:0:0:0:
428,246,134557,2,0,L|422:323,1,76.4999976654053,12|0,0:0|0:0,0:0:0:0:
228,195,134902,2,0,L|221:118,1,76.4999976654053
248,90,135161,1,0,0:0:0:0:
248,90,135247,5,2,0:0:0:0:
99,140,135419,1,2,0:0:0:0:
313,224,135592,1,2,0:0:0:0:
152,51,135764,1,2,0:0:0:0:
91,267,135937,2,0,B|139:260|139:260|145:288,1,76.4999976654053,12|0,0:0|0:0,0:0:0:0:
289,143,136281,2,0,B|241:150|241:150|235:122,1,76.4999976654053,2|0,0:0|0:0,0:0:0:0:
384,50,136626,6,0,L|374:219,1,152.999995330811,2|0,0:0|0:0,0:0:0:0:
268,352,137143,1,0,0:0:0:0:
184,316,137316,2,0,L|189:239,1,76.4999976654053,12|0,0:0|0:0,0:0:0:0:
125,62,137661,2,0,L|49:61,1,76.4999976654053
257,23,138006,5,2,0:0:0:0:
294,190,138178,1,2,0:0:0:0:
199,118,138350,1,2,0:0:0:0:
307,85,138523,1,2,0:0:0:0:
192,223,138695,2,0,L|109:217,1,76.4999976654053,12|0,0:0|0:0,0:0:0:0:
248,351,139040,2,0,L|331:357,1,76.4999976654053,2|0,0:0|0:0,0:0:0:0:
483,265,139385,6,0,B|387:258|387:258|427:203,1,152.999995330811,2|0,0:0|0:0,0:0:0:0:
416,16,139902,1,0,0:0:0:0:
365,80,140075,2,0,B|321:86|321:86|289:78,1,76.4999976654053,12|0,0:0|0:0,0:0:0:0:
103,106,140419,2,0,L|111:189,1,76.4999976654053
91,215,140678,1,0,0:0:0:0:
91,215,140764,5,2,0:0:0:0:
291,261,140937,1,2,0:0:0:0:
187,300,141109,1,2,0:0:0:0:
386,339,141281,1,2,0:0:0:0:
316,167,141454,2,0,P|312:125|333:77,1,76.4999976654053,12|0,0:0|0:0,0:0:0:0:
109,29,141799,2,0,B|113:71|113:71|92:119,1,76.4999976654053,2|0,0:0|0:0,0:0:0:0:
14,240,142143,6,0,B|59:244|59:244|127:238|127:238|176:247,1,152.999995330811,2|0,0:0|0:0,0:0:0:0:
213,305,142661,1,2,0:0:0:0:
317,196,142833,2,0,P|312:150|337:114,1,76.4999976654053,12|0,0:0|0:0,0:0:0:0:
436,306,143178,2,0,L|347:297,1,76.4999976654053,8|0,0:0|0:0,0:0:0:0:
186,190,143523,5,2,0:0:0:0:
411,171,143695,1,2,0:0:0:0:
411,171,143868,1,2,0:0:0:0:
244,73,144040,1,2,0:0:0:0:
270,265,144212,2,0,B|289:299|289:299|326:287,1,76.4999976654053,12|0,0:0|0:0,0:0:0:0:
186,190,144557,2,0,B|167:156|167:156|130:168,1,76.4999976654053,12|0,0:0|0:0,0:0:0:0:
114,38,144902,6,0,B|239:50|239:50|271:40,1,152.999995330811,6|0,0:0|0:0,0:0:0:0:
383,61,145419,1,0,0:0:0:0:
442,131,145592,2,0,L|437:234,1,76.4999976654053,12|0,0:0|0:0,0:0:0:0:
298,269,145937,1,0,0:0:0:0:
437,344,146109,2,0,L|392:347,1,38.2499988327027
333,329,146281,5,2,0:0:0:0:
403,198,146454,1,2,0:0:0:0:
210,285,146626,1,2,0:0:0:0:
380,204,146799,1,2,0:0:0:0:
252,137,146971,2,0,P|205:136|169:105,1,76.4999976654053,12|0,0:0|0:0,0:0:0:0:
28,247,147316,2,0,P|75:248|111:279,1,76.4999976654053,2|0,0:0|0:0,0:0:0:0:
259,355,147661,6,0,P|255:308|342:319,1,152.999995330811,2|0,0:0|0:0,0:0:0:0:
440,376,148178,1,0,0:0:0:0:
364,232,148351,2,0,P|330:214|292:210,1,76.4999976654053,12|0,0:0|0:0,0:0:0:0:
43,123,148695,2,0,P|83:104|128:104,1,76.4999976654053
266,124,149040,5,2,0:0:0:0:
99,177,149212,1,2,0:0:0:0:
371,180,149385,1,2,0:0:0:0:
120,172,149557,1,2,0:0:0:0:
202,240,149730,2,0,P|207:278|190:318,1,76.4999976654053,12|0,0:0|0:0,0:0:0:0:
373,150,150075,2,0,P|368:112|385:72,1,76.4999976654053,2|0,0:0|0:0,0:0:0:0:
430,204,150419,6,0,L|271:167,1,152.999995330811,2|0,0:0|0:0,0:0:0:0:
213,206,150937,1,0,0:0:0:0:
86,148,151109,2,0,P|85:108|109:69,1,76.4999976654053,12|0,0:0|0:0,0:0:0:0:
212,232,151454,2,0,L|207:312,1,76.4999976654053
183,337,151712,1,0,0:0:0:0:
183,337,151799,5,2,0:0:0:0:
344,324,151971,1,2,0:0:0:0:
300,157,152143,1,2,0:0:0:0:
266,312,152316,1,2,0:0:0:0:
372,134,152488,2,0,L|289:116,1,76.4999976654053,12|0,0:0|0:0,0:0:0:0:
75,281,152833,2,0,L|158:263,1,76.4999976654053,2|0,0:0|0:0,0:0:0:0:
358,96,153178,6,0,B|276:80|276:80|208:117,1,152.999995330811,2|0,0:0|0:0,0:0:0:0:
329,261,153695,1,2,0:0:0:0:
472,65,153868,2,0,L|480:210,1,114.749996498108,12|0,0:0|0:0,0:0:0:0:
460,213,154212,1,8,0:0:0:0:
352,176,154385,1,0,0:0:0:0:
130,322,154557,6,0,B|135:280|135:280|96:289,1,76.4999976654053,2|0,0:0|0:0,0:0:0:0:
61,173,154902,6,0,B|56:215|56:215|91:209,1,68,0|2,0:0|0:0,0:0:0:0:
145,136,155247,6,0,B|150:94|150:94|119:99,1,59.4999981842042,8|2,0:0|0:0,0:0:0:0:
56,32,155592,6,0,B|53:64|53:64|83:57,1,50.9999984436036,4|2,0:0|0:0,0:0:0:0:
272,80,155937,6,0,L|260:160,1,76.4999976654053,6|0,0:0|0:0,0:0:0:0:
192,240,156281,1,0,0:0:0:0:
192,240,156454,1,0,0:0:0:0:
272,312,156626,2,0,P|311:318|360:304,1,76.4999976654053,12|0,0:0|0:0,0:0:0:0:
436,252,156971,1,0,0:0:0:0:
301,209,157143,1,0,0:0:0:0:
301,209,157230,1,0,0:0:0:0:
301,209,157316,5,2,0:0:0:0:
265,325,157488,1,2,0:0:0:0:
109,198,157661,2,0,B|104:225|104:225|110:273,1,76.4999976654053,2|2,0:0|0:0,0:0:0:0:
244,150,158006,2,0,B|250:102|250:102|246:75,1,76.4999976654053,12|0,0:0|0:0,0:0:0:0:
113,72,158350,1,2,0:0:0:0:
113,72,158523,1,0,0:0:0:0:
26,163,158695,6,0,P|47:227|109:199,1,152.999995330811,2|0,0:0|0:0,0:0:0:0:
113,72,159212,1,0,0:0:0:0:
152,271,159385,2,0,L|238:278,1,76.4999976654053,12|0,0:0|0:0,0:0:0:0:
360,140,159730,2,0,L|274:147,1,76.4999976654053
393,318,160075,5,2,0:0:0:0:
444,224,160247,1,2,0:0:0:0:
336,228,160419,1,2,0:0:0:0:
392,332,160592,1,2,0:0:0:0:
454,218,160764,2,0,L|436:62,1,152.999995330811,12|2,0:0|0:0,0:0:0:0:
352,0,161281,1,0,0:0:0:0:
268,68,161454,6,0,P|230:70|184:64,1,76.4999976654053,2|0,0:0|0:0,0:0:0:0:
104,124,161799,1,0,0:0:0:0:
46,19,161971,1,0,0:0:0:0:
8,184,162143,1,12,0:0:0:0:
156,32,162488,6,0,P|272:64|150:224,1,382.500014591218,2|12,0:0|0:0,0:0:0:0:
77,165,163868,5,2,0:0:0:0:
194,129,164040,1,2,0:0:0:0:
159,242,164212,2,0,P|158:280|167:319,1,76.4999976654053,2|0,0:0|0:0,0:0:0:0:
320,235,164557,2,0,P|328:198|328:160,1,76.4999976654053,0|2,0:0|0:0,0:0:0:0:
288,60,164902,1,12,0:0:0:0:
178,190,165247,6,0,P|38:132|133:14,1,350.625013375283,2|0,0:0|0:0,0:0:0:0:
204,68,166281,6,0,L|366:58,1,152.999995330811,12|6,0:0|0:0,0:0:0:0:
448,120,166799,1,2,0:0:0:0:
368,296,166971,6,0,P|336:260|332:220,1,76.4999976654053,6|0,0:0|0:0,0:0:0:0:
419,223,167316,1,0,0:0:0:0:
300,348,167488,1,0,0:0:0:0:
224,236,167661,2,0,L|240:144,1,76.4999976654053,12|0,0:0|0:0,0:0:0:0:
284,80,168006,1,0,0:0:0:0:
328,212,168178,1,0,0:0:0:0:
328,212,168264,1,0,0:0:0:0:
328,212,168350,5,2,0:0:0:0:
214,151,168523,1,2,0:0:0:0:
419,115,168695,1,2,0:0:0:0:
328,212,168868,1,2,0:0:0:0:
264,52,169040,2,0,L|187:47,1,76.4999976654053,12|0,0:0|0:0,0:0:0:0:
47,201,169385,2,0,L|123:196,1,76.4999976654053,2|0,0:0|0:0,0:0:0:0:
204,240,169730,6,0,P|205:290|105:294,1,152.999995330811,2|0,0:0|0:0,0:0:0:0:
47,201,170247,1,0,0:0:0:0:
164,96,170419,2,0,L|248:92,2,76.4999976654053,12|0|0,0:0|0:0|0:0,0:0:0:0:
304,172,170937,1,0,0:0:0:0:
365,25,171109,5,2,0:0:0:0:
392,232,171281,1,2,0:0:0:0:
366,15,171454,1,2,0:0:0:0:
291,190,171626,1,2,0:0:0:0:
466,191,171799,2,0,L|445:96,1,76.4999976654053,12|0,0:0|0:0,0:0:0:0:
383,336,172143,1,2,0:0:0:0:
176,244,172488,6,0,B|186:84|186:84|220:166,1,229.499992996216,2|0,0:0|0:0,0:0:0:0:
214,318,173178,2,0,P|175:323|124:315,1,76.4999976654053,12|0,0:0|0:0,0:0:0:0:
221,139,173523,2,0,P|260:134|311:142,1,76.4999976654053
412,224,173868,6,0,P|445:160|418:66,1,152.999995330811,2|0,0:0|0:0,0:0:0:0:
356,32,174385,1,2,0:0:0:0:
221,139,174557,2,0,L|133:133,2,76.4999976654053,12|0|2,0:0|0:0|0:0,0:0:0:0:
64,192,175075,1,0,0:0:0:0:
160,304,175247,6,0,L|320:288,1,152.999995330811,2|0,0:0|0:0,0:0:0:0:
384,232,175764,1,0,0:0:0:0:
324,164,175937,2,0,P|322:125|328:74,1,76.4999976654053,12|0,0:0|0:0,0:0:0:0:
268,16,176281,1,0,0:0:0:0:
174,152,176454,1,0,0:0:0:0:
174,152,176540,1,0,0:0:0:0:
174,152,176626,6,0,P|176:192|168:240,1,76.4999976654053,2|0,0:0|0:0,0:0:0:0:
267,327,176971,6,0,P|262:289|265:254,1,68
363,157,177316,6,0,P|365:187|359:227,1,59.4999981842042,12|0,0:0|0:0,0:0:0:0:
448,320,177661,6,0,P|445:291|448:263,1,50.9999984436036
489,183,178006,5,6,0:0:0:0:
137,78,179040,5,0,0:0:0:0:
231,170,179385,2,0,L|347:162,1,110.499994941712
455,230,180075,1,0,0:0:0:0:
357,319,180419,6,0,B|288:315|288:315|252:323|252:323|184:318,1,165.749992412568
143,273,181109,2,0,P|151:238|103:173,1,110.499994941712
50,60,181799,6,0,B|162:64|162:64|219:50,1,165.749992412568
274,24,182488,1,0,0:0:0:0:
355,128,182833,1,0,0:0:0:0:
475,71,183178,1,0,0:0:0:0:
458,202,183523,5,2,0:0:0:0:
73,305,184557,6,0,P|85:263|58:188,1,110.499994941712
5,82,185247,1,0,0:0:0:0:
135,108,185592,1,0,0:0:0:0:
254,50,185937,6,0,P|250:146|301:180,1,165.749992412568
316,101,186626,2,0,P|255:102|194:180,1,165.749992412568
202,256,187316,6,0,B|291:253|291:253|303:258|303:258|372:255,1,165.749992412568
443,244,188006,2,0,P|434:202|465:140,1,110.499994941712
350,34,188695,1,0,0:0:0:0:
208,97,189040,5,2,0:0:0:0:
453,322,190075,6,0,L|435:204,1,110.499994941712
310,171,190764,1,0,0:0:0:0:
414,89,191109,1,0,0:0:0:0:
286,53,191454,6,0,L|122:70,1,165.749992412568
91,129,192143,2,0,B|101:188|101:188|92:220|92:220|114:306,1,165.749992412568
66,340,192833,5,0,0:0:0:0:
322,330,193523,1,0,0:0:0:0:
184,104,194212,1,0,0:0:0:0:
256,192,194557,12,0,199730,0:0:0:0:
95,302,200075,6,0,L|209:306,1,110.499994941712,2|0,0:0|0:0,0:0:0:0:
260,269,200592,1,0,0:0:0:0:
63,261,200764,2,0,L|143:264,1,55.2499974708558,2|0,0:0|0:0,0:0:0:0:
164,215,201109,1,0,0:0:0:0:
79,112,201454,6,0,L|159:115,1,55.2499974708558,2|0,0:0|0:0,0:0:0:0:
190,79,201799,1,0,0:0:0:0:
264,188,202143,2,0,L|344:191,1,55.2499974708558,2|0,0:0|0:0,0:0:0:0:
375,155,202488,1,0,0:0:0:0:
331,280,202833,6,0,L|208:277,1,110.499994941712,2|0,0:0|0:0,0:0:0:0:
182,331,203350,1,0,0:0:0:0:
85,231,203523,2,0,P|83:201|94:166,1,55.2499974708558,2|0,0:0|0:0,0:0:0:0:
143,139,203868,1,0,0:0:0:0:
258,74,204212,6,0,L|256:137,1,55.2499974708558,2|0,0:0|0:0,0:0:0:0:
284,189,204557,1,0,0:0:0:0:
381,279,204902,2,0,L|382:220,1,55.2499974708558,2|0,0:0|0:0,0:0:0:0:
437,186,205247,1,0,0:0:0:0:
346,89,205592,6,0,B|312:91|312:91|268:86|268:86|233:90,1,110.499994941712,2|0,0:0|0:0,0:0:0:0:
190,137,206109,1,0,0:0:0:0:
106,249,206281,2,0,L|166:245,1,55.2499974708558,2|0,0:0|0:0,0:0:0:0:
210,290,206626,1,0,0:0:0:0:
318,212,206971,5,2,0:0:0:0:
309,277,207143,1,0,0:0:0:0:
357,322,207316,1,0,0:0:0:0:
454,232,207661,1,2,0:0:0:0:
463,167,207833,1,0,0:0:0:0:
415,122,208006,6,0,L|288:121,1,110.499994941712,0|2,0:0|0:0,0:0:0:0:
239,135,208523,1,0,0:0:0:0:
185,173,208695,2,0,L|58:172,1,110.499994941712,0|2,0:0|0:0,0:0:0:0:
28,219,209212,1,0,0:0:0:0:
66,273,209385,6,0,P|100:259|181:285,1,110.499994941712,0|2,0:0|0:0,0:0:0:0:
198,335,209902,1,0,0:0:0:0:
239,283,210075,1,0,0:0:0:0:
347,301,210937,5,2,0:0:0:0:
396,248,211109,2,0,P|399:220|392:176,1,55.2499974708558,2|0,0:0|0:0,0:0:0:0:
357,135,211454,1,2,0:0:0:0:
357,135,211626,1,0,0:0:0:0:
302,91,211799,2,0,L|239:96,1,55.2499974708558,2|0,0:0|0:0,0:0:0:0:
124,152,212143,2,0,L|187:157,1,55.2499974708558,2|0,0:0|0:0,0:0:0:0:
238,196,212488,5,2,0:0:0:0:
238,196,212661,1,0,0:0:0:0:
199,306,212833,2,0,P|194:279|196:252,1,55.2499974708558,2|0,0:0|0:0,0:0:0:0:
272,332,213178,2,0,L|404:336,1,110.499994941712,2|2,0:0|0:0,0:0:0:0:
436,296,213695,1,0,0:0:0:0:
408,224,213868,6,0,P|405:192|410:150,1,63.7500024318696,2|0,0:0|0:0,0:0:0:0:
460,104,214212,2,0,P|462:72|459:40,1,63.7500024318696,2|0,0:0|0:0,0:0:0:0:
392,4,214557,2,0,L|260:11,1,127.500004863739,2|2,0:0|0:0,0:0:0:0:
200,56,215075,1,0,0:0:0:0:
157,175,215247,6,0,L|148:112,1,63.7500024318696,2|0,0:0|0:0,0:0:0:0:
244,242,215592,2,0,L|253:178,1,63.7500024318696,2|0,0:0|0:0,0:0:0:0:
144,278,215937,1,2,0:0:0:0:
144,278,216109,1,0,0:0:0:0:
92,220,216281,2,0,P|60:212|29:213,1,63.7500024318696,2|0,0:0|0:0,0:0:0:0:
192,334,216626,6,0,P|232:338|284:330,1,72.2500013780594,2|2,0:0|0:0,0:0:0:0:
340,292,216971,1,10,0:0:0:0:
340,292,217143,1,2,0:0:0:0:
200,96,217316,6,0,P|195:133|200:180,1,72.2500013780594,2|2,0:0|0:0,0:0:0:0:
232,248,217661,1,10,0:0:0:0:
232,248,217833,1,2,0:0:0:0:
437,96,218006,6,0,P|401:93|357:100,1,72.2500013780594,2|2,0:0|0:0,0:0:0:0:
290,139,218350,1,10,0:0:0:0:
290,139,218523,1,2,0:0:0:0:
446,336,218695,6,0,P|449:300|442:256,1,72.2500013780594,2|2,0:0|0:0,0:0:0:0:
403,189,219039,1,10,0:0:0:0:
403,189,219212,1,2,0:0:0:0:
296,264,219385,6,0,L|216:256,1,80.7499978437424,10|2,0:0|0:0,0:0:0:0:
140,196,219730,1,10,0:0:0:0:
290,139,219902,1,2,0:0:0:0:
205,323,220075,5,10,0:0:0:0:
164,120,220247,1,2,0:0:0:0:
333,200,220419,1,10,0:0:0:0:
134,312,220592,1,2,0:0:0:0:
260,76,220764,5,10,0:0:0:0:
276,68,222143,5,6,0:0:0:0:
226,273,222316,1,0,0:0:0:0:
149,112,222488,1,8,0:0:0:0:
226,171,222661,1,0,0:0:0:0:
136,208,222833,1,0,0:0:0:0:
192,24,223006,1,2,0:0:0:0:
142,186,223178,1,8,0:0:0:0:
288,60,223350,1,0,0:0:0:0:
288,60,223437,1,0,0:0:0:0:
288,60,223523,6,0,L|392:56,1,97.7500018644333,2|0,0:0|0:0,0:0:0:0:
468,108,223868,1,8,0:0:0:0:
399,321,224040,1,0,0:0:0:0:
333,252,224212,1,0,0:0:0:0:
429,232,224385,1,2,0:0:0:0:
303,342,224557,1,8,0:0:0:0:
368,160,224730,1,0,0:0:0:0:
368,160,224816,1,0,0:0:0:0:
368,160,224902,5,2,0:0:0:0:
156,200,225075,1,0,0:0:0:0:
252,200,225247,1,8,0:0:0:0:
204,284,225419,1,0,0:0:0:0:
205,124,225592,1,0,0:0:0:0:
290,281,225764,1,2,0:0:0:0:
116,283,225937,1,8,0:0:0:0:
292,125,226109,1,0,0:0:0:0:
336,212,226281,6,0,L|444:216,1,97.7500018644333,2|0,0:0|0:0,0:0:0:0:
504,284,226626,1,8,0:0:0:0:
204,284,226799,1,2,0:3:0:0:
204,284,226885,1,0,0:3:0:0:
204,284,226971,2,0,L|191:220,1,48.8750009322167,2|0,0:3|0:3,0:3:0:0:
209,190,227143,1,0,0:0:0:0:
324,292,227316,1,8,0:0:0:0:
165,338,227488,1,0,0:0:0:0:
336,212,227661,5,2,0:0:0:0:
256,360,227833,1,0,0:0:0:0:
209,190,228006,1,8,0:0:0:0:
398,302,228178,1,0,3:0:0:0:
398,302,228264,1,0,3:0:0:0:
398,302,228350,1,0,3:0:0:0:
166,292,228523,1,2,0:0:0:0:
284,132,228695,1,8,0:0:0:0:
324,292,228868,1,0,0:0:0:0:
408,164,229040,5,2,0:0:0:0:
196,98,229212,1,0,0:0:0:0:
209,190,229385,1,8,0:0:0:0:
284,132,229557,1,0,0:3:0:0:
284,132,229643,1,0,0:3:0:0:
284,132,229730,2,0,L|289:70,1,48.8750009322167,0|0,0:3|0:3,0:3:0:0:
264,40,229902,1,2,0:0:0:0:
118,159,230075,1,8,0:0:0:0:
294,221,230247,1,0,0:0:0:0:
408,164,230419,6,0,L|418:59,1,97.7500018644333,2|0,0:0|0:0,0:0:0:0:
209,190,230764,2,0,L|218:287,1,97.7500018644333,8|0,0:0|0:3,0:0:0:0:
218,287,231023,1,0,0:3:0:0:
218,287,231109,1,0,0:3:0:0:
294,221,231281,1,2,0:0:0:0:
118,159,231454,1,8,0:0:0:0:
141,333,231626,1,0,0:0:0:0:
279,136,231799,5,2,0:0:0:0:
139,245,231971,1,8,0:0:0:0:
306,303,232143,1,8,0:0:0:0:
199,94,232488,5,0,0:0:0:0:
237,282,232661,1,2,0:0:0:0:
277,121,232833,1,12,0:0:0:0:
277,121,233178,6,0,L|263:223,1,97.7500018644333,6|0,0:0|0:0,0:0:0:0:
304,308,233523,1,8,0:0:0:0:
368,232,233695,1,0,0:0:0:0:
196,262,233868,1,0,0:0:0:0:
292,112,234040,1,2,0:0:0:0:
312,320,234212,1,8,0:0:0:0:
188,152,234385,1,0,0:0:0:0:
396,136,234557,5,2,0:0:0:0:
196,262,234730,1,0,0:0:0:0:
94,215,234902,2,0,L|101:97,1,97.7500018644333,8|0,0:0|0:3,0:0:0:0:
99,117,235161,1,0,0:3:0:0:
99,117,235247,1,0,0:3:0:0:
168,48,235419,1,2,0:0:0:0:
336,252,235592,1,8,0:0:0:0:
336,252,235764,1,0,0:0:0:0:
396,136,235937,5,2,0:0:0:0:
196,262,236109,1,0,0:0:0:0:
264,336,236281,1,8,0:0:0:0:
264,155,236454,1,0,0:0:0:0:
76,340,236626,2,0,L|196:352,1,97.7500018644333,0|2,0:0|0:0,0:0:0:0:
433,242,236971,2,0,L|313:254,1,97.7500018644333,8|0,0:0|0:0,0:0:0:0:
264,155,237316,5,2,0:0:0:0:
181,364,237488,1,0,0:0:0:0:
156,268,237661,1,8,0:0:0:0:
248,299,237833,1,0,0:3:0:0:
248,299,237919,1,0,0:3:0:0:
248,299,238006,1,0,0:3:0:0:
88,338,238178,1,2,0:0:0:0:
236,208,238350,1,8,0:0:0:0:
175,374,238523,1,0,0:0:0:0:
112,180,238695,6,0,L|124:68,1,97.7500018644333,2|0,0:0|0:0,0:0:0:0:
192,16,239040,1,8,0:0:0:0:
192,16,239212,1,0,0:0:0:0:
320,220,239385,2,0,L|309:122,1,97.7500018644333,0|2,0:0|0:0,0:0:0:0:
265,301,239730,1,8,0:0:0:0:
265,301,239902,1,0,0:0:0:0:
112,184,240075,5,2,0:0:0:0:
208,200,240247,1,0,0:0:0:0:
148,276,240419,1,8,0:0:0:0:
176,116,240592,1,0,0:0:0:0:
199,348,240764,1,0,0:0:0:0:
64,260,240937,1,2,0:0:0:0:
296,219,241109,1,8,0:0:0:0:
112,184,241281,1,0,0:0:0:0:
111,357,241454,5,2,0:0:0:0:
208,200,241626,1,0,0:0:0:0:
25,184,241799,1,8,0:0:0:0:
116,369,241971,1,0,0:0:0:0:
309,304,242143,2,0,L|212:312,1,97.7500018644333,0|2,0:0|0:0,0:0:0:0:
400,268,242488,1,8,0:0:0:0:
400,268,242661,1,0,0:0:0:0:
249,111,242833,5,2,0:0:0:0:
212,244,243006,1,8,0:0:0:0:
156,44,243178,1,8,0:0:0:0:
361,96,243523,6,0,L|264:100,1,97.7500018644333,0|2,0:0|0:0,0:0:0:0:
105,218,243868,2,0,L|203:222,1,97.7500018644333,8|0,0:0|0:0,0:0:0:0:
42,143,244212,5,6,0:0:0:0:
105,218,244385,1,0,0:0:0:0:
138,126,244557,1,8,0:0:0:0:
37,289,244730,1,0,0:0:0:0:
188,188,244902,1,0,0:0:0:0:
78,66,245075,1,2,0:0:0:0:
120,303,245247,1,8,0:0:0:0:
271,150,245419,1,0,0:0:0:0:
105,218,245592,5,2,0:0:0:0:
239,332,245764,1,0,0:0:0:0:
296,171,245937,2,0,B|346:175|346:175|337:124,1,97.7500018644333,8|0,0:0|0:0,0:0:0:0:
185,275,246281,2,0,B|135:271|135:271|144:322,1,97.7500018644333,0|2,0:0|0:0,0:0:0:0:
235,350,246626,1,8,0:0:0:0:
73,220,246799,1,0,0:0:0:0:
226,94,246971,5,2,0:0:0:0:
336,160,247143,1,0,0:0:0:0:
293,49,247316,1,8,0:0:0:0:
332,232,247488,1,0,0:0:0:0:
376,83,247661,1,0,0:0:0:0:
237,132,247833,1,2,0:0:0:0:
392,82,248006,1,8,0:0:0:0:
266,213,248178,1,0,0:0:0:0:
374,343,248350,6,0,L|376:246,1,97.7500018644333,2|0,0:0|0:0,0:0:0:0:
136,246,248695,2,0,L|137:343,1,97.7500018644333,8|0,0:0|0:0,0:0:0:0:
195,168,249040,1,0,0:0:0:0:
339,345,249212,1,2,0:0:0:0:
443,192,249385,1,8,0:0:0:0:
348,216,249557,1,0,0:0:0:0:
419,283,249730,6,0,B|417:148|417:148|463:107,1,195.500003728867,2|8,0:0|0:0,0:0:0:0:
401,30,250247,1,0,0:0:0:0:
216,83,250419,1,0,0:0:0:0:
332,165,250592,1,2,0:0:0:0:
158,209,250764,6,0,P|153:285|93:182,1,289.000005512238,8|8,0:0|0:0,0:0:0:0:
195,132,251799,5,0,0:0:0:0:
116,100,251971,1,2,0:0:0:0:
347,76,252143,1,8,0:0:0:0:
260,88,252316,1,0,0:0:0:0:
424,145,252488,6,0,B|423:196|423:196|433:273|433:273|433:344,1,195.500003728867,2|8,0:0|0:0,0:0:0:0:
337,365,253006,1,0,0:0:0:0:
165,294,253178,1,0,0:0:0:0:
290,263,253350,1,2,0:0:0:0:
87,158,253523,6,0,B|100:212|100:212|140:232|184:208|180:160,1,144.500002756119,8|2,0:0|0:0,0:0:0:0:
88,36,254040,1,8,0:0:0:0:
192,168,254212,1,8,0:0:0:0:
292,28,254557,5,0,0:0:0:0:
376,52,254730,1,2,0:0:0:0:
399,229,254902,2,0,L|326:227,1,72.2500013780594,12|0,0:0|0:0,0:0:0:0:
280,313,255247,5,6,0:0:0:0:
328,228,255419,1,0,0:0:0:0:
230,228,255592,1,0,0:0:0:0:
179,313,255764,1,0,0:0:0:0:
281,157,255937,1,0,0:0:0:0:
375,311,256109,1,2,0:0:0:0:
260,284,256281,2,0,L|358:279,1,97.7500018644333,8|0,0:0|0:0,0:0:0:0:
172,81,256626,5,2,0:0:0:0:
378,199,256799,1,0,0:0:0:0:
241,140,256971,2,0,B|235:188|235:188|252:238,1,97.7500018644333,8|0,0:0|0:0,0:0:0:0:
104,351,257316,2,0,B|110:303|110:303|93:253,1,97.7500018644333,0|2,0:0|0:0,0:0:0:0:
2,221,257661,1,8,0:0:0:0:
134,173,257833,1,0,0:0:0:0:
245,260,258006,6,0,B|297:265|297:265|353:247,1,97.7500018644333,2|0,0:0|0:0,0:0:0:0:
266,50,258350,2,0,P|261:116|307:171,1,97.7500018644333,8|0,0:0|0:0,0:0:0:0:
472,90,258695,2,0,L|361:94,1,97.7500018644333,0|2,0:0|0:0,0:0:0:0:
103,186,259040,2,0,L|214:182,1,97.7500018644333,8|0,0:0|0:0,0:0:0:0:
260,260,259385,5,2,0:0:0:0:
279,122,259557,1,0,0:0:0:0:
343,281,259730,1,8,0:0:0:0:
220,183,259902,1,0,0:0:0:0:
294,344,260075,1,0,0:0:0:0:
228,204,260247,1,2,0:0:0:0:
156,328,260419,1,8,0:0:0:0:
139,93,260764,6,0,B|247:100|247:100|329:64,1,195.500003728867,2|8,0:0|0:0,0:0:0:0:
409,13,261281,1,0,0:0:0:0:
455,99,261454,1,0,0:0:0:0:
316,169,261626,1,2,0:0:0:0:
480,88,261799,1,8,0:0:0:0:
326,296,261971,1,0,0:0:0:0:
284,153,262143,6,0,B|280:103|280:103|296:53,1,97.7500018644333,2|0,0:0|0:0,0:0:0:0:
326,296,262488,2,0,L|211:281,1,97.7500018644333,8|0,0:0|0:0,0:0:0:0:
154,139,262833,1,0,0:0:0:0:
91,299,263006,1,2,0:0:0:0:
41,71,263178,1,8,0:0:0:0:
92,315,263350,1,0,0:0:0:0:
170,135,263523,6,0,P|258:139|253:68,1,165.749992412568,2|0,0:0|0:0,0:0:0:0:
131,63,264212,2,0,L|139:241,1,165.749992412568
138,228,264902,5,2,0:0:0:0:
294,174,265419,1,2,0:0:0:0:
294,174,265506,1,0,0:0:0:0:
294,174,265592,1,8,0:0:0:0:
294,174,266281,6,0,P|231:177|186:97,1,152.999995330811,6|0,0:0|0:0,0:0:0:0:
227,43,266799,1,0,0:0:0:0:
370,147,266971,2,0,L|365:245,1,76.4999976654053,12|0,0:0|0:0,0:0:0:0:
314,280,267316,1,0,0:0:0:0:
452,314,267488,1,0,0:0:0:0:
452,314,267575,1,0,0:0:0:0:
452,314,267661,5,2,0:0:0:0:
372,124,267833,1,2,0:0:0:0:
280,184,268006,1,2,0:0:0:0:
372,232,268178,1,2,0:0:0:0:
268,88,268350,2,0,L|181:92,1,76.4999976654053,12|0,0:0|0:0,0:0:0:0:
86,293,268695,2,0,L|162:289,1,76.4999976654053,2|0,0:0|0:0,0:0:0:0:
407,65,269040,6,0,L|246:73,1,152.999995330811,2|0,0:0|0:0,0:0:0:0:
128,160,269557,1,0,0:0:0:0:
156,248,269730,2,0,L|256:244,1,76.4999976654053,12|0,0:0|0:0,0:0:0:0:
431,209,270075,2,0,L|427:301,1,76.4999976654053
323,337,270419,5,2,0:0:0:0:
458,323,270592,1,2,0:0:0:0:
309,253,270764,1,2,0:0:0:0:
475,331,270937,1,2,0:0:0:0:
398,209,271109,2,0,P|394:161|411:124,1,76.4999976654053,12|0,0:0|0:0,0:0:0:0:
256,38,271454,2,0,P|260:86|243:123,1,76.4999976654053,2|0,0:0|0:0,0:0:0:0:
50,204,271799,6,0,L|217:213,1,152.999995330811,2|0,0:0|0:0,0:0:0:0:
236,296,272316,1,0,0:0:0:0:
380,355,272489,2,0,L|304:360,1,76.4999976654053,12|0,0:0|0:0,0:0:0:0:
424,276,272833,1,0,0:0:0:0:
305,132,273006,1,0,0:0:0:0:
305,132,273092,1,0,0:0:0:0:
305,132,273178,5,2,0:0:0:0:
137,196,273350,1,2,0:0:0:0:
375,224,273523,1,2,0:0:0:0:
127,196,273695,1,2,0:0:0:0:
232,248,273868,2,0,P|226:295|245:336,1,76.4999976654053,12|0,0:0|0:0,0:0:0:0:
431,156,274212,2,0,P|437:109|418:68,1,76.4999976654053,2|0,0:0|0:0,0:0:0:0:
190,182,274557,6,0,P|233:213|322:174,1,152.999995330811,2|0,0:0|0:0,0:0:0:0:
255,135,275075,1,2,0:0:0:0:
364,249,275247,2,0,L|357:86,1,152.999995330811,12|8,0:0|0:0,0:0:0:0:
444,172,275764,1,0,0:0:0:0:
212,85,275937,6,0,L|130:93,1,76.4999976654053,2|2,0:0|0:0,0:0:0:0:
37,196,276281,1,2,0:0:0:0:
37,196,276454,1,2,0:0:0:0:
197,295,276626,2,0,L|294:286,1,76.4999976654053,12|0,0:0|0:0,0:0:0:0:
427,156,276971,2,0,L|330:165,1,76.4999976654053,6|0,0:0|0:0,0:0:0:0:
106,68,277316,6,0,L|274:76,1,152.999995330811,6|0,0:0|0:0,0:0:0:0:
304,136,277833,1,0,0:0:0:0:
234,223,278006,2,0,P|228:186|228:148,1,76.4999976654053,12|0,0:0|0:0,0:0:0:0:
315,218,278350,2,0,P|314:256|308:293,1,76.4999976654053
308,293,278609,1,0,0:0:0:0:
308,293,278695,5,2,0:0:0:0:
212,136,278868,1,2,0:0:0:0:
383,164,279040,1,2,0:0:0:0:
300,305,279212,1,2,0:0:0:0:
292,104,279385,1,12,0:0:0:0:
284,93,279730,2,0,B|257:86|257:86|196:84,1,76.4999976654053,2|0,0:0|0:0,0:0:0:0:
140,124,280075,6,0,P|118:200|153:279,1,152.999995330811,2|0,0:0|0:0,0:0:0:0:
216,284,280592,1,0,0:0:0:0:
280,244,280764,2,0,P|250:219|199:213,1,76.4999976654053,12|0,0:0|0:0,0:0:0:0:
281,322,281109,2,0,P|317:313|346:289,1,76.4999976654053
356,212,281454,5,2,0:0:0:0:
184,144,281626,1,2,0:0:0:0:
368,212,281799,1,2,0:0:0:0:
216,284,281971,1,2,0:0:0:0:
269,97,282143,1,12,0:0:0:0:
275,86,282488,2,0,B|310:80|310:80|358:85,1,76.4999976654053,2|0,0:0|0:0,0:0:0:0:
412,128,282833,6,0,L|405:289,1,152.999995330811,2|0,0:0|0:0,0:0:0:0:
348,332,283350,1,0,0:0:0:0:
284,288,283523,2,0,P|247:281|181:289,1,76.4999976654053,12|0,0:0|0:0,0:0:0:0:
144,240,283868,1,0,0:0:0:0:
182,357,284040,1,0,0:0:0:0:
182,357,284126,1,0,0:0:0:0:
182,357,284212,5,2,0:0:0:0:
247,173,284385,1,2,0:0:0:0:
182,369,284557,1,2,0:0:0:0:
126,226,284730,1,2,0:0:0:0:
304,276,284902,1,12,0:0:0:0:
316,272,285247,2,0,B|328:237|328:237|328:188,1,76.4999976654053,2|0,0:0|0:0,0:0:0:0:
184,100,285592,6,0,B|184:139|184:139|196:174,1,76.4999976654053,2|0,0:0|0:0,0:0:0:0:
296,80,285937,1,0,0:0:0:0:
296,80,286109,1,0,0:0:0:0:
120,32,286281,5,12,0:0:0:0:
68,176,286626,1,8,0:0:0:0:
176,284,286971,6,0,L|268:280,1,76.4999976654053,2|0,0:0|0:0,0:0:0:0:
391,201,287316,6,0,L|306:196,1,68,0|2,0:0|0:0,0:0:0:0:
177,138,287661,6,0,L|260:133,1,59.4999981842042,12|2,0:0|0:0,0:0:0:0:
378,72,288006,6,0,L|304:68,1,50.9999984436036,4|2,0:0|0:0,0:0:0:0:
124,73,288350,6,0,P|96:146|145:218,1,152.999995330811,6|0,0:0|0:0,0:0:0:0:
204,216,288868,1,0,0:0:0:0:
256,164,289040,2,0,L|252:88,1,76.4999976654053,12|0,0:0|0:0,0:0:0:0:
204,28,289385,1,0,0:0:0:0:
195,228,289557,1,0,0:0:0:0:
195,228,289643,1,0,0:0:0:0:
195,228,289730,5,2,0:0:0:0:
328,148,289902,1,2,0:0:0:0:
132,128,290075,1,2,0:0:0:0:
340,148,290247,1,2,0:0:0:0:
188,240,290419,1,12,0:0:0:0:
212,88,290764,1,2,0:0:0:0:
271,285,291109,6,0,L|359:288,1,76.4999976654053,2|0,0:0|0:0,0:0:0:0:
191,336,291454,2,0,L|103:339,1,76.4999976654053
52,296,291799,1,12,0:0:0:0:
140,160,292143,1,0,0:0:0:0:
140,160,292316,1,0,0:0:0:0:
175,231,292488,5,2,0:0:0:0:
60,168,292661,1,2,0:0:0:0:
234,118,292833,1,2,0:0:0:0:
176,244,293006,1,2,0:0:0:0:
140,64,293178,1,12,0:0:0:0:
148,52,293523,2,0,B|179:41|179:41|244:40,1,76.4999976654053,2|0,0:0|0:0,0:0:0:0:
279,91,293868,6,0,L|275:182,1,76.4999976654053,2|0,0:0|0:0,0:0:0:0:
209,205,294212,1,0,0:0:0:0:
358,235,294557,1,12,0:0:0:0:
149,259,294902,6,0,B|133:228|123:199|137:160|168:141|168:141|145:80|174:52|217:22,1,255.000009727478,2|0,0:0|0:0,0:0:0:0:
320,76,295937,5,12,0:0:0:0:
396,60,296109,1,0,0:0:0:0:
332,197,296281,1,2,0:0:0:0:
212,184,296454,1,2,0:0:0:0:
395,156,296626,6,0,P|407:195|390:244,1,76.4999976654053,2|0,0:0|0:0,0:0:0:0:
343,280,296971,1,0,0:0:0:0:
468,324,297143,1,2,0:0:0:0:
332,197,297316,1,12,0:0:0:0:
140,311,297661,6,0,B|149:237|149:237|128:128|128:128|138:49,1,255.000009727478,2|0,0:0|0:0,0:0:0:0:
261,35,298695,6,0,L|340:39,1,63.7500024318696,12|0,0:0|0:0,0:0:0:0:
432,153,299040,1,6,0:0:0:0:
352,56,299212,1,2,0:0:0:0:
432,153,299385,6,0,P|350:144|329:220,1,152.999995330811,4|0,0:0|0:0,0:0:0:0:
366,262,299902,1,0,0:0:0:0:
304,308,300075,2,0,L|215:303,1,76.4999976654053,12|0,0:0|0:0,0:0:0:0:
179,244,300419,1,0,0:0:0:0:
93,338,300592,1,0,0:0:0:0:
93,338,300678,1,0,0:0:0:0:
93,338,300764,5,2,0:0:0:0:
140,149,300937,1,2,0:0:0:0:
249,277,301109,1,2,0:0:0:0:
102,140,301281,1,2,0:0:0:0:
286,80,301454,2,0,L|383:95,1,76.4999976654053,12|0,0:0|0:0,0:0:0:0:
447,259,301799,2,0,L|350:274,1,76.4999976654053,2|0,0:0|0:0,0:0:0:0:
207,182,302143,5,2,0:0:0:0:
194,257,302316,1,0,0:0:0:0:
117,83,302488,1,0,0:0:0:0:
267,229,302661,1,0,0:0:0:0:
108,218,302833,2,0,P|83:168|135:73,1,152.999995330811,12|0,0:0|0:0,0:0:0:0:
198,72,303350,1,0,0:0:0:0:
344,173,303523,5,2,0:0:0:0:
203,223,303695,1,2,0:0:0:0:
319,319,303868,1,2,0:0:0:0:
255,146,304040,1,2,0:0:0:0:
139,285,304212,2,0,P|121:247|124:189,1,76.4999976654053,12|0,0:0|0:0,0:0:0:0:
336,131,304557,2,0,P|332:168|315:202,1,76.4999976654053,2|0,0:0|0:0,0:0:0:0:
281,82,304902,6,0,L|438:111,1,152.999995330811,2|0,0:0|0:0,0:0:0:0:
488,323,305419,1,0,0:0:0:0:
445,259,305592,2,0,B|432:226|432:226|437:186,1,76.4999976654053,12|0,0:0|0:0,0:0:0:0:
353,354,305937,2,0,L|268:349,1,76.4999976654053
94,250,306281,6,0,L|271:258,1,152.999995330811,2|0,0:0|0:0,0:0:0:0:
302,203,306799,1,2,0:0:0:0:
187,148,306971,1,12,0:0:0:0:
353,91,307143,1,0,0:0:0:0:
332,239,307316,1,2,0:0:0:0:
253,61,307488,1,0,0:0:0:0:
438,109,307661,6,0,B|425:189|425:189|499:176,1,152.999995330811,2|0,0:0|0:0,0:0:0:0:
347,216,308350,2,0,B|360:136|360:136|286:149,1,152.999995330811,12|0,0:0|0:0,0:0:0:0:
271,223,308868,1,0,0:0:0:0:
271,223,308954,1,0,0:0:0:0:
271,223,309040,5,2,0:0:0:0:
400,304,309385,1,0,0:0:0:0:
116,320,309730,1,12,0:0:0:0:
225,101,310075,1,0,0:0:0:0:
257,324,310419,5,6,0:0:0:0:
256,192,310506,12,0,320764,0:0:0:0:
