osu file format v14

[General]
AudioFilename: 04 The Abandoned.mp3
AudioLeadIn: 0
PreviewTime: 55391
Countdown: 1
SampleSet: Normal
StackLeniency: 0.7
Mode: 0
LetterboxInBreaks: 1
WidescreenStoryboard: 1

[Editor]
Bookmarks: 8484,16620,24755,32891,41026,46492,49162,57298,65433,73569,81704,89840,97976,102043,106111,114247,122382,154925,173230,205772
DistanceSpacing: 1.5
BeatDivisor: 4
GridSize: 4
TimelineZoom: 2.2

[Metadata]
Title:The Abandoned
TitleUnicode:The Abandoned
Artist:Memphis May Fire
ArtistUnicode:Memphis May Fire
Creator:SebDaMuffin
Version:Normal
Source:
Tags:
BeatmapID:763021
BeatmapSetID:313260

[Difficulty]
HPDrainRate:4
CircleSize:3
OverallDifficulty:4
ApproachRate:5
SliderMultiplier:1.49999990463257
SliderTickRate:2

[Events]
//Background and Video events
0,0,"The+Hollow.jpg",0,0
//Break Periods
2,90039,104911
//Storyboard Layer 0 (Background)
//Storyboard Layer 1 (Fail)
//Storyboard Layer 2 (Pass)
//Storyboard Layer 3 (Foreground)
//Storyboard Sound Samples

[TimingPoints]
8484.49329518194,508.474576271186,4,1,0,50,1,0
57298,-100,4,1,0,50,0,1
89840,-100,4,1,0,50,0,0
122382,-100,4,1,0,50,0,1
154925,-100,4,1,0,50,0,0
173230,-100,4,1,0,50,0,1
205772,-100,4,1,0,50,0,0

[HitObjects]
128,168,8484,6,0,L|32:32,2,149.999990463257,0|0|8,0:0|0:0|0:0,0:0:0:0:
232,252,10009,1,0,0:0:0:0:
332,176,10518,2,0,L|448:68,2,149.999990463257,0|0|8,0:0|0:0|0:0,0:0:0:0:
212,80,12043,1,0,0:0:0:0:
80,176,12552,6,0,L|216:296,1,149.999990463257
336,284,13569,2,0,L|440:156,1,149.999990463257,8|0,0:0|0:0,0:0:0:0:
308,112,14586,2,0,L|140:144,1,149.999990463257
64,224,15603,2,0,B|48:152|48:152|84:84|84:84|148:44|148:44|224:44,1,299.999980926514,8|0,0:0|0:0,0:0:0:0:
384,184,17128,6,0,L|224:124,1,149.999990463257,0|8,0:0|0:0,0:0:0:0:
76,220,18145,1,0,0:0:0:0:
260,240,18653,2,0,L|396:144,2,149.999990463257,0|0|8,0:0|0:0|0:0,0:0:0:0:
144,92,20179,1,0,0:0:0:0:
152,284,20687,6,0,L|324:276,1,149.999990463257
416,136,21704,2,0,L|248:188,1,149.999990463257,8|0,0:0|0:0,0:0:0:0:
144,52,22721,2,0,L|308:100,1,149.999990463257
144,208,23738,2,0,L|68:348,2,149.999990463257,8|0|0,0:0|0:0|0:0,0:0:0:0:
308,80,25263,5,0,0:0:0:0:
428,240,25772,2,0,L|312:344,1,149.999990463257,8|0,0:0|0:0,0:0:0:0:
120,272,26789,1,0,0:0:0:0:
280,68,27297,1,0,0:0:0:0:
416,276,27806,2,0,L|272:216,1,149.999990463257,8|0,0:0|0:0,0:0:0:0:
96,116,28822,5,0,0:0:0:0:
232,328,29331,1,0,0:0:0:0:
212,84,29839,2,0,L|396:88,1,149.999990463257,8|0,0:0|0:0,0:0:0:0:
148,224,30857,1,0,0:0:0:0:
276,40,31365,1,0,0:0:0:0:
256,264,31874,2,0,B|272:192|272:192|236:124|236:124|172:84|172:84|96:84,1,299.999980926514,8|0,0:0|0:0,0:0:0:0:
320,88,33399,5,0,0:0:0:0:
336,308,33907,2,0,L|176:308,1,149.999990463257,8|0,0:0|0:0,0:0:0:0:
104,132,34924,1,0,0:0:0:0:
328,188,35433,1,0,0:0:0:0:
140,280,35941,2,0,L|220:128,1,149.999990463257,8|0,0:0|0:0,0:0:0:0:
384,304,36958,5,0,0:0:0:0:
144,148,37467,1,0,0:0:0:0:
416,184,37976,2,0,L|296:84,1,149.999990463257,8|0,0:0|0:0,0:0:0:0:
400,288,38992,2,0,L|280:188,1,149.999990463257
88,132,40009,2,0,L|208:32,1,149.999990463257,8|0,0:0|0:0,0:0:0:0:
452,64,41026,5,0,0:0:0:0:
276,208,41535,1,0,0:0:0:0:
104,44,42043,2,0,P|180:88|228:168,1,149.999990463257,8|0,0:0|0:0,0:0:0:0:
240,304,43060,2,0,P|164:260|116:180,1,149.999990463257
296,200,44077,2,0,P|372:244|420:324,1,149.999990463257,8|0,0:0|0:0,0:0:0:0:
160,296,45094,6,0,P|212:164|364:84,1,299.999980926514,0|8,0:0|0:0,0:0:0:0:
328,232,46620,1,0,0:0:0:0:
444,140,47128,2,0,P|392:272|240:352,1,299.999980926514,0|8,0:0|0:0,0:0:0:0:
216,140,48653,1,0,0:0:0:0:
408,44,49162,6,0,P|332:88|284:168,1,149.999990463257
272,284,50179,2,0,P|348:240|396:160,1,149.999990463257,8|0,0:0|0:0,0:0:0:0:
236,188,51196,2,0,P|160:232|112:312,1,149.999990463257
104,64,52213,6,0,P|236:116|316:267,1,299.999980926514,8|8,0:0|0:0,0:0:0:0:
140,140,54247,6,0,P|192:272|344:352,1,299.999980926514,8|0,0:0|0:0,0:0:0:0:
256,192,55518,12,0,56789,0:0:0:0:
192,252,57298,6,0,B|252:208|252:208|304:136,1,149.999990463257
200,76,58315,2,0,B|140:120|140:120|88:212,1,149.999990463257,8|0,0:0|0:0,0:0:0:0:
112,320,59331,2,0,L|280:320|280:320,1,149.999990463257
312,152,60348,1,8,0:0:0:0:
484,172,60857,1,0,0:0:0:0:
388,320,61365,6,0,B|320:288|320:288|252:232,1,149.999990463257
428,184,62382,2,0,B|372:136|372:136|288:88,1,149.999990463257,8|0,0:0|0:0,0:0:0:0:
136,64,63399,1,0,0:0:0:0:
136,228,63908,2,0,L|264:320,2,149.999990463257,0|8|0,0:0|0:0|0:0,0:0:0:0:
328,228,65433,6,0,P|388:152|396:88,1,149.999990463257
196,44,66450,2,0,P|116:120|88:180,1,149.999990463257,8|0,0:0|0:0,0:0:0:0:
176,332,67467,5,0,0:0:0:0:
180,148,67976,1,0,0:0:0:0:
336,232,68484,1,8,0:0:0:0:
248,68,68992,1,0,0:0:0:0:
408,164,69501,6,0,P|380:88|316:12,1,149.999990463257
160,140,70518,2,8,P|168:204|220:304,1,149.999990463257,0|0,0:0|0:0,0:0:0:0:
404,240,71535,1,0,0:0:0:0:
276,88,72043,2,0,L|108:60,2,149.999990463257,0|8|0,0:0|0:0|0:0,0:0:0:0:
223,247,73569,5,8,0:0:0:0:
319,192,74077,1,0,0:0:0:0:
224,137,74586,1,8,0:0:0:0:
321,305,75094,5,0,0:0:0:0:
321,78,75603,1,0,0:0:0:0:
124,192,76111,1,0,0:0:0:0:
412,192,76620,5,8,0:0:0:0:
177,56,77128,1,0,0:0:0:0:
177,327,77637,1,0,0:0:0:0:
256,192,78145,6,0,P|272:120|348:64,2,149.999990463257,0|8|0,0:0|0:0|0:0,0:0:0:0:
136,324,79670,1,0,0:0:0:0:
100,148,80179,2,0,P|84:76|8:20,2,149.999990463257,0|8|0,0:0|0:0|0:0,0:0:0:0:
136,312,81704,6,0,B|176:248|176:248|244:272|244:272|288:208|288:208|372:208,1,299.999980926514,8|8,0:0|0:0,0:0:0:0:
220,32,83230,1,0,0:0:0:0:
68,188,83738,2,0,B|144:184|144:184|184:248|184:248|260:248|260:248|312:320,1,299.999980926514,0|8,0:0|0:0,0:0:0:0:
372,136,85264,1,0,0:0:0:0:
196,188,85772,6,0,P|124:168|64:100,2,149.999990463257,0|0|8,0:0|0:0|0:0,0:0:0:0:
376,256,87298,1,0,0:0:0:0:
188,316,87806,2,8,P|116:296|56:228,2,149.999990463257,0|0|0,0:0|0:0|0:0,0:0:0:0:
344,208,89331,2,0,L|440:88,1,149.999990463257
256,188,106111,6,0,P|312:136|408:104,1,149.999990463257
432,280,107128,1,8,0:0:0:0:
244,308,107637,1,0,0:0:0:0:
84,208,108145,2,0,P|92:136|132:56,1,149.999990463257
272,192,109162,1,8,0:0:0:0:
400,64,109670,1,0,0:0:0:0:
424,248,110179,6,0,P|292:320|132:316,1,299.999980926514,0|8,0:0|0:0,0:0:0:0:
76,192,111704,1,0,0:0:0:0:
160,64,112213,1,0,0:0:0:0:
296,100,112721,1,0,0:0:0:0:
228,220,113230,2,8,L|292:220,1,37.4999976158143
404,164,113738,2,8,L|408:96,1,37.4999976158143,0|8,0:0|0:0,0:0:0:0:
400,296,114247,6,0,P|316:180|148:120,1,299.999980926514,0|8,0:0|0:0,0:0:0:0:
144,268,115772,1,0,0:0:0:0:
292,320,116281,2,0,L|292:168,1,149.999990463257
100,176,117298,2,0,L|256:80,1,149.999990463257,8|0,0:0|0:0,0:0:0:0:
392,52,118315,6,0,B|408:216|184:112|228:280,1,299.999980926514,0|8,0:0|0:0,0:0:0:0:
384,320,119840,1,0,0:0:0:0:
180,264,120348,2,0,L|116:256,1,37.4999976158143,0|8,0:0|0:0,0:0:0:0:
172,96,120857,2,0,L|224:128,1,37.4999976158143,0|8,0:0|0:0,0:0:0:0:
380,164,121365,2,8,L|336:208,1,37.4999976158143
232,184,121874,2,0,L|128:180,2,74.9999952316285,8|0|0,0:0|0:0|0:0,0:0:0:0:
104,92,122891,5,0,0:0:0:0:
104,248,123399,2,0,P|160:300|256:320,1,149.999990463257,8|0,0:0|0:0,0:0:0:0:
380,296,124416,2,0,P|416:184|296:64,1,299.999980926514,0|8,0:0|0:0,0:0:0:0:
228,264,125942,1,0,0:0:0:0:
432,212,126450,6,0,L|296:304,1,149.999990463257
128,312,127467,2,0,L|272:204,1,149.999990463257,8|0,0:0|0:0,0:0:0:0:
248,40,128484,2,0,P|104:120|76:248,1,299.999980926514,0|8,0:0|0:0,0:0:0:0:
240,196,130009,1,0,0:0:0:0:
368,340,130518,6,0,P|428:296|468:220,1,149.999990463257
280,252,131535,2,0,P|321:190|332:105,1,149.999990463257,8|0,0:0|0:0,0:0:0:0:
168,200,132552,2,0,P|185:127|167:43,1,149.999990463257
64,224,133569,1,8,0:0:0:0:
224,304,134077,6,0,L|384:328,2,149.999990463257,0|8|0,0:0|0:0|0:0,0:0:0:0:
188,112,135603,1,8,0:0:0:0:
376,64,136111,2,0,L|256:184,2,149.999990463257
432,224,137637,2,0,P|384:280|296:320,1,149.999990463257,8|0,0:0|0:0,0:0:0:0:
220,216,138653,5,8,0:0:0:0:
288,156,139162,1,0,0:0:0:0:
308,244,139670,1,8,0:0:0:0:
204,128,140179,5,0,0:0:0:0:
376,184,140687,1,0,0:0:0:0:
240,304,141196,1,0,0:0:0:0:
272,68,141704,5,8,0:0:0:0:
392,272,142213,1,0,0:0:0:0:
152,276,142721,1,0,0:0:0:0:
356,96,143230,5,0,0:0:0:0:
324,332,143738,1,8,0:0:0:0:
132,188,144247,1,0,0:0:0:0:
340,8,144755,5,0,0:0:0:0:
408,360,145264,1,0,0:0:0:0:
64,248,145772,2,8,P|144:88|248:24,1,299.999980926514
248,236,147298,5,0,0:0:0:0:
448,136,147806,2,0,P|432:216|376:280,1,149.999990463257,8|0,0:0|0:0,0:0:0:0:
200,340,148823,1,0,0:0:0:0:
88,184,149331,2,0,P|40:124|32:36,2,149.999990463257,0|8|0,0:0|0:0|0:0,0:0:0:0:
276,236,150857,5,0,0:0:0:0:
420,116,151365,2,0,P|360:64|260:44,1,149.999990463257,0|8,0:0|0:0,0:0:0:0:
288,268,152382,1,0,0:0:0:0:
188,100,152891,1,0,0:0:0:0:
92,268,153399,2,0,P|152:320|252:340,1,149.999990463257,0|8,0:0|0:0,0:0:0:0:
312,168,154416,2,0,P|391:162|476:105,1,149.999990463257
336,304,155433,5,0,0:0:0:0:
136,304,155942,1,8,0:0:0:0:
248,144,156450,1,0,0:0:0:0:
240,344,156959,1,0,0:0:0:0:
140,172,157467,2,0,L|40:48,2,149.999990463257,0|8|0,0:0|0:0|0:0,0:0:0:0:
340,172,158992,5,0,0:0:0:0:
176,48,159501,1,0,0:0:0:0:
136,240,160009,1,8,0:0:0:0:
268,96,160518,1,0,0:0:0:0:
68,124,161026,1,0,0:0:0:0:
240,212,161535,2,0,L|296:352,2,149.999990463257,0|8|8,0:0|0:0|0:0,0:0:0:0:
384,364,163060,5,0,0:0:0:0:
408,172,163569,1,0,0:0:0:0:
208,264,164077,1,8,0:0:0:0:
332,116,164586,1,0,0:0:0:0:
136,204,165094,1,0,0:0:0:0:
328,232,165603,6,0,L|456:340,2,149.999990463257,0|8|0,0:0|0:0|0:0,0:0:0:0:
264,60,167128,1,0,0:0:0:0:
72,144,167637,1,0,0:0:0:0:
264,196,168145,2,8,P|192:172|100:212,4,149.999990463257,8|8|8|8|0,0:0|0:0|0:0|0:0|0:0,0:0:0:0:
256,192,170433,12,0,172721,0:0:0:0:
152,96,173230,6,0,P|120:176|120:268,1,149.999990463257
292,308,174247,2,0,P|360:264|412:200,1,149.999990463257,8|0,0:0|0:0,0:0:0:0:
312,52,175264,2,0,P|256:104|220:184,1,149.999990463257
424,212,176281,1,8,0:0:0:0:
264,328,176789,1,0,0:0:0:0:
80,256,177298,6,0,P|168:136|332:116,1,299.999980926514,0|8,0:0|0:0,0:0:0:0:
240,256,178823,1,0,0:0:0:0:
400,144,179331,2,0,P|400:216|340:308,1,149.999990463257
248,124,180348,1,8,0:0:0:0:
104,256,180857,1,0,0:0:0:0:
296,304,181365,6,0,P|352:248|384:176,1,149.999990463257
184,184,182382,2,0,P|240:128|308:104,1,149.999990463257,8|0,0:0|0:0,0:0:0:0:
208,276,183399,1,0,0:0:0:0:
356,136,183908,1,0,0:0:0:0:
164,104,184416,2,0,P|92:120|44:196,1,149.999990463257,8|0,0:0|0:0,0:0:0:0:
236,216,185433,6,0,P|304:184|360:112,1,149.999990463257
424,312,186450,1,8,0:0:0:0:
288,160,186959,1,0,0:0:0:0:
304,352,187467,2,0,P|256:293|238:204,1,149.999990463257
91,356,188484,2,0,L|244:297,1,149.999990463257,8|0,0:0|0:0,0:0:0:0:
200,192,189501,5,8,0:0:0:0:
272,144,190009,1,0,0:0:0:0:
280,232,190518,1,8,0:0:0:0:
116,216,191026,5,0,0:0:0:0:
316,68,191535,1,0,0:0:0:0:
336,300,192043,1,0,0:0:0:0:
192,104,192552,5,8,0:0:0:0:
352,184,193060,1,0,0:0:0:0:
204,280,193569,1,0,0:0:0:0:
236,28,194077,5,0,0:0:0:0:
408,252,194586,1,8,0:0:0:0:
116,304,195094,1,0,0:0:0:0:
400,104,195603,5,0,0:0:0:0:
260,348,196111,1,0,0:0:0:0:
108,128,196620,2,0,P|176:96|256:88,1,149.999990463257,8|0,0:0|0:0,0:0:0:0:
312,292,197637,6,0,P|168:276|16:192,1,299.999980926514,8|8,0:0|0:0,0:0:0:0:
228,196,199162,1,0,0:0:0:0:
424,224,199670,2,0,P|297:153|190:16,1,299.999980926514,0|8,0:0|0:0,0:0:0:0:
392,72,201196,1,0,0:0:0:0:
196,104,201704,6,0,L|72:208,1,149.999990463257
168,304,202721,2,0,L|328:248,1,149.999990463257,8|0,0:0|0:0,0:0:0:0:
204,88,203738,1,0,0:0:0:0:
240,288,204247,2,0,L|320:160,2,149.999990463257,0|8|0,0:0|0:0|0:0,0:0:0:0:
92,160,205772,1,0,0:0:0:0:
256,192,206026,12,0,212891,0:0:0:0:
