osu file format v14

[General]
AudioFilename: 04 The Abandoned.mp3
AudioLeadIn: 0
PreviewTime: 55391
Countdown: 1
SampleSet: Normal
StackLeniency: 0.7
Mode: 0
LetterboxInBreaks: 1
WidescreenStoryboard: 1

[Editor]
Bookmarks: 8484,16620,24755,32891,41026,46492,49162,57298,65433,73569,81704,89840,97976,102043,106111,114247,122382,154925,173230,205772
DistanceSpacing: 1.5
BeatDivisor: 4
GridSize: 4
TimelineZoom: 2.2

[Metadata]
Title:The Abandoned
TitleUnicode:The Abandoned
Artist:Memphis May Fire
ArtistUnicode:Memphis May Fire
Creator:SebDaMuffin
Version:Hard
Source:
Tags:
BeatmapID:763804
BeatmapSetID:313260

[Difficulty]
HPDrainRate:6
CircleSize:4
OverallDifficulty:6
ApproachRate:8
SliderMultiplier:1.99999990463257
SliderTickRate:4

[Events]
//Background and Video events
0,0,"The+Hollow.jpg",0,0
//Break Periods
//Storyboard Layer 0 (Background)
//Storyboard Layer 1 (Fail)
//Storyboard Layer 2 (Pass)
//Storyboard Layer 3 (Foreground)
//Storyboard Sound Samples

[TimingPoints]
8484.49329518194,508.474576271186,4,1,0,50,1,0
57298,-100,4,1,0,50,0,1
89840,-100,4,1,0,50,0,0
122382,-100,4,1,0,50,0,1
154925,-100,4,1,0,50,0,0
173230,-100,4,1,0,50,0,1
205772,-100,4,1,0,50,0,0

[HitObjects]
112,280,8484,6,0,L|152:176,1,99.9999952316285
272,276,8992,2,0,L|272:156,1,99.9999952316285
424,160,9501,2,0,L|316:72,1,99.9999952316285
188,96,10009,1,0,0:0:0:0:
188,96,10137,1,0,0:0:0:0:
280,216,10391,5,0,0:0:0:0:
280,216,10518,2,0,L|172:212,1,99.9999952316285
120,328,11026,2,0,L|72:208,1,99.9999952316285
132,116,11535,2,0,L|256:140,1,99.9999952316285
328,204,12043,2,0,L|368:204,2,33.3333317438762
296,76,12425,5,0,0:0:0:0:
296,76,12552,2,0,L|224:148,1,99.9999952316285
268,268,13060,2,0,L|380:324,1,99.9999952316285
408,188,13569,2,0,L|388:72,1,99.9999952316285
264,60,14077,1,0,0:0:0:0:
264,60,14204,2,0,L|156:136,1,99.9999952316285
144,164,14586,6,0,L|132:272,1,99.9999952316285
256,308,15094,2,0,L|352:244,1,99.9999952316285
272,120,15603,1,0,0:0:0:0:
424,220,15857,1,0,0:0:0:0:
188,248,16111,1,0,0:0:0:0:
404,92,16365,1,0,0:0:0:0:
172,108,16620,6,0,L|56:64,1,99.9999952316285
44,200,17128,2,0,L|84:316,1,99.9999952316285
164,196,17637,2,0,L|288:236,1,99.9999952316285
376,312,18145,1,0,0:0:0:0:
376,312,18272,1,0,0:0:0:0:
400,176,18526,5,0,0:0:0:0:
400,176,18653,2,0,L|284:132,1,99.9999952316285
272,272,19162,2,0,L|180:212,1,99.9999952316285
108,320,19670,2,0,L|80:200,1,99.9999952316285
148,104,20179,2,0,L|100:104,2,33.3333317438762
272,100,20560,2,0,L|320:100,2,33.3333317438762
416,312,21196,6,0,L|312:264,1,99.9999952316285
220,292,21704,2,0,L|156:212,1,99.9999952316285
284,140,22213,1,0,0:0:0:0:
284,140,22340,1,0,0:0:0:0:
128,84,22594,1,0,0:0:0:0:
128,84,22721,1,0,0:0:0:0:
224,196,22976,5,0,0:0:0:0:
180,332,23230,2,0,L|136:280,2,49.9999976158143
100,212,23738,1,0,0:0:0:0:
244,196,23992,1,0,0:0:0:0:
312,320,24247,1,0,0:0:0:0:
360,152,24501,1,0,0:0:0:0:
220,68,24755,6,0,P|172:156|176:280,1,199.999990463257
320,220,25518,1,0,0:0:0:0:
432,120,25772,2,0,P|337:88|215:113,1,199.999990463257
136,152,26535,5,0,0:0:0:0:
120,284,26789,1,0,0:0:0:0:
232,224,27043,1,0,0:0:0:0:
84,212,27298,1,0,0:0:0:0:
200,296,27552,1,0,0:0:0:0:
216,144,27806,2,0,L|336:96,1,99.9999952316285
428,192,28315,2,0,L|456:288,1,99.9999952316285
336,328,28823,6,0,P|232:336|148:312,1,149.999992847443
76,216,29586,1,0,0:0:0:0:
120,96,29840,2,0,L|276:116,1,149.999992847443
356,296,30603,1,0,0:0:0:0:
392,168,30857,2,0,P|440:220|456:312,1,149.999992847443
236,324,31620,5,0,0:0:0:0:
128,284,31874,1,0,0:0:0:0:
248,192,32128,1,0,0:0:0:0:
128,192,32382,1,0,0:0:0:0:
224,44,32637,1,0,0:0:0:0:
104,104,32891,6,0,P|64:144|48:196,1,99.9999952316285
48,292,33399,1,0,0:0:0:0:
160,344,33653,1,0,0:0:0:0:
148,168,33908,2,0,P|188:132|252:112,1,99.9999952316285
216,228,34416,2,0,P|268:217|333:233,1,99.9999952316285
252,300,34925,2,0,P|304:310|359:349,1,99.9999952316285
448,248,35433,5,0,0:0:0:0:
316,160,35687,1,0,0:0:0:0:
464,88,35942,1,0,0:0:0:0:
308,40,36196,2,0,P|252:40|192:68,1,99.9999952316285
104,160,36704,2,0,P|88:213|98:279,1,99.9999952316285
232,184,37467,5,0,0:0:0:0:
328,288,37721,1,0,0:0:0:0:
360,168,37975,1,0,0:0:0:0:
244,268,38230,1,0,0:0:0:0:
396,240,38484,1,0,0:0:0:0:
288,124,38738,1,0,0:0:0:0:
272,348,38992,1,0,0:0:0:0:
440,168,39374,6,0,P|408:104|304:72,1,149.999992847443
176,52,40009,2,0,L|104:48,3,49.9999976158143
188,144,40645,2,0,L|184:208,1,49.9999976158143
280,252,40899,2,0,L|284:196,1,49.9999976158143
80,308,41281,6,0,L|132:256,1,49.9999976158143
244,176,41662,1,0,0:0:0:0:
244,176,41789,2,0,L|360:244,1,99.9999952316285
148,104,42425,1,0,0:0:0:0:
244,280,42806,1,0,0:0:0:0:
344,108,43060,1,0,0:0:0:0:
428,288,43315,6,0,L|372:232,1,49.9999976158143
220,168,43696,1,0,0:0:0:0:
220,168,43823,2,0,L|120:240,1,99.9999952316285
464,200,44459,1,0,0:0:0:0:
296,68,44713,2,0,L|363:131,1,49.9999976158143
300,232,45094,1,0,0:0:0:0:
104,136,45348,6,0,L|92:204,1,49.9999976158143
176,328,45730,2,0,L|248:328,3,49.9999976158143
204,116,46620,1,0,0:0:0:0:
432,212,47128,2,0,L|312:316,1,149.999992847443
356,64,47891,1,0,0:0:0:0:
164,264,48399,2,0,P|88:152|140:72,1,199.999990463257
64,292,49416,5,0,0:0:0:0:
140,68,49798,1,0,0:0:0:0:
312,92,50179,2,0,L|420:216,1,149.999992847443
160,176,50942,1,0,0:0:0:0:
336,224,51196,1,0,0:0:0:0:
116,348,51577,1,0,0:0:0:0:
392,348,51959,1,0,0:0:0:0:
232,272,52467,6,0,L|256:168,1,99.9999952316285
152,112,52976,2,0,L|92:212,1,99.9999952316285
344,280,53611,1,0,0:0:0:0:
372,88,53992,2,0,L|428:184,1,99.9999952316285
256,192,54755,12,0,56789,0:0:0:0:
180,72,57298,6,0,L|264:72,3,49.9999976158143
296,184,58060,2,0,L|336:248,1,49.9999976158143
348,272,58315,1,0,0:0:0:0:
136,272,58569,2,0,L|220:272,3,49.9999976158143
92,60,59331,6,0,L|32:36,2,49.9999976158143
204,128,59713,1,0,0:0:0:0:
308,276,60094,2,0,L|368:228,2,49.9999976158143
92,276,60603,2,0,L|88:220,1,49.9999976158143
56,200,60857,2,0,L|4:168,1,49.9999976158143
244,164,61238,1,0,0:0:0:0:
248,168,61365,6,0,L|308:216,3,49.9999976158143
488,312,62128,2,0,L|472:224,1,49.9999976158143
464,192,62382,1,0,0:0:0:0:
292,60,62637,2,0,L|240:124,1,49.9999976158143
280,156,62891,2,0,L|292:208,1,49.9999976158143
456,44,63399,2,0,L|396:96,3,49.9999976158143
296,328,64162,6,0,L|212:328,1,49.9999976158143
160,248,64416,2,0,L|72:252,2,49.9999976158143
256,168,64798,2,0,L|348:168,2,49.9999976158143
148,144,65179,2,0,L|92:96,1,49.9999976158143
48,40,65433,6,0,P|140:48|212:96,1,149.999992847443
360,184,66196,1,0,0:0:0:0:
412,56,66450,2,0,P|464:168|448:268,1,199.999990463257
40,304,67467,6,0,P|72:252|76:140,1,149.999992847443
184,260,68230,1,0,0:0:0:0:
264,64,68484,2,0,P|304:152|324:264,1,199.999990463257
472,340,69374,1,0,0:0:0:0:
472,340,69501,6,0,L|400:340,3,49.9999976158143
308,320,70264,2,0,L|240:288,1,49.9999976158143
200,260,70518,1,0,0:0:0:0:
32,148,70772,2,0,L|32:208,1,49.9999976158143
96,168,71026,2,0,L|96:232,1,49.9999976158143
384,104,71535,6,0,L|384:164,1,49.9999976158143
324,64,71789,2,0,L|324:128,1,49.9999976158143
296,328,72298,6,0,L|336:268,1,49.9999976158143
350,190,72552,2,0,L|394:142,2,49.9999976158143
256,216,72934,2,0,L|212:264,2,49.9999976158143
280,124,73315,2,0,L|268:68,1,49.9999976158143
176,48,73569,6,0,P|140:108|128:192,1,149.999992847443
76,312,74331,1,0,0:0:0:0:
208,320,74586,2,0,L|416:328,1,199.999990463257
