osu file format v14

[General]
AudioFilename: audio.ogg
AudioLeadIn: 0
PreviewTime: 12762
Countdown: 0
SampleSet: Normal
StackLeniency: 0.7
Mode: 1
LetterboxInBreaks: 0
WidescreenStoryboard: 1

[Editor]
Bookmarks: 50020,53117,62407
DistanceSpacing: 1
BeatDivisor: 4
GridSize: 32
TimelineZoom: 2.200006

[Metadata]
Title:9mm
TitleUnicode:9mm
Artist:Memphis Cult, Groove Dealers, SPLYXER
ArtistUnicode:Memphis Cult, Groove Dealers, SPLYXER
Creator:Molybdenum
Version:WADADADANG
Source:
Tags:cryceptio english hiphop hip hop hip-hop rap wadadadang tiktok trend vol. volume 6 six trap music trapmusic
BeatmapID:4363895
BeatmapSetID:2083559

[Difficulty]
HPDrainRate:6
CircleSize:5
OverallDifficulty:6
ApproachRate:10
SliderMultiplier:1.4
SliderTickRate:1

[Events]
//Background and Video events
0,0,"peakpx.jpg",0,120
//Break Periods
//Storyboard Layer 0 (Background)
//Storyboard Layer 1 (Fail)
//Storyboard Layer 2 (Pass)
//Storyboard Layer 3 (Foreground)
//Storyboard Layer 4 (Overlay)
//Storyboard Sound Samples

[TimingPoints]
472,387.096774193548,4,1,0,70,1,0
472,-125,4,1,0,70,0,0
9713,-125,4,1,0,100,0,0
9763,-100,4,1,0,100,0,0
9854,-125,4,1,0,70,0,0
12079,-128.205128205128,4,1,0,70,0,0
12273,-131.578947368421,4,1,0,70,0,0
12466,-135.135135135135,4,1,0,70,0,0
12660,-138.888888888889,4,1,0,70,0,0
12805,-138.888888888889,4,1,0,75,0,0
12859,-100,4,1,0,75,0,1
16144,-80.6451612903226,4,1,0,75,0,1
16241,-83.3333333333333,4,1,0,75,0,1
16337,-86.2068965517241,4,1,0,75,0,1
16434,-89.2857142857143,4,1,0,75,0,1
16531,-92.5925925925926,4,1,0,75,0,1
16628,-96.1538461538461,4,1,0,75,0,1
16725,-100,4,1,0,75,0,1
17305,-80.6451612903226,4,1,0,75,0,1
17309,-80.72587,4,1,0,75,0,1
17406,-82.32413,4,1,0,75,0,1
17503,-83.98695,4,1,0,75,0,1
17600,-85.71834,4,1,0,75,0,1
17696,-87.50362,4,1,0,75,0,1
17793,-89.38465,4,1,0,75,0,1
17890,-91.348335,4,1,0,75,0,1
17987,-93.40023,4,1,0,75,0,1
18083,-95.5238,4,1,0,75,0,1
18180,-97.76988,4,1,0,75,0,1
18273,-100,4,1,0,75,0,1
22337,-80.6451612903226,4,1,0,75,0,1
22434,-83.3333333333333,4,1,0,75,0,1
22530,-86.2068965517241,4,1,0,75,0,1
22627,-89.2857142857143,4,1,0,75,0,1
22724,-92.5925925925926,4,1,0,75,0,1
22821,-96.1538461538461,4,1,0,75,0,1
22918,-100,4,1,0,75,0,1
23504,-80.64516,4,1,0,75,0,1
23601,-82.241875,4,1,0,75,0,1
23697,-83.88563,4,1,0,75,0,1
23794,-85.614624,4,1,0,75,0,1
23891,-87.41638,4,1,0,75,0,1
23988,-89.29561,4,1,0,75,0,1
24084,-91.23674,4,1,0,75,0,1
24181,-93.285736,4,1,0,75,0,1
24278,-80.64516,4,1,0,75,0,1
24471,-83.88216,4,1,0,75,0,1
24665,-87.408806,4,1,0,75,0,1
24762,-89.28571,4,1,0,75,0,1
24859,-91.24501,4,1,0,75,0,1
25052,-95.41082,4,1,0,75,0,1
25246,-100,4,1,0,75,0,0
25289,-100,4,1,0,70,0,0
25633,-125,4,1,0,70,0,0
26213,-125,4,1,0,70,0,0
26407,-125,4,1,0,70,0,0
26794,-125,4,1,0,70,0,0
27181,-125,4,1,0,70,0,0
27375,-125,4,1,0,70,0,0
27762,-125,4,1,0,70,0,0
27955,-125,4,1,0,70,0,0
28342,-125,4,1,0,70,0,0
28730,-125,4,1,0,70,0,0
29310,-125,4,1,0,70,0,0
29504,-125,4,1,0,70,0,0
29886,-102.040816326531,4,1,0,70,0,0
30079,-104.166666666667,4,1,0,70,0,0
30273,-106.382978723404,4,1,0,70,0,0
30466,-108.695652173913,4,1,0,70,0,0
30660,-111.111111111111,4,1,0,70,0,0
30854,-113.636363636364,4,1,0,70,0,0
31047,-116.279069767442,4,1,0,70,0,0
31241,-119.047619047619,4,1,0,70,0,0
31434,-100,4,1,0,70,0,0
36470,-100,4,1,0,70,0,0
36664,-103.31284,4,1,0,70,0,0
36858,-106.8527,4,1,0,70,0,0
37051,-110.62352,4,1,0,70,0,0
37245,-114.69195,4,1,0,70,0,0
37438,-119.04762,4,1,0,70,0,0
37628,-100,4,1,0,70,0,0
49052,-80.64515,4,1,0,70,0,0
49246,-84.961494,4,1,0,70,0,0
49439,-89.73985,4,1,0,70,0,0
49536,-92.35026,4,1,0,70,0,0
49633,-95.11707,4,1,0,70,0,0
49826,-101.146576,4,1,0,70,0,0
50020,-108.0301,4,1,0,70,0,0
50407,-125,4,1,0,70,0,0
53112,-100,4,1,0,70,0,0
61439,-80.64515,4,1,0,70,0,0
61633,-84.961494,4,1,0,70,0,0
61826,-89.73985,4,1,0,70,0,0
61923,-92.35026,4,1,0,70,0,0
62020,-95.11707,4,1,0,70,0,0
62213,-101.146576,4,1,0,70,0,0
62407,-108.0301,4,1,0,70,0,0
62794,-125,4,1,0,70,0,0
64681,-100,4,1,0,100,0,0
64778,-90.9090909090909,4,1,0,70,0,0
64918,-125,4,1,0,70,0,0
65450,-144.927536231884,4,1,0,75,0,0
65504,-100,4,1,0,75,0,1
65692,-80.6451612903226,4,1,0,75,0,1
65789,-83.3333333333333,4,1,0,75,0,1
65885,-86.2068965517241,4,1,0,75,0,1
65982,-89.2857142857143,4,1,0,75,0,1
66079,-92.5925925925926,4,1,0,75,0,1
66176,-96.1538461538461,4,1,0,75,0,1
66273,-100,4,1,0,75,0,1
66853,-80.6451612903226,4,1,0,75,0,1
66858,-80.74203,4,1,0,75,0,1
66954,-82.32413,4,1,0,75,0,1
67051,-83.98695,4,1,0,75,0,1
67148,-85.71834,4,1,0,75,0,1
67245,-87.5226,4,1,0,75,0,1
67341,-89.38465,4,1,0,75,0,1
67438,-91.348335,4,1,0,75,0,1
67535,-93.40023,4,1,0,75,0,1
67632,-95.54643,4,1,0,75,0,1
67729,-97.79359,4,1,0,75,0,1
67821,-100,4,1,0,75,0,1
71885,-80.6451612903226,4,1,0,75,0,1
71982,-83.3333333333333,4,1,0,75,0,1
72078,-86.2068965517241,4,1,0,75,0,1
72175,-89.2857142857143,4,1,0,75,0,1
72272,-92.5925925925926,4,1,0,75,0,1
72369,-96.1538461538461,4,1,0,75,0,1
72466,-100,4,1,0,75,0,1
73004,-80.64516,4,1,0,75,0,1
73101,-82.241875,4,1,0,75,0,1
73197,-83.88563,4,1,0,75,0,1
73294,-85.614624,4,1,0,75,0,1
73391,-87.41638,4,1,0,75,0,1
73488,-89.29561,4,1,0,75,0,1
73584,-91.23674,4,1,0,75,0,1
73681,-93.285736,4,1,0,75,0,1
73778,-80.64516,4,1,0,75,0,1
73971,-83.88216,4,1,0,75,0,1
74165,-87.408806,4,1,0,75,0,1
74262,-89.28571,4,1,0,75,0,1
74359,-91.24501,4,1,0,75,0,1
74552,-95.41082,4,1,0,75,0,1
74794,-100,4,1,0,70,0,0
74837,-100,4,1,0,5,0,0
76676,-100,4,1,0,50,0,0
76870,-100,4,1,0,5,0,0
77257,-100,4,1,0,50,0,0
77450,-100,4,1,0,5,0,0
77837,-100,4,1,0,75,0,0

[HitObjects]
151,162,472,5,4,0:0:0:0:
151,162,859,1,0,0:0:0:0:
151,162,1439,1,0,0:0:0:0:
151,162,1633,1,0,0:0:0:0:
151,162,2020,1,0,0:0:0:0:
151,162,2407,1,0,0:0:0:0:
151,162,2601,1,0,0:0:0:0:
151,162,2988,1,0,0:0:0:0:
151,162,3181,1,0,0:0:0:0:
151,162,3568,1,0,0:0:0:0:
151,162,3955,1,0,0:0:0:0:
151,162,4536,1,0,0:0:0:0:
151,162,4730,1,0,0:0:0:0:
151,162,5117,1,0,0:0:0:0:
151,162,5504,1,0,0:0:0:0:
151,162,5697,1,0,0:0:0:0:
151,162,5891,1,0,0:0:0:0:
151,162,6084,1,0,0:0:0:0:
151,162,6278,1,0,0:0:0:0:
151,162,6665,1,0,0:0:0:0:
151,162,7052,1,0,0:0:0:0:
151,162,7633,1,0,0:0:0:0:
151,162,7826,1,0,0:0:0:0:
151,162,8213,1,0,0:0:0:0:
151,162,8601,1,0,0:0:0:0:
151,162,8794,1,0,0:0:0:0:
151,162,9181,1,0,0:0:0:0:
151,162,9375,1,0,0:0:0:0:
151,162,9763,1,8,0:0:0:0:
151,162,10149,1,0,0:0:0:0:
151,162,10730,1,0,0:0:0:0:
151,162,10923,1,0,0:0:0:0:
151,162,11310,1,0,0:0:0:0:
151,162,11697,1,0,0:0:0:0:
151,162,11891,1,0,0:0:0:0:
151,162,12084,1,8,0:0:0:0:
151,162,12278,1,8,0:0:0:0:
151,162,12471,1,8,0:0:0:0:
151,162,12665,1,8,0:0:0:0:
151,162,12859,1,4,0:0:0:0:
151,162,13052,1,8,0:0:0:0:
151,162,13149,1,8,0:0:0:0:
151,162,13246,1,8,0:0:0:0:
151,162,13439,1,0,0:0:0:0:
151,162,13633,1,8,0:0:0:0:
151,162,13730,1,0,0:0:0:0:
151,162,13826,1,0,0:0:0:0:
151,162,14020,1,8,0:0:0:0:
151,162,14117,1,0,0:0:0:0:
151,162,14213,1,8,0:0:0:0:
151,162,14310,1,8,0:0:0:0:
151,162,14407,1,0,0:0:0:0:
151,162,14504,1,0,0:0:0:0:
151,162,14601,1,8,0:0:0:0:
151,162,14794,1,8,0:0:0:0:
151,162,14891,1,0,0:0:0:0:
151,162,14988,1,0,0:0:0:0:
151,162,15181,1,8,0:0:0:0:
151,162,15278,1,8,0:0:0:0:
151,162,15375,1,0,0:0:0:0:
151,162,15568,1,8,0:0:0:0:
151,162,15762,1,8,0:0:0:0:
151,162,15955,1,4,0:0:0:0:
151,162,16149,1,0,0:0:0:0:
151,162,16246,1,0,0:0:0:0:
151,162,16342,1,8,0:0:0:0:
151,162,16439,1,0,0:0:0:0:
151,162,16536,1,8,0:0:0:0:
151,162,16633,1,8,0:0:0:0:
151,162,16730,1,0,0:0:0:0:
151,162,16923,1,0,0:0:0:0:
151,162,17117,1,8,0:0:0:0:
151,162,17310,1,0,0:0:0:0:
151,162,17407,1,0,0:0:0:0:
151,162,17504,1,8,0:0:0:0:
151,162,17601,1,0,0:0:0:0:
151,162,17697,1,8,0:0:0:0:
151,162,17794,1,8,0:0:0:0:
151,162,17891,1,0,0:0:0:0:
151,162,17988,1,8,0:0:0:0:
151,162,18084,1,0,0:0:0:0:
151,162,18181,1,0,0:0:0:0:
151,162,18278,1,8,0:0:0:0:
151,162,18471,1,0,0:0:0:0:
151,162,18665,1,8,0:0:0:0:
151,162,18859,1,8,0:0:0:0:
151,162,19052,1,4,0:0:0:0:
151,162,19246,1,8,0:0:0:0:
151,162,19342,1,8,0:0:0:0:
151,162,19439,1,8,0:0:0:0:
151,162,19633,1,0,0:0:0:0:
151,162,19826,1,8,0:0:0:0:
151,162,19923,1,0,0:0:0:0:
151,162,20020,1,0,0:0:0:0:
151,162,20213,1,8,0:0:0:0:
151,162,20310,1,8,0:0:0:0:
151,162,20407,1,0,0:0:0:0:
151,162,20504,1,0,0:0:0:0:
151,162,20601,1,8,0:0:0:0:
151,162,20697,1,0,0:0:0:0:
151,162,20794,1,8,0:0:0:0:
151,162,20988,1,8,0:0:0:0:
151,162,21084,1,0,0:0:0:0:
151,162,21181,1,0,0:0:0:0:
151,162,21375,1,8,0:0:0:0:
151,162,21471,1,8,0:0:0:0:
151,162,21568,1,0,0:0:0:0:
151,162,21762,1,8,0:0:0:0:
151,162,21955,1,8,0:0:0:0:
151,162,22149,1,4,0:0:0:0:
151,162,22342,1,0,0:0:0:0:
151,162,22439,1,0,0:0:0:0:
151,162,22536,1,8,0:0:0:0:
151,162,22633,1,8,0:0:0:0:
151,162,22730,1,0,0:0:0:0:
151,162,22826,1,0,0:0:0:0:
151,162,22923,1,8,0:0:0:0:
151,162,23117,1,0,0:0:0:0:
151,162,23310,1,8,0:0:0:0:
151,162,23504,1,0,0:0:0:0:
151,162,23601,1,0,0:0:0:0:
151,162,23697,1,8,0:0:0:0:
151,162,23794,1,8,0:0:0:0:
151,162,23891,1,0,0:0:0:0:
151,162,23988,1,8,0:0:0:0:
151,162,24084,1,0,0:0:0:0:
151,162,24278,1,8,0:0:0:0:
151,162,24471,1,8,0:0:0:0:
151,162,24665,1,8,0:0:0:0:
151,162,24762,1,8,0:0:0:0:
151,162,24859,1,8,0:0:0:0:
151,162,25052,1,8,0:0:0:0:
151,162,25246,1,4,0:0:0:0:
151,162,25633,1,0,0:0:0:0:
151,162,26213,1,0,0:0:0:0:
151,162,26407,1,0,0:0:0:0:
151,162,26794,1,0,0:0:0:0:
151,162,27181,1,0,0:0:0:0:
151,162,27375,1,0,0:0:0:0:
151,162,27762,1,0,0:0:0:0:
151,162,27955,1,0,0:0:0:0:
151,162,28342,1,0,0:0:0:0:
151,162,28730,1,0,0:0:0:0:
151,162,29310,1,0,0:0:0:0:
151,162,29504,1,0,0:0:0:0:
151,162,29891,1,8,0:0:0:0:
151,162,30084,1,8,0:0:0:0:
151,162,30278,1,8,0:0:0:0:
151,162,30471,1,8,0:0:0:0:
151,162,30665,1,8,0:0:0:0:
151,162,30859,1,8,0:0:0:0:
151,162,31052,1,8,0:0:0:0:
151,162,31246,1,8,0:0:0:0:
151,162,31439,1,4,0:0:0:0:
151,162,31633,1,8,0:0:0:0:
151,162,31730,1,8,0:0:0:0:
151,162,31826,1,8,0:0:0:0:
151,162,32020,1,0,0:0:0:0:
151,162,32213,1,8,0:0:0:0:
151,162,32310,1,0,0:0:0:0:
151,162,32407,1,8,0:0:0:0:
151,162,32504,1,0,0:0:0:0:
151,162,32601,1,8,0:0:0:0:
151,162,32794,1,8,0:0:0:0:
151,162,32988,1,8,0:0:0:0:
151,162,33181,1,0,0:0:0:0:
151,162,33278,1,8,0:0:0:0:
151,162,33375,1,0,0:0:0:0:
151,162,33568,1,0,0:0:0:0:
151,162,33762,1,8,0:0:0:0:
151,162,33859,1,0,0:0:0:0:
151,162,33955,1,8,0:0:0:0:
151,162,34052,1,8,0:0:0:0:
151,162,34149,1,0,0:0:0:0:
151,162,34536,1,4,0:0:0:0:
151,162,34730,1,8,0:0:0:0:
151,162,34826,1,8,0:0:0:0:
151,162,34923,1,8,0:0:0:0:
151,162,35117,1,0,0:0:0:0:
151,162,35310,1,8,0:0:0:0:
151,162,35407,1,0,0:0:0:0:
151,162,35504,1,8,0:0:0:0:
151,162,35601,1,0,0:0:0:0:
151,162,35697,1,8,0:0:0:0:
151,162,35891,1,0,0:0:0:0:
151,162,36084,1,0,0:0:0:0:
151,162,36181,1,0,0:0:0:0:
151,162,36278,1,0,0:0:0:0:
151,162,36471,1,8,0:0:0:0:
151,162,36665,1,8,0:0:0:0:
151,162,36859,1,0,0:0:0:0:
151,162,37052,1,0,0:0:0:0:
151,162,37246,1,8,0:0:0:0:
151,162,37439,1,8,0:0:0:0:
151,162,37633,1,4,0:0:0:0:
151,162,37826,1,0,0:0:0:0:
151,162,37923,1,0,0:0:0:0:
151,162,38020,1,8,0:0:0:0:
151,162,38213,1,8,0:0:0:0:
151,162,38407,1,8,0:0:0:0:
151,162,38504,1,8,0:0:0:0:
151,162,38601,1,0,0:0:0:0:
151,162,38697,1,0,0:0:0:0:
151,162,38794,1,8,0:0:0:0:
151,162,38988,1,8,0:0:0:0:
151,162,39181,1,0,0:0:0:0:
151,162,39375,1,0,0:0:0:0:
151,162,39471,1,0,0:0:0:0:
151,162,39568,1,0,0:0:0:0:
151,162,39762,1,0,0:0:0:0:
151,162,39955,1,8,0:0:0:0:
151,162,40052,1,0,0:0:0:0:
151,162,40149,1,8,0:0:0:0:
151,162,40246,1,0,0:0:0:0:
151,162,40342,1,0,0:0:0:0:
151,162,40536,1,8,0:0:0:0:
151,162,40730,1,4,0:0:0:0:
151,162,40923,1,8,0:0:0:0:
151,162,41020,1,0,0:0:0:0:
151,162,41117,1,8,0:0:0:0:
151,162,41310,1,0,0:0:0:0:
151,162,41504,1,8,0:0:0:0:
151,162,41601,1,0,0:0:0:0:
151,162,41697,1,8,0:0:0:0:
151,162,41794,1,0,0:0:0:0:
151,162,41891,1,8,0:0:0:0:
151,162,42084,1,0,0:0:0:0:
151,162,42278,1,8,0:0:0:0:
151,162,42375,1,8,0:0:0:0:
151,162,42471,1,0,0:0:0:0:
151,162,42568,1,8,0:0:0:0:
151,162,42665,1,0,0:0:0:0:
151,162,42859,1,0,0:0:0:0:
151,162,43052,1,8,0:0:0:0:
151,162,43149,1,8,0:0:0:0:
151,162,43246,1,0,0:0:0:0:
151,162,43439,1,8,0:0:0:0:
151,162,43633,1,8,0:0:0:0:
151,162,43826,1,4,0:0:0:0:
151,162,44020,1,0,0:0:0:0:
151,162,44117,1,0,0:0:0:0:
151,162,44213,1,8,0:0:0:0:
151,162,44407,1,0,0:0:0:0:
151,162,44601,1,8,0:0:0:0:
151,162,44697,1,8,0:0:0:0:
151,162,44794,1,0,0:0:0:0:
151,162,44891,1,0,0:0:0:0:
151,162,44988,1,8,0:0:0:0:
151,162,45181,1,8,0:0:0:0:
151,162,45375,1,8,0:0:0:0:
151,162,45568,1,0,0:0:0:0:
151,162,45665,1,0,0:0:0:0:
151,162,45762,1,0,0:0:0:0:
151,162,45955,1,0,0:0:0:0:
151,162,46149,1,8,0:0:0:0:
151,162,46246,1,0,0:0:0:0:
151,162,46342,1,8,0:0:0:0:
151,162,46439,1,8,0:0:0:0:
151,162,46536,1,0,0:0:0:0:
151,162,46923,1,4,0:0:0:0:
151,162,47117,1,0,0:0:0:0:
151,162,47213,1,8,0:0:0:0:
151,162,47310,1,0,0:0:0:0:
151,162,47504,1,0,0:0:0:0:
151,162,47697,1,8,0:0:0:0:
151,162,47794,1,0,0:0:0:0:
151,162,47891,1,8,0:0:0:0:
151,162,47988,1,8,0:0:0:0:
151,162,48084,1,8,0:0:0:0:
151,162,48278,1,0,0:0:0:0:
151,162,48471,1,0,0:0:0:0:
151,162,48568,1,8,0:0:0:0:
151,162,48665,1,0,0:0:0:0:
151,162,48859,1,0,0:0:0:0:
151,162,49052,1,8,0:0:0:0:
151,162,49246,1,8,0:0:0:0:
151,162,49439,1,8,0:0:0:0:
151,162,49536,1,8,0:0:0:0:
151,162,49633,1,8,0:0:0:0:
151,162,49826,1,8,0:0:0:0:
151,162,50020,1,0,0:0:0:0:
151,162,50407,1,0,0:0:0:0:
151,162,50988,1,0,0:0:0:0:
151,162,51181,1,0,0:0:0:0:
151,162,51568,1,0,0:0:0:0:
151,162,51955,1,0,0:0:0:0:
151,162,52149,1,0,0:0:0:0:
151,162,52536,1,0,0:0:0:0:
151,162,52730,1,0,0:0:0:0:
151,162,53117,1,4,0:0:0:0:
151,162,53310,1,8,0:0:0:0:
151,162,53407,1,8,0:0:0:0:
151,162,53504,1,8,0:0:0:0:
151,162,53697,1,0,0:0:0:0:
151,162,53891,1,8,0:0:0:0:
151,162,53988,1,0,0:0:0:0:
151,162,54084,1,8,0:0:0:0:
151,162,54181,1,0,0:0:0:0:
151,162,54278,1,8,0:0:0:0:
151,162,54471,1,0,0:0:0:0:
151,162,54665,1,8,0:0:0:0:
151,162,54859,1,0,0:0:0:0:
151,162,54955,1,8,0:0:0:0:
151,162,55052,1,0,0:0:0:0:
151,162,55246,1,0,0:0:0:0:
151,162,55439,1,8,0:0:0:0:
151,162,55536,1,0,0:0:0:0:
151,162,55633,1,0,0:0:0:0:
151,162,55730,1,0,0:0:0:0:
151,162,55826,1,8,0:0:0:0:
151,162,56020,1,8,0:0:0:0:
151,162,56213,1,4,0:0:0:0:
151,162,56407,1,8,0:0:0:0:
151,162,56504,1,0,0:0:0:0:
151,162,56601,1,8,0:0:0:0:
151,162,56794,1,0,0:0:0:0:
151,162,56988,1,8,0:0:0:0:
151,162,57181,1,0,0:0:0:0:
151,162,57278,1,8,0:0:0:0:
151,162,57375,1,8,0:0:0:0:
151,162,57568,1,8,0:0:0:0:
151,162,57762,1,0,0:0:0:0:
151,162,57955,1,0,0:0:0:0:
151,162,58052,1,8,0:0:0:0:
151,162,58149,1,0,0:0:0:0:
151,162,58342,1,8,0:0:0:0:
151,162,58536,1,8,0:0:0:0:
151,162,58730,1,0,0:0:0:0:
151,162,58923,1,8,0:0:0:0:
151,162,59310,1,4,0:0:0:0:
151,162,59504,1,8,0:0:0:0:
151,162,59601,1,0,0:0:0:0:
151,162,59697,1,8,0:0:0:0:
151,162,59891,1,0,0:0:0:0:
151,162,60084,1,8,0:0:0:0:
151,162,60278,1,0,0:0:0:0:
151,162,60375,1,8,0:0:0:0:
151,162,60471,1,0,0:0:0:0:
151,162,60665,1,0,0:0:0:0:
151,162,60859,1,8,0:0:0:0:
151,162,61052,1,0,0:0:0:0:
151,162,61149,1,0,0:0:0:0:
151,162,61246,1,0,0:0:0:0:
151,162,61439,1,8,0:0:0:0:
151,162,61633,1,8,0:0:0:0:
151,162,61826,1,8,0:0:0:0:
151,162,61923,1,8,0:0:0:0:
151,162,62020,1,8,0:0:0:0:
151,162,62213,1,8,0:0:0:0:
151,162,62407,1,0,0:0:0:0:
151,162,62794,1,0,0:0:0:0:
151,162,63375,1,0,0:0:0:0:
151,162,63568,1,0,0:0:0:0:
151,162,63955,1,0,0:0:0:0:
151,162,64342,1,0,0:0:0:0:
151,162,64536,1,0,0:0:0:0:
151,162,64730,1,8,0:0:0:0:
151,162,65117,1,8,0:0:0:0:
151,162,65310,1,8,0:0:0:0:
151,162,65504,1,4,0:0:0:0:
151,162,65697,1,8,0:0:0:0:
151,162,65794,1,8,0:0:0:0:
151,162,65891,1,0,0:0:0:0:
151,162,65988,1,8,0:0:0:0:
151,162,66084,1,0,0:0:0:0:
151,162,66181,1,0,0:0:0:0:
151,162,66278,1,8,0:0:0:0:
151,162,66471,1,0,0:0:0:0:
151,162,66665,1,8,0:0:0:0:
151,162,66859,1,8,0:0:0:0:
151,162,66955,1,8,0:0:0:0:
151,162,67052,1,0,0:0:0:0:
151,162,67149,1,8,0:0:0:0:
151,162,67246,1,0,0:0:0:0:
151,162,67342,1,0,0:0:0:0:
151,162,67439,1,8,0:0:0:0:
151,162,67536,1,0,0:0:0:0:
151,162,67633,1,8,0:0:0:0:
151,162,67730,1,0,0:0:0:0:
151,162,67826,1,8,0:0:0:0:
151,162,68020,1,0,0:0:0:0:
151,162,68213,1,8,0:0:0:0:
151,162,68407,1,8,0:0:0:0:
151,162,68601,1,4,0:0:0:0:
151,162,68794,1,8,0:0:0:0:
151,162,68891,1,8,0:0:0:0:
151,162,68988,1,8,0:0:0:0:
151,162,69181,1,0,0:0:0:0:
151,162,69375,1,8,0:0:0:0:
151,162,69471,1,0,0:0:0:0:
151,162,69568,1,0,0:0:0:0:
151,162,69762,1,8,0:0:0:0:
151,162,69859,1,8,0:0:0:0:
151,162,69955,1,0,0:0:0:0:
151,162,70052,1,0,0:0:0:0:
151,162,70149,1,8,0:0:0:0:
151,162,70246,1,0,0:0:0:0:
151,162,70342,1,8,0:0:0:0:
151,162,70536,1,8,0:0:0:0:
151,162,70633,1,0,0:0:0:0:
151,162,70730,1,0,0:0:0:0:
151,162,70923,1,8,0:0:0:0:
151,162,71020,1,8,0:0:0:0:
151,162,71117,1,0,0:0:0:0:
151,162,71310,1,8,0:0:0:0:
151,162,71504,1,8,0:0:0:0:
151,162,71697,1,4,0:0:0:0:
151,162,71891,1,0,0:0:0:0:
151,162,71988,1,0,0:0:0:0:
151,162,72084,1,8,0:0:0:0:
151,162,72181,1,0,0:0:0:0:
151,162,72278,1,8,0:0:0:0:
151,162,72375,1,8,0:0:0:0:
151,162,72471,1,0,0:0:0:0:
151,162,72665,1,0,0:0:0:0:
151,162,72859,1,8,0:0:0:0:
151,162,73052,1,0,0:0:0:0:
151,162,73149,1,0,0:0:0:0:
151,162,73246,1,8,0:0:0:0:
151,162,73342,1,0,0:0:0:0:
151,162,73439,1,8,0:0:0:0:
151,162,73536,1,8,0:0:0:0:
151,162,73633,1,0,0:0:0:0:
151,162,73826,1,8,0:0:0:0:
151,162,74020,1,8,0:0:0:0:
151,162,74213,1,8,0:0:0:0:
151,162,74310,1,8,0:0:0:0:
151,162,74407,1,0,0:0:0:0:
151,162,74601,1,8,0:0:0:0:
151,162,74794,1,0,0:0:0:0:
87,197,76730,2,0,L|87:234,1,35
87,197,77310,2,0,L|87:234,1,35
151,162,77891,1,4,0:0:0:0:
