osu file format v14

[General]
AudioFilename: audio.ogg
AudioLeadIn: 0
PreviewTime: 12762
Countdown: 0
SampleSet: Normal
StackLeniency: 0.7
Mode: 1
LetterboxInBreaks: 0
WidescreenStoryboard: 1

[Editor]
Bookmarks: 50020,53117,62407
DistanceSpacing: 1
BeatDivisor: 8
GridSize: 32
TimelineZoom: 1.6

[Metadata]
Title:9mm
TitleUnicode:9mm
Artist:Memphis Cult, Groove Dealers, SPLYXER
ArtistUnicode:Memphis Cult, Groove Dealers, SPLYXER
Creator:Molybdenum
Version:FUTSUU
Source:
Tags:cryceptio english hiphop hip hop hip-hop rap wadadadang tiktok trend vol. volume 6 six trap music trapmusic
BeatmapID:4363893
BeatmapSetID:2083559

[Difficulty]
HPDrainRate:8
CircleSize:5
OverallDifficulty:4
ApproachRate:10
SliderMultiplier:1.4
SliderTickRate:1

[Events]
//Background and Video events
0,0,"peakpx.jpg",0,120
//Break Periods
//Storyboard Layer 0 (Background)
//Storyboard Layer 1 (Fail)
//Storyboard Layer 2 (Pass)
//Storyboard Layer 3 (Foreground)
//Storyboard Layer 4 (Overlay)
//Storyboard Sound Samples

[TimingPoints]
472,387.096774193548,4,1,0,70,1,0
9713,-100,4,1,0,100,0,0
9810,-100,4,1,0,70,0,0
12810,-100,4,1,0,75,0,0
12859,-100,4,1,0,75,0,1
25246,-100,4,1,0,75,0,0
25294,-100,4,1,0,70,0,0
64681,-100,4,1,0,100,0,0
64778,-100,4,1,0,70,0,0
65455,-100,4,1,0,75,0,0
65504,-100,4,1,0,75,0,1
74794,-100,4,1,0,70,0,0
74842,-100,4,1,0,5,0,0
76681,-100,4,1,0,50,0,0
76875,-100,4,1,0,5,0,0
77262,-100,4,1,0,50,0,0
77455,-100,4,1,0,5,0,0
77842,-100,4,1,0,75,0,0

[HitObjects]
151,162,472,5,4,0:0:0:0:
151,162,859,1,0,0:0:0:0:
151,162,1439,1,0,0:0:0:0:
151,162,1633,1,0,0:0:0:0:
151,162,2020,1,0,0:0:0:0:
151,162,2407,1,0,0:0:0:0:
151,162,2601,1,0,0:0:0:0:
151,162,2988,1,0,0:0:0:0:
151,162,3181,1,0,0:0:0:0:
151,162,3568,1,0,0:0:0:0:
151,162,3955,1,0,0:0:0:0:
151,162,4536,1,0,0:0:0:0:
151,162,4730,1,0,0:0:0:0:
151,162,5117,1,0,0:0:0:0:
151,162,5504,1,0,0:0:0:0:
151,162,5697,1,0,0:0:0:0:
151,162,5891,1,0,0:0:0:0:
151,162,6665,1,0,0:0:0:0:
151,162,7052,1,0,0:0:0:0:
151,162,7633,1,0,0:0:0:0:
151,162,7826,1,0,0:0:0:0:
151,162,8213,1,0,0:0:0:0:
151,162,8601,1,0,0:0:0:0:
151,162,8794,1,0,0:0:0:0:
151,162,9181,1,0,0:0:0:0:
151,162,9375,1,0,0:0:0:0:
151,162,9762,1,8,0:0:0:0:
151,162,10149,1,0,0:0:0:0:
151,162,10730,1,0,0:0:0:0:
151,162,10923,1,0,0:0:0:0:
151,162,11310,1,0,0:0:0:0:
151,162,11697,1,0,0:0:0:0:
151,162,11891,1,0,0:0:0:0:
151,162,12084,1,8,0:0:0:0:
151,162,12859,1,4,0:0:0:0:
151,162,13052,1,8,0:0:0:0:
151,162,13439,1,0,0:0:0:0:
151,162,13633,1,8,0:0:0:0:
151,162,14020,1,8,0:0:0:0:
151,162,14213,1,8,0:0:0:0:
151,162,14407,1,0,0:0:0:0:
151,162,14601,1,8,0:0:0:0:
151,162,14794,1,0,0:0:0:0:
151,162,15181,1,8,0:0:0:0:
151,162,15568,1,8,0:0:0:0:
151,162,15955,1,4,0:0:0:0:
151,162,16149,1,8,0:0:0:0:
151,162,16342,1,0,0:0:0:0:
151,162,16536,1,8,0:0:0:0:
151,162,16730,1,0,0:0:0:0:
151,162,17310,1,8,0:0:0:0:
151,162,17504,1,0,0:0:0:0:
151,162,17697,1,8,0:0:0:0:
151,162,17891,1,0,0:0:0:0:
151,162,18278,1,8,0:0:0:0:
151,162,18665,1,8,0:0:0:0:
151,162,19052,1,4,0:0:0:0:
151,162,19246,1,8,0:0:0:0:
151,162,19633,1,0,0:0:0:0:
151,162,19826,1,8,0:0:0:0:
151,162,20213,1,8,0:0:0:0:
151,162,20407,1,8,0:0:0:0:
151,162,20601,1,0,0:0:0:0:
151,162,20794,1,8,0:0:0:0:
151,162,20988,1,0,0:0:0:0:
151,162,21375,1,8,0:0:0:0:
151,162,21762,1,8,0:0:0:0:
151,162,22149,1,4,0:0:0:0:
151,162,22342,1,8,0:0:0:0:
151,162,22536,1,0,0:0:0:0:
151,162,22730,1,8,0:0:0:0:
151,162,22923,1,0,0:0:0:0:
151,162,23504,1,8,0:0:0:0:
151,162,23697,1,0,0:0:0:0:
151,162,23891,1,0,0:0:0:0:
151,162,24084,1,8,0:0:0:0:
151,162,24471,1,8,0:0:0:0:
151,162,25246,1,4,0:0:0:0:
151,162,25633,1,0,0:0:0:0:
151,162,26213,1,0,0:0:0:0:
151,162,26407,1,0,0:0:0:0:
151,162,26794,1,0,0:0:0:0:
151,162,27181,1,0,0:0:0:0:
151,162,27375,1,0,0:0:0:0:
151,162,27762,1,0,0:0:0:0:
151,162,27955,1,0,0:0:0:0:
151,162,28342,1,0,0:0:0:0:
151,162,28730,1,0,0:0:0:0:
151,162,29310,1,0,0:0:0:0:
151,162,29504,1,0,0:0:0:0:
151,162,29891,1,8,0:0:0:0:
151,162,31439,1,4,0:0:0:0:
151,162,31826,1,8,0:0:0:0:
151,162,32213,1,0,0:0:0:0:
151,162,32407,1,0,0:0:0:0:
151,162,32601,1,8,0:0:0:0:
151,162,32988,1,8,0:0:0:0:
151,162,33375,1,0,0:0:0:0:
151,162,33762,1,8,0:0:0:0:
151,162,33955,1,8,0:0:0:0:
151,162,34149,1,0,0:0:0:0:
151,162,34536,1,4,0:0:0:0:
151,162,34923,1,8,0:0:0:0:
151,162,35310,1,0,0:0:0:0:
151,162,35504,1,0,0:0:0:0:
151,162,35697,1,8,0:0:0:0:
151,162,35891,1,0,0:0:0:0:
151,162,36084,1,8,0:0:0:0:
151,162,36471,1,8,0:0:0:0:
151,162,36859,1,8,0:0:0:0:
151,162,37633,1,4,0:0:0:0:
151,162,38020,1,8,0:0:0:0:
151,162,38407,1,0,0:0:0:0:
151,162,38601,1,0,0:0:0:0:
151,162,38794,1,8,0:0:0:0:
151,162,39181,1,8,0:0:0:0:
151,162,39568,1,0,0:0:0:0:
151,162,39955,1,8,0:0:0:0:
151,162,40149,1,8,0:0:0:0:
151,162,40342,1,0,0:0:0:0:
151,162,40730,1,4,0:0:0:0:
151,162,41117,1,8,0:0:0:0:
151,162,41504,1,8,0:0:0:0:
151,162,41697,1,0,0:0:0:0:
151,162,41891,1,0,0:0:0:0:
151,162,42278,1,8,0:0:0:0:
151,162,42471,1,0,0:0:0:0:
151,162,42665,1,8,0:0:0:0:
151,162,43052,1,8,0:0:0:0:
151,162,43826,1,4,0:0:0:0:
151,162,44213,1,8,0:0:0:0:
151,162,44601,1,0,0:0:0:0:
151,162,44794,1,0,0:0:0:0:
151,162,44988,1,8,0:0:0:0:
151,162,45375,1,8,0:0:0:0:
151,162,45762,1,0,0:0:0:0:
151,162,46149,1,8,0:0:0:0:
151,162,46342,1,8,0:0:0:0:
151,162,46536,1,0,0:0:0:0:
151,162,46923,1,4,0:0:0:0:
151,162,47310,1,8,0:0:0:0:
151,162,47504,1,0,0:0:0:0:
151,162,47697,1,8,0:0:0:0:
151,162,47891,1,0,0:0:0:0:
151,162,48084,1,8,0:0:0:0:
151,162,48471,1,0,0:0:0:0:
151,162,48859,1,0,0:0:0:0:
151,162,49052,1,8,0:0:0:0:
151,162,49246,1,8,0:0:0:0:
151,162,50020,1,0,0:0:0:0:
151,162,50407,1,0,0:0:0:0:
151,162,50988,1,0,0:0:0:0:
151,162,51181,1,0,0:0:0:0:
151,162,51568,1,0,0:0:0:0:
151,162,51955,1,0,0:0:0:0:
151,162,52149,1,0,0:0:0:0:
151,162,52536,1,0,0:0:0:0:
151,162,52730,1,0,0:0:0:0:
151,162,53117,1,4,0:0:0:0:
151,162,53504,1,8,0:0:0:0:
151,162,53891,1,0,0:0:0:0:
151,162,54084,1,8,0:0:0:0:
151,162,54278,1,0,0:0:0:0:
151,162,54665,1,8,0:0:0:0:
151,162,55052,1,8,0:0:0:0:
151,162,55246,1,0,0:0:0:0:
151,162,55439,1,8,0:0:0:0:
151,162,56213,1,4,0:0:0:0:
151,162,56601,1,0,0:0:0:0:
151,162,56988,1,0,0:0:0:0:
151,162,57181,1,8,0:0:0:0:
151,162,57568,1,8,0:0:0:0:
151,162,57762,1,0,0:0:0:0:
151,162,58149,1,0,0:0:0:0:
151,162,58536,1,0,0:0:0:0:
151,162,58730,1,8,0:0:0:0:
151,162,59310,1,4,0:0:0:0:
151,162,59697,1,8,0:0:0:0:
151,162,60084,1,0,0:0:0:0:
151,162,60278,1,8,0:0:0:0:
151,162,60665,1,0,0:0:0:0:
151,162,60859,1,8,0:0:0:0:
151,162,61246,1,0,0:0:0:0:
151,162,61439,1,8,0:0:0:0:
151,162,61633,1,8,0:0:0:0:
151,162,62407,1,0,0:0:0:0:
151,162,62794,1,0,0:0:0:0:
151,162,63375,1,0,0:0:0:0:
151,162,63568,1,0,0:0:0:0:
151,162,63955,1,0,0:0:0:0:
151,162,64342,1,0,0:0:0:0:
151,162,64536,1,0,0:0:0:0:
151,162,64730,1,8,0:0:0:0:
151,162,65504,1,4,0:0:0:0:
151,162,65697,1,8,0:0:0:0:
151,162,65891,1,0,0:0:0:0:
151,162,66084,1,8,0:0:0:0:
151,162,66278,1,0,0:0:0:0:
151,162,66859,1,8,0:0:0:0:
151,162,67052,1,0,0:0:0:0:
151,162,67246,1,8,0:0:0:0:
151,162,67439,1,0,0:0:0:0:
151,162,67826,1,8,0:0:0:0:
151,162,68213,1,8,0:0:0:0:
151,162,68601,1,4,0:0:0:0:
151,162,68794,1,8,0:0:0:0:
151,162,69181,1,0,0:0:0:0:
151,162,69375,1,8,0:0:0:0:
151,162,69762,1,8,0:0:0:0:
151,162,69955,1,8,0:0:0:0:
151,162,70149,1,0,0:0:0:0:
151,162,70342,1,8,0:0:0:0:
151,162,70536,1,0,0:0:0:0:
151,162,70923,1,8,0:0:0:0:
151,162,71310,1,8,0:0:0:0:
151,162,71697,1,4,0:0:0:0:
151,162,71891,1,8,0:0:0:0:
151,162,72084,1,0,0:0:0:0:
151,162,72278,1,8,0:0:0:0:
151,162,72471,1,0,0:0:0:0:
151,162,73052,1,8,0:0:0:0:
151,162,73246,1,0,0:0:0:0:
151,162,73439,1,0,0:0:0:0:
151,162,73633,1,8,0:0:0:0:
151,162,74020,1,8,0:0:0:0:
151,162,74794,1,0,0:0:0:0:
87,197,76730,2,0,L|87:234,1,35
87,197,77310,2,0,L|87:234,1,35
151,162,77891,1,4,0:0:0:0:
