osu file format v14

[General]
AudioFilename: audio.mp3
AudioLeadIn: 0
PreviewTime: 94610
Countdown: 0
SampleSet: Normal
StackLeniency: 0.7
Mode: 1
LetterboxInBreaks: 0
WidescreenStoryboard: 1

[Editor]
DistanceSpacing: 1
BeatDivisor: 4
GridSize: 32
TimelineZoom: 2.999999

[Metadata]
Title:Uranium
TitleUnicode:Uranium
Artist:Memme
ArtistUnicode:Memme
Creator:zsPixel
Version:Kantan
Source:O2Jam U
Tags:Pump it up Prime 2 xross hybrid techno
BeatmapID:1749304
BeatmapSetID:831138

[Difficulty]
HPDrainRate:7
CircleSize:4
OverallDifficulty:3
ApproachRate:6
SliderMultiplier:1.4
SliderTickRate:1

[Events]
//Background and Video events
0,0,"Encounter.jpg",0,90
//Break Periods
2,73633,78030
//Storyboard Layer 0 (Background)
//Storyboard Layer 1 (Fail)
//Storyboard Layer 2 (Pass)
//Storyboard Layer 3 (Foreground)
//Storyboard Layer 4 (Overlay)
//Storyboard Sound Samples

[TimingPoints]
22,352.941176470588,4,1,0,10,1,0
2845,-100,4,1,0,100,0,0
96021,-100,4,1,0,100,0,1
118610,-100,4,1,0,100,0,0
118874,-100,4,1,0,70,0,0
124169,-100,4,1,0,80,0,0
130610,-100,4,1,0,100,0,0
130963,-100,4,1,0,90,0,0
131316,-100,4,1,0,80,0,0
131669,-100,4,1,0,70,0,0
132021,-100,4,1,0,60,0,0
132374,-100,4,1,0,50,0,0
132727,-100,4,1,0,40,0,0
133080,-100,4,1,0,30,0,0
133433,-100,4,1,0,20,0,0
133786,-100,4,1,0,10,0,0
134139,-100,4,1,0,5,0,0

[HitObjects]
256,192,1786,12,0,2492,0:0:0:0:
256,192,2845,5,0,0:0:0:0:
256,192,3198,1,0,0:0:0:0:
256,192,3904,1,0,0:0:0:0:
256,192,4610,1,0,0:0:0:0:
256,192,5316,1,0,0:0:0:0:
256,192,6021,1,8,0:0:0:0:
256,192,6727,1,0,0:0:0:0:
256,192,7433,1,0,0:0:0:0:
256,192,8139,1,8,0:0:0:0:
256,192,8492,1,0,0:0:0:0:
256,192,9198,1,0,0:0:0:0:
256,192,9904,1,0,0:0:0:0:
256,192,10610,1,0,0:0:0:0:
256,192,11316,1,0,0:0:0:0:
256,192,12021,1,8,0:0:0:0:
256,192,12727,1,0,0:0:0:0:
256,192,13433,1,8,0:0:0:0:
256,192,14139,1,0,0:0:0:0:
256,192,14845,1,8,0:0:0:0:
256,192,15551,1,0,0:0:0:0:
256,192,16257,1,0,0:0:0:0:
256,192,16610,1,8,0:0:0:0:
256,192,16963,1,8,0:0:0:0:
256,192,17669,1,0,0:0:0:0:
256,192,18374,1,0,0:0:0:0:
256,192,19080,1,8,0:0:0:0:
256,192,19786,1,0,0:0:0:0:
256,192,20492,1,8,0:0:0:0:
256,192,21198,1,12,0:0:0:0:
256,192,22610,1,8,0:0:0:0:
256,192,23316,1,12,0:0:0:0:
256,192,24021,1,8,0:0:0:0:
256,192,24374,1,0,0:0:0:0:
256,192,24904,1,0,0:0:0:0:
256,192,25433,1,8,0:0:0:0:
256,192,26139,1,8,0:0:0:0:
256,192,26845,1,0,0:0:0:0:
256,192,27551,1,0,0:0:0:0:
256,192,28257,1,8,0:0:0:0:
256,192,28963,1,0,0:0:0:0:
256,192,29669,1,0,0:0:0:0:
256,192,30374,1,0,0:0:0:0:
256,192,31080,1,0,0:0:0:0:
256,192,31786,1,0,0:0:0:0:
256,192,32492,1,8,0:0:0:0:
256,192,33198,1,0,0:0:0:0:
256,192,33904,1,8,0:0:0:0:
256,192,34610,1,8,0:0:0:0:
256,192,35316,1,0,0:0:0:0:
256,192,36727,1,0,0:0:0:0:
256,192,37257,1,0,0:0:0:0:
256,192,38845,1,8,0:0:0:0:
256,192,39551,1,0,0:0:0:0:
256,192,40610,1,8,0:0:0:0:
256,192,40963,1,8,0:0:0:0:
256,192,41492,1,0,0:0:0:0:
256,192,42374,1,8,0:0:0:0:
256,192,43433,1,0,0:0:0:0:
256,192,44492,1,0,0:0:0:0:
256,192,45198,1,8,0:0:0:0:
256,192,45904,1,8,0:0:0:0:
256,192,46610,1,0,0:0:0:0:
256,192,48021,1,0,0:0:0:0:
256,192,48727,1,8,0:0:0:0:
256,192,49433,1,0,0:0:0:0:
256,192,50139,1,0,0:0:0:0:
256,192,50492,1,0,0:0:0:0:
256,192,50845,1,8,0:0:0:0:
256,192,51551,1,8,0:0:0:0:
256,192,52257,1,0,0:0:0:0:
256,192,52963,1,8,0:0:0:0:
256,192,53669,1,0,0:0:0:0:
256,192,54374,1,0,0:0:0:0:
256,192,54727,1,8,0:0:0:0:
256,192,55080,1,8,0:0:0:0:
256,192,55786,1,8,0:0:0:0:
256,192,56492,1,8,0:0:0:0:
256,192,57904,1,8,0:0:0:0:
256,192,59316,1,8,0:0:0:0:
256,192,60021,1,0,0:0:0:0:
256,192,60727,1,8,0:0:0:0:
256,192,61080,1,8,0:0:0:0:
256,192,61433,1,0,0:0:0:0:
256,192,62139,1,0,0:0:0:0:
256,192,62845,1,8,0:0:0:0:
256,192,63551,1,8,0:0:0:0:
256,192,64257,1,8,0:0:0:0:
256,192,64963,1,0,0:0:0:0:
256,192,65669,1,8,0:0:0:0:
256,192,66374,1,8,0:0:0:0:
256,192,67080,1,8,0:0:0:0:
256,192,67786,1,0,0:0:0:0:
256,192,68492,1,8,0:0:0:0:
256,192,69198,1,0,0:0:0:0:
256,192,69904,1,0,0:0:0:0:
256,192,70610,1,0,0:0:0:0:
256,192,72021,1,8,0:0:0:0:
256,192,73080,1,8,0:0:0:0:
256,192,73433,1,0,0:0:0:0:
256,192,79080,5,8,0:0:0:0:
256,192,79433,1,0,0:0:0:0:
256,192,80139,1,8,0:0:0:0:
256,192,80845,1,8,0:0:0:0:
256,192,81198,1,8,0:0:0:0:
256,192,81904,1,0,0:0:0:0:
256,192,82610,1,8,0:0:0:0:
256,192,83316,1,0,0:0:0:0:
256,192,83580,1,8,0:0:0:0:
256,192,83845,1,8,0:0:0:0:
256,192,84374,2,0,L|64:192,1,140.000000596046
256,192,85080,1,0,0:0:0:0:
256,192,85433,1,8,0:0:0:0:
256,192,85786,1,0,0:0:0:0:
256,192,86492,1,8,0:0:0:0:
256,192,86845,1,8,0:0:0:0:
256,192,87198,1,8,0:0:0:0:
256,192,87904,1,0,0:0:0:0:
256,192,88257,1,0,0:0:0:0:
256,192,88610,1,8,0:0:0:0:
256,192,89669,1,8,0:0:0:0:
256,192,90021,1,0,0:0:0:0:
256,192,91080,1,0,0:0:0:0:
256,192,91433,1,8,0:0:0:0:
256,192,91786,1,8,0:0:0:0:
256,192,92492,1,0,0:0:0:0:
256,192,92845,1,8,0:0:0:0:
256,192,93198,1,8,0:0:0:0:
256,192,93904,1,0,0:0:0:0:
256,192,94610,2,0,L|384:192,4,105
256,192,96021,1,0,0:0:0:0:
256,192,96727,5,0,0:0:0:0:
256,192,97433,1,8,0:0:0:0:
256,192,97786,1,0,0:0:0:0:
256,192,98139,1,8,0:0:0:0:
256,192,98492,1,8,0:0:0:0:
256,192,98845,1,0,0:0:0:0:
256,192,99551,1,0,0:0:0:0:
256,192,100257,1,8,0:0:0:0:
256,192,100610,1,0,0:0:0:0:
256,192,100963,1,8,0:0:0:0:
256,192,101316,1,8,0:0:0:0:
256,192,101669,1,0,0:0:0:0:
256,192,102374,1,0,0:0:0:0:
256,192,103080,1,8,0:0:0:0:
256,192,103433,1,0,0:0:0:0:
256,192,103786,1,0,0:0:0:0:
256,192,104492,1,8,0:0:0:0:
256,192,105904,1,8,0:0:0:0:
256,192,106257,1,0,0:0:0:0:
256,192,106610,1,8,0:0:0:0:
256,192,107316,1,8,0:0:0:0:
256,192,108021,1,0,0:0:0:0:
256,192,108727,1,8,0:0:0:0:
256,192,109080,1,0,0:0:0:0:
256,192,109433,1,8,0:0:0:0:
256,192,109786,1,8,0:0:0:0:
256,192,110139,1,0,0:0:0:0:
256,192,110845,1,0,0:0:0:0:
256,192,111551,1,8,0:0:0:0:
256,192,111904,1,0,0:0:0:0:
256,192,112257,1,8,0:0:0:0:
256,192,112610,1,8,0:0:0:0:
256,192,112963,1,8,0:0:0:0:
256,192,113669,1,0,0:0:0:0:
256,192,114374,1,8,0:0:0:0:
256,192,114727,1,0,0:0:0:0:
256,192,115080,1,8,0:0:0:0:
256,192,115786,1,8,0:0:0:0:
256,192,116492,1,0,0:0:0:0:
256,192,117198,1,8,0:0:0:0:
256,192,117551,1,0,0:0:0:0:
256,192,117904,1,0,0:0:0:0:
256,192,118257,1,8,0:0:0:0:
256,192,118610,1,0,0:0:0:0:
256,192,119316,1,8,0:0:0:0:
256,192,120021,1,0,0:0:0:0:
256,192,120727,1,0,0:0:0:0:
256,192,121433,1,8,0:0:0:0:
256,192,122139,5,0,0:0:0:0:
256,192,122845,5,0,0:0:0:0:
256,192,123551,1,8,0:0:0:0:
256,192,123904,1,0,0:0:0:0:
256,192,124257,1,0,0:0:0:0:
256,192,124786,1,8,0:0:0:0:
256,192,125845,1,8,0:0:0:0:
256,192,126374,1,8,0:0:0:0:
256,192,127080,1,0,0:0:0:0:
256,192,127786,1,8,0:0:0:0:
256,192,128492,1,0,0:0:0:0:
256,192,129198,1,0,0:0:0:0:
256,192,129904,1,0,0:0:0:0:
256,192,130433,1,8,0:0:0:0:
256,192,130610,12,0,134139,0:0:0:0:
