osu file format v14

[General]
AudioFilename: audio.mp3
AudioLeadIn: 0
PreviewTime: 94610
Countdown: 0
SampleSet: Normal
StackLeniency: 0.7
Mode: 1
LetterboxInBreaks: 0
WidescreenStoryboard: 1

[Editor]
DistanceSpacing: 1.2
BeatDivisor: 2
GridSize: 32
TimelineZoom: 1.9

[Metadata]
Title:Uranium
TitleUnicode:Uranium
Artist:Memme
ArtistUnicode:Memme
Creator:zsPixel
Version:Inner Oni
Source:
Tags:
BeatmapID:1741279
BeatmapSetID:831138

[Difficulty]
HPDrainRate:5
CircleSize:4
OverallDifficulty:6
ApproachRate:6
SliderMultiplier:1.4
SliderTickRate:1

[Events]
//Background and Video events
0,0,"Encounter.jpg",0,90
//Break Periods
//Storyboard Layer 0 (Background)
//Storyboard Layer 1 (Fail)
//Storyboard Layer 2 (Pass)
//Storyboard Layer 3 (Foreground)
//Storyboard Layer 4 (Overlay)
//Storyboard Sound Samples

[TimingPoints]
22,352.941176470588,4,1,0,10,1,0
2845,-100,4,1,0,100,0,0
96021,-100,4,1,0,100,0,1
118610,-100,4,1,0,100,0,0
118874,-100,4,1,0,70,0,0
124169,-100,4,1,0,80,0,0
130610,-100,4,1,0,100,0,0
130963,-100,4,1,0,90,0,0
131316,-100,4,1,0,80,0,0
131669,-100,4,1,0,70,0,0
132021,-100,4,1,0,60,0,0
132374,-100,4,1,0,50,0,0
132727,-100,4,1,0,40,0,0
133080,-100,4,1,0,30,0,0
133433,-100,4,1,0,20,0,0
133786,-100,4,1,0,10,0,0
134139,-100,4,1,0,5,0,0

[HitObjects]
256,192,1786,12,0,2669,0:0:0:0:
256,192,2845,5,8,0:0:0:0:
256,192,2933,1,0,0:0:0:0:
256,192,3021,1,0,0:0:0:0:
256,192,3198,1,0,0:0:0:0:
256,192,3286,1,0,0:0:0:0:
256,192,3374,1,0,0:0:0:0:
256,192,3463,1,8,0:0:0:0:
256,192,3639,1,8,0:0:0:0:
256,192,3727,1,0,0:0:0:0:
256,192,3904,1,0,0:0:0:0:
256,192,3992,1,0,0:0:0:0:
256,192,4080,1,8,0:0:0:0:
256,192,4169,1,8,0:0:0:0:
256,192,4345,1,0,0:0:0:0:
256,192,4433,1,0,0:0:0:0:
256,192,4610,1,0,0:0:0:0:
256,192,4698,1,0,0:0:0:0:
256,192,4786,1,0,0:0:0:0:
256,192,4874,1,8,0:0:0:0:
256,192,5051,1,0,0:0:0:0:
256,192,5139,1,8,0:0:0:0:
256,192,5316,1,0,0:0:0:0:
256,192,5404,1,8,0:0:0:0:
256,192,5492,1,8,0:0:0:0:
256,192,5580,1,8,0:0:0:0:
256,192,5669,1,0,0:0:0:0:
256,192,5757,1,0,0:0:0:0:
256,192,5845,1,8,0:0:0:0:
256,192,5933,1,8,0:0:0:0:
256,192,6021,1,0,0:0:0:0:
256,192,6110,1,0,0:0:0:0:
256,192,6198,1,0,0:0:0:0:
256,192,6286,1,8,0:0:0:0:
256,192,6463,1,0,0:0:0:0:
256,192,6551,1,0,0:0:0:0:
256,192,6727,1,0,0:0:0:0:
256,192,6816,1,0,0:0:0:0:
256,192,6904,1,8,0:0:0:0:
256,192,6992,1,8,0:0:0:0:
256,192,7169,1,0,0:0:0:0:
256,192,7257,1,8,0:0:0:0:
256,192,7433,1,0,0:0:0:0:
256,192,7521,1,0,0:0:0:0:
256,192,7610,1,0,0:0:0:0:
256,192,7698,1,8,0:0:0:0:
256,192,7786,1,0,0:0:0:0:
256,192,7874,1,0,0:0:0:0:
256,192,7963,1,8,0:0:0:0:
256,192,8051,1,8,0:0:0:0:
256,192,8139,1,0,0:0:0:0:
256,192,8227,1,8,0:0:0:0:
256,192,8316,1,8,0:0:0:0:
256,192,8404,1,8,0:0:0:0:
192,96,8492,1,4,0:0:0:0:
256,192,8669,1,8,0:0:0:0:
192,96,8845,1,4,0:0:0:0:
256,192,9021,1,8,0:0:0:0:
256,192,9110,1,8,0:0:0:0:
192,96,9198,1,4,0:0:0:0:
256,192,9374,1,8,0:0:0:0:
192,96,9551,1,4,0:0:0:0:
256,192,9727,1,8,0:0:0:0:
256,192,9816,1,8,0:0:0:0:
192,96,9904,1,4,0:0:0:0:
256,192,10080,1,0,0:0:0:0:
192,96,10257,1,4,0:0:0:0:
256,192,10433,1,8,0:0:0:0:
256,192,10521,1,8,0:0:0:0:
192,96,10610,1,4,0:0:0:0:
256,192,10786,1,8,0:0:0:0:
192,96,10963,1,4,0:0:0:0:
256,192,11139,1,8,0:0:0:0:
256,192,11227,1,8,0:0:0:0:
192,96,11316,1,4,0:0:0:0:
192,96,11492,1,4,0:0:0:0:
192,96,11669,1,4,0:0:0:0:
192,96,11845,1,4,0:0:0:0:
192,96,12021,1,4,0:0:0:0:
192,96,12198,1,4,0:0:0:0:
192,96,12374,1,4,0:0:0:0:
192,96,12551,1,4,0:0:0:0:
256,192,12727,1,0,0:0:0:0:
256,192,12816,1,0,0:0:0:0:
256,192,12904,1,0,0:0:0:0:
256,192,12992,1,0,0:0:0:0:
256,192,13080,1,0,0:0:0:0:
256,192,13169,1,0,0:0:0:0:
256,192,13257,1,0,0:0:0:0:
256,192,13345,1,0,0:0:0:0:
256,192,13433,1,0,0:0:0:0:
256,192,13610,1,8,0:0:0:0:
256,192,13669,1,8,0:0:0:0:
256,192,13727,1,8,0:0:0:0:
256,192,13786,1,0,0:0:0:0:
256,192,13874,1,0,0:0:0:0:
256,192,13963,1,8,0:0:0:0:
256,192,14051,1,8,0:0:0:0:
256,192,14139,1,0,0:0:0:0:
256,192,14316,1,0,0:0:0:0:
256,192,14404,1,0,0:0:0:0:
256,192,14492,1,8,0:0:0:0:
256,192,14669,1,0,0:0:0:0:
256,192,14757,1,8,0:0:0:0:
256,192,15021,1,8,0:0:0:0:
256,192,15110,1,8,0:0:0:0:
256,192,15198,1,0,0:0:0:0:
256,192,15374,1,0,0:0:0:0:
256,192,15551,1,8,0:0:0:0:
256,192,15727,1,0,0:0:0:0:
256,192,15816,1,0,0:0:0:0:
256,192,15904,1,8,0:0:0:0:
256,192,16080,1,0,0:0:0:0:
256,192,16169,1,0,0:0:0:0:
256,192,16345,1,8,0:0:0:0:
256,192,16610,1,8,0:0:0:0:
256,192,16786,1,8,0:0:0:0:
256,192,16963,1,0,0:0:0:0:
256,192,17139,1,0,0:0:0:0:
256,192,17227,1,0,0:0:0:0:
256,192,17316,1,8,0:0:0:0:
256,192,17492,1,0,0:0:0:0:
256,192,17580,1,8,0:0:0:0:
256,192,17845,1,8,0:0:0:0:
256,192,17933,1,8,0:0:0:0:
256,192,18021,1,0,0:0:0:0:
256,192,18110,1,0,0:0:0:0:
256,192,18198,1,8,0:0:0:0:
256,192,18374,1,0,0:0:0:0:
256,192,18551,1,0,0:0:0:0:
256,192,18727,1,8,0:0:0:0:
256,192,18904,1,0,0:0:0:0:
256,192,18992,1,8,0:0:0:0:
256,192,19169,1,8,0:0:0:0:
256,192,19345,1,8,0:0:0:0:
256,192,19433,1,0,0:0:0:0:
256,192,19521,1,8,0:0:0:0:
256,192,19610,1,8,0:0:0:0:
256,192,19698,1,0,0:0:0:0:
256,192,19786,1,8,0:0:0:0:
256,192,19963,1,0,0:0:0:0:
256,192,20139,1,8,0:0:0:0:
256,192,20316,1,0,0:0:0:0:
256,192,20404,1,8,0:0:0:0:
256,192,20580,1,0,0:0:0:0:
256,192,20669,1,0,0:0:0:0:
256,192,20757,1,0,0:0:0:0:
256,192,20845,1,8,0:0:0:0:
256,192,21021,1,0,0:0:0:0:
256,192,21198,1,8,0:0:0:0:
256,192,21374,1,0,0:0:0:0:
256,192,21551,1,8,0:0:0:0:
256,192,21727,1,0,0:0:0:0:
256,192,21816,1,8,0:0:0:0:
256,192,21992,1,0,0:0:0:0:
256,192,22169,1,0,0:0:0:0:
256,192,22257,1,8,0:0:0:0:
256,192,22433,1,8,0:0:0:0:
256,192,22610,1,0,0:0:0:0:
256,192,22786,1,0,0:0:0:0:
256,192,22963,1,8,0:0:0:0:
256,192,23139,1,0,0:0:0:0:
256,192,23227,1,8,0:0:0:0:
256,192,23316,1,0,0:0:0:0:
256,192,23492,1,8,0:0:0:0:
256,192,23580,1,8,0:0:0:0:
256,192,23669,1,0,0:0:0:0:
256,192,23757,1,0,0:0:0:0:
256,192,23845,1,8,0:0:0:0:
256,192,24021,1,0,0:0:0:0:
256,192,24198,1,8,0:0:0:0:
256,192,24374,1,8,0:0:0:0:
256,192,24551,1,0,0:0:0:0:
256,192,24639,1,8,0:0:0:0:
256,192,24816,1,0,0:0:0:0:
256,192,24992,1,0,0:0:0:0:
256,192,25080,1,0,0:0:0:0:
256,192,25169,1,0,0:0:0:0:
256,192,25257,1,8,0:0:0:0:
256,192,25345,1,8,0:0:0:0:
256,192,25433,1,8,0:0:0:0:
256,192,25610,1,0,0:0:0:0:
256,192,25786,1,8,0:0:0:0:
256,192,25963,1,8,0:0:0:0:
256,192,26051,1,8,0:0:0:0:
256,192,26227,1,0,0:0:0:0:
256,192,26316,1,8,0:0:0:0:
256,192,26404,1,8,0:0:0:0:
256,192,26492,1,8,0:0:0:0:
256,192,26669,1,0,0:0:0:0:
256,192,26845,1,0,0:0:0:0:
256,192,27021,1,8,0:0:0:0:
256,192,27198,1,8,0:0:0:0:
256,192,27374,1,8,0:0:0:0:
256,192,27463,1,8,0:0:0:0:
256,192,27639,1,0,0:0:0:0:
256,192,27904,1,8,0:0:0:0:
256,192,28080,1,8,0:0:0:0:
256,192,28257,1,8,0:0:0:0:
256,192,28433,1,0,0:0:0:0:
256,192,28610,1,8,0:0:0:0:
256,192,28786,1,8,0:0:0:0:
256,192,28874,1,8,0:0:0:0:
256,192,29139,1,8,0:0:0:0:
256,192,29227,1,0,0:0:0:0:
256,192,29316,1,8,0:0:0:0:
256,192,29492,1,0,0:0:0:0:
256,192,29669,1,0,0:0:0:0:
256,192,29845,1,8,0:0:0:0:
256,192,30021,1,8,0:0:0:0:
256,192,30198,1,0,0:0:0:0:
256,192,30286,1,8,0:0:0:0:
256,192,30463,1,8,0:0:0:0:
256,192,30639,1,0,0:0:0:0:
256,192,30727,1,8,0:0:0:0:
256,192,30816,1,8,0:0:0:0:
256,192,30904,1,0,0:0:0:0:
256,192,30992,1,8,0:0:0:0:
256,192,31080,1,0,0:0:0:0:
256,192,31257,1,0,0:0:0:0:
256,192,31433,1,8,0:0:0:0:
256,192,31610,1,8,0:0:0:0:
256,192,31698,1,8,0:0:0:0:
256,192,31874,1,0,0:0:0:0:
256,192,31963,1,8,0:0:0:0:
256,192,32051,1,8,0:0:0:0:
256,192,32139,1,8,0:0:0:0:
256,192,32316,1,0,0:0:0:0:
256,192,32492,1,8,0:0:0:0:
256,192,32669,1,8,0:0:0:0:
256,192,32845,1,8,0:0:0:0:
256,192,33021,1,0,0:0:0:0:
256,192,33110,1,8,0:0:0:0:
256,192,33286,1,0,0:0:0:0:
256,192,33551,1,8,0:0:0:0:
256,192,33639,1,0,0:0:0:0:
256,192,33727,1,8,0:0:0:0:
256,192,33904,1,8,0:0:0:0:
256,192,34080,1,0,0:0:0:0:
256,192,34257,1,0,0:0:0:0:
256,192,34433,1,0,0:0:0:0:
256,192,34521,1,0,0:0:0:0:
256,192,34698,1,8,0:0:0:0:
256,192,34786,1,8,0:0:0:0:
256,192,34874,1,8,0:0:0:0:
256,192,34963,1,0,0:0:0:0:
256,192,35139,1,0,0:0:0:0:
256,192,35316,1,8,0:0:0:0:
256,192,35492,1,0,0:0:0:0:
256,192,35669,1,8,0:0:0:0:
256,192,35845,1,0,0:0:0:0:
256,192,35933,1,8,0:0:0:0:
256,192,36110,1,0,0:0:0:0:
256,192,36198,1,8,0:0:0:0:
256,192,36374,1,0,0:0:0:0:
256,192,36463,1,0,0:0:0:0:
256,192,36551,1,0,0:0:0:0:
256,192,36639,1,8,0:0:0:0:
256,192,36727,1,8,0:0:0:0:
256,192,37257,1,8,0:0:0:0:
256,192,38316,1,0,0:0:0:0:
256,192,38492,1,8,0:0:0:0:
256,192,38669,1,0,0:0:0:0:
256,192,38845,1,8,0:0:0:0:
256,192,38874,1,8,0:0:0:0:
256,192,39110,1,8,0:0:0:0:
256,192,39374,1,0,0:0:0:0:
256,192,39551,1,8,0:0:0:0:
256,192,40080,1,0,0:0:0:0:
256,192,40610,1,0,0:0:0:0:
256,192,40963,1,8,0:0:0:0:
256,192,40992,1,8,0:0:0:0:
256,192,41492,1,0,0:0:0:0:
256,192,41845,1,0,0:0:0:0:
256,192,42021,1,8,0:0:0:0:
256,192,42198,1,8,0:0:0:0:
256,192,42374,1,4,0:0:0:0:
256,192,42904,1,8,0:0:0:0:
256,192,43433,1,0,0:0:0:0:
256,192,43963,1,8,0:0:0:0:
256,192,44139,1,8,0:0:0:0:
256,192,44316,1,8,0:0:0:0:
256,192,44492,1,0,0:0:0:0:
256,192,44669,1,0,0:0:0:0:
256,192,44845,1,0,0:0:0:0:
256,192,45021,1,0,0:0:0:0:
256,192,45110,1,0,0:0:0:0:
256,192,45198,1,8,0:0:0:0:
256,192,45374,1,0,0:0:0:0:
256,192,45551,1,0,0:0:0:0:
256,192,45727,1,8,0:0:0:0:
256,192,45904,1,8,0:0:0:0:
256,192,46080,1,0,0:0:0:0:
256,192,46257,1,8,0:0:0:0:
256,192,46433,1,0,0:0:0:0:
256,192,46610,1,8,0:0:0:0:
256,192,46698,1,0,0:0:0:0:
256,192,46786,1,8,0:0:0:0:
256,192,46874,1,0,0:0:0:0:
256,192,47051,1,0,0:0:0:0:
256,192,47139,1,8,0:0:0:0:
256,192,47227,1,8,0:0:0:0:
256,192,47316,1,0,0:0:0:0:
256,192,47404,1,0,0:0:0:0:
256,192,47492,1,8,0:0:0:0:
256,192,47580,1,8,0:0:0:0:
256,192,47669,1,8,0:0:0:0:
256,192,47757,1,0,0:0:0:0:
256,192,47845,1,0,0:0:0:0:
256,192,47933,1,0,0:0:0:0:
256,192,48021,1,8,0:0:0:0:
256,192,48551,1,0,0:0:0:0:
256,192,48639,1,0,0:0:0:0:
256,192,48727,1,8,0:0:0:0:
256,192,48904,1,0,0:0:0:0:
256,192,49080,1,8,0:0:0:0:
256,192,49257,1,8,0:0:0:0:
256,192,49962,1,0,0:0:0:0:
256,192,50051,1,0,0:0:0:0:
256,192,50139,1,0,0:0:0:0:
256,192,50227,1,8,0:0:0:0:
256,192,50316,1,8,0:0:0:0:
256,192,50404,1,8,0:0:0:0:
256,192,50492,1,0,0:0:0:0:
256,192,50580,1,0,0:0:0:0:
256,192,50669,1,8,0:0:0:0:
256,192,50757,1,0,0:0:0:0:
256,192,50845,1,8,0:0:0:0:
256,192,50933,1,0,0:0:0:0:
256,192,51021,1,0,0:0:0:0:
256,192,51110,1,8,0:0:0:0:
256,192,51198,1,0,0:0:0:0:
256,192,51286,1,0,0:0:0:0:
256,192,51374,1,8,0:0:0:0:
256,192,51463,1,0,0:0:0:0:
256,192,51551,1,0,0:0:0:0:
256,192,51639,1,0,0:0:0:0:
256,192,51727,1,8,0:0:0:0:
256,192,51816,1,8,0:0:0:0:
256,192,51904,1,8,0:0:0:0:
256,192,51992,1,0,0:0:0:0:
256,192,52080,1,8,0:0:0:0:
256,192,52257,1,0,0:0:0:0:
256,192,52433,1,0,0:0:0:0:
256,192,52610,1,8,0:0:0:0:
256,192,52698,1,8,0:0:0:0:
256,192,52786,1,8,0:0:0:0:
256,192,52963,1,0,0:0:0:0:
256,192,53139,1,0,0:0:0:0:
256,192,53316,1,0,0:0:0:0:
256,192,53404,1,8,0:0:0:0:
256,192,53492,1,8,0:0:0:0:
256,192,53669,1,0,0:0:0:0:
256,192,54198,1,8,0:0:0:0:
256,192,54286,1,0,0:0:0:0:
256,192,54374,1,0,0:0:0:0:
256,192,54551,1,8,0:0:0:0:
256,192,54727,1,8,0:0:0:0:
256,192,54904,1,8,0:0:0:0:
256,192,55080,1,0,0:0:0:0:
256,192,55610,1,0,0:0:0:0:
256,192,55698,1,0,0:0:0:0:
256,192,55786,1,8,0:0:0:0:
256,192,55874,1,8,0:0:0:0:
256,192,55963,1,8,0:0:0:0:
256,192,56051,1,0,0:0:0:0:
256,192,56139,1,8,0:0:0:0:
256,192,56227,1,0,0:0:0:0:
256,192,56316,1,0,0:0:0:0:
256,192,56404,1,0,0:0:0:0:
256,192,56492,1,8,0:0:0:0:
256,192,56580,1,0,0:0:0:0:
256,192,56669,1,0,0:0:0:0:
256,192,56757,1,8,0:0:0:0:
256,192,56845,1,0,0:0:0:0:
256,192,56933,1,0,0:0:0:0:
256,192,57021,1,8,0:0:0:0:
256,192,57110,1,8,0:0:0:0:
256,192,57198,1,0,0:0:0:0:
256,192,57286,1,0,0:0:0:0:
256,192,57374,1,8,0:0:0:0:
256,192,57463,1,0,0:0:0:0:
256,192,57551,1,8,0:0:0:0:
256,192,57639,1,8,0:0:0:0:
256,192,57727,1,8,0:0:0:0:
256,192,57816,1,0,0:0:0:0:
256,192,57904,1,8,0:0:0:0:
256,192,57992,1,0,0:0:0:0:
256,192,58080,1,0,0:0:0:0:
256,192,58169,1,8,0:0:0:0:
256,192,58257,1,8,0:0:0:0:
256,192,58345,1,0,0:0:0:0:
256,192,58433,1,8,0:0:0:0:
256,192,58521,1,8,0:0:0:0:
256,192,58610,1,8,0:0:0:0:
256,192,58698,1,0,0:0:0:0:
256,192,58786,1,8,0:0:0:0:
256,192,58874,1,0,0:0:0:0:
256,192,58963,1,8,0:0:0:0:
256,192,59051,1,8,0:0:0:0:
256,192,59139,1,8,0:0:0:0:
256,192,59227,1,8,0:0:0:0:
256,192,59316,1,0,0:0:0:0:
256,192,59404,1,0,0:0:0:0:
256,192,59492,1,8,0:0:0:0:
256,192,59580,1,0,0:0:0:0:
256,192,59669,1,8,0:0:0:0:
256,192,59757,1,8,0:0:0:0:
256,192,59845,1,0,0:0:0:0:
256,192,59933,1,8,0:0:0:0:
256,192,60021,1,0,0:0:0:0:
256,192,60110,1,0,0:0:0:0:
256,192,60198,1,8,0:0:0:0:
256,192,60286,1,8,0:0:0:0:
256,192,60374,1,8,0:0:0:0:
256,192,60463,1,0,0:0:0:0:
256,192,60551,1,8,0:0:0:0:
256,192,60639,1,8,0:0:0:0:
256,192,60727,1,0,0:0:0:0:
256,192,60816,1,8,0:0:0:0:
256,192,60904,1,8,0:0:0:0:
256,192,60992,1,8,0:0:0:0:
256,192,61080,1,8,0:0:0:0:
256,192,61169,1,8,0:0:0:0:
256,192,61257,1,8,0:0:0:0:
256,192,61345,1,0,0:0:0:0:
256,192,61433,1,0,0:0:0:0:
256,192,61610,1,0,0:0:0:0:
256,192,61786,1,8,0:0:0:0:
256,192,61845,1,8,0:0:0:0:
256,192,61904,1,8,0:0:0:0:
256,192,61963,1,0,0:0:0:0:
256,192,62139,1,0,0:0:0:0:
256,192,62316,1,0,0:0:0:0:
256,192,62492,1,0,0:0:0:0:
256,192,62580,1,0,0:0:0:0:
256,192,62669,1,0,0:0:0:0:
256,192,62757,1,8,0:0:0:0:
256,192,62933,1,0,0:0:0:0:
256,192,63021,1,8,0:0:0:0:
256,192,63198,1,0,0:0:0:0:
256,192,63286,1,0,0:0:0:0:
256,192,63374,1,0,0:0:0:0:
256,192,63463,1,8,0:0:0:0:
256,192,63639,1,0,0:0:0:0:
256,192,63727,1,8,0:0:0:0:
256,192,63904,1,0,0:0:0:0:
256,192,63992,1,0,0:0:0:0:
256,192,64080,1,8,0:0:0:0:
256,192,64169,1,8,0:0:0:0:
256,192,64345,1,8,0:0:0:0:
256,192,64433,1,8,0:0:0:0:
256,192,64610,1,0,0:0:0:0:
256,192,64698,1,8,0:0:0:0:
256,192,64786,1,8,0:0:0:0:
256,192,64874,1,0,0:0:0:0:
256,192,64963,1,0,0:0:0:0:
256,192,65051,1,8,0:0:0:0:
256,192,65139,1,0,0:0:0:0:
256,192,65227,1,0,0:0:0:0:
256,192,65316,1,0,0:0:0:0:
256,192,65404,1,0,0:0:0:0:
256,192,65492,1,8,0:0:0:0:
256,192,65580,1,8,0:0:0:0:
256,192,65757,1,8,0:0:0:0:
256,192,65845,1,0,0:0:0:0:
256,192,66021,1,0,0:0:0:0:
256,192,66110,1,0,0:0:0:0:
256,192,66198,1,8,0:0:0:0:
256,192,66286,1,8,0:0:0:0:
256,192,66463,1,0,0:0:0:0:
256,192,66551,1,0,0:0:0:0:
256,192,66727,1,0,0:0:0:0:
256,192,66816,1,0,0:0:0:0:
256,192,66904,1,8,0:0:0:0:
256,192,66992,1,8,0:0:0:0:
256,192,67080,1,0,0:0:0:0:
256,192,67169,1,8,0:0:0:0:
256,192,67257,1,0,0:0:0:0:
256,192,67345,1,8,0:0:0:0:
256,192,67433,1,8,0:0:0:0:
256,192,67521,1,0,0:0:0:0:
256,192,67610,1,0,0:0:0:0:
256,192,67698,1,8,0:0:0:0:
192,64,67786,1,4,0:0:0:0:
256,192,67963,1,8,0:0:0:0:
192,64,68139,1,0,0:0:0:0:
256,192,68227,1,0,0:0:0:0:
256,192,68316,1,8,0:0:0:0:
256,192,68404,1,8,0:0:0:0:
192,64,68492,1,0,0:0:0:0:
256,192,68580,1,8,0:0:0:0:
256,192,68669,1,0,0:0:0:0:
192,64,68845,1,0,0:0:0:0:
256,192,68933,1,8,0:0:0:0:
256,192,69021,1,8,0:0:0:0:
256,192,69110,1,0,0:0:0:0:
192,64,69198,1,0,0:0:0:0:
256,192,69286,1,8,0:0:0:0:
256,192,69374,1,0,0:0:0:0:
192,64,69551,1,0,0:0:0:0:
256,192,69639,1,0,0:0:0:0:
256,192,69727,1,8,0:0:0:0:
256,192,69816,1,8,0:0:0:0:
192,64,69904,1,0,0:0:0:0:
256,192,69992,1,8,0:0:0:0:
256,192,70080,1,8,0:0:0:0:
192,64,70257,1,0,0:0:0:0:
256,192,70345,1,8,0:0:0:0:
256,192,70433,1,8,0:0:0:0:
256,192,70521,1,0,0:0:0:0:
192,64,70610,1,0,0:0:0:0:
192,64,70786,1,0,0:0:0:0:
192,64,70963,1,0,0:0:0:0:
256,192,71051,1,0,0:0:0:0:
256,192,71139,1,8,0:0:0:0:
256,192,71227,1,8,0:0:0:0:
192,64,71316,1,0,0:0:0:0:
256,192,71404,1,0,0:0:0:0:
256,192,71492,1,8,0:0:0:0:
192,64,71669,1,0,0:0:0:0:
256,192,71757,1,0,0:0:0:0:
256,192,71845,1,0,0:0:0:0:
256,192,71933,1,8,0:0:0:0:
192,64,72021,1,0,0:0:0:0:
256,192,72110,1,8,0:0:0:0:
256,192,72198,1,8,0:0:0:0:
256,192,72286,1,8,0:0:0:0:
192,64,72374,1,0,0:0:0:0:
256,192,72463,1,0,0:0:0:0:
256,192,72551,1,8,0:0:0:0:
256,192,72639,1,8,0:0:0:0:
192,64,72727,1,0,0:0:0:0:
256,192,72904,1,8,0:0:0:0:
256,192,72963,1,8,0:0:0:0:
256,192,73021,1,8,0:0:0:0:
256,192,73080,1,0,0:0:0:0:
256,192,73433,1,0,0:0:0:0:
256,192,73610,1,0,0:0:0:0:
256,192,73786,1,8,0:0:0:0:
256,192,73963,1,0,0:0:0:0:
256,192,74051,1,8,0:0:0:0:
256,192,74227,1,0,0:0:0:0:
256,192,74404,1,0,0:0:0:0:
256,192,74492,1,8,0:0:0:0:
256,192,74669,1,8,0:0:0:0:
256,192,74845,1,0,0:0:0:0:
256,192,75021,1,0,0:0:0:0:
256,192,75198,1,8,0:0:0:0:
256,192,75374,1,8,0:0:0:0:
256,192,75463,1,0,0:0:0:0:
256,192,75639,1,8,0:0:0:0:
256,192,75816,1,8,0:0:0:0:
256,192,75904,1,0,0:0:0:0:
256,192,76080,1,8,0:0:0:0:
256,192,76257,1,0,0:0:0:0:
256,192,76433,1,0,0:0:0:0:
256,192,76610,1,8,0:0:0:0:
256,192,76786,1,0,0:0:0:0:
256,192,76874,1,8,0:0:0:0:
256,192,77051,1,8,0:0:0:0:
256,192,77227,1,0,0:0:0:0:
256,192,77316,1,8,0:0:0:0:
256,192,77492,1,8,0:0:0:0:
256,192,77669,1,0,0:0:0:0:
256,192,77845,1,8,0:0:0:0:
256,192,78021,1,8,0:0:0:0:
256,192,78198,1,8,0:0:0:0:
256,192,78286,1,0,0:0:0:0:
256,192,78463,1,8,0:0:0:0:
256,192,78639,1,0,0:0:0:0:
256,192,78727,1,8,0:0:0:0:
256,192,78904,1,8,0:0:0:0:
192,96,79080,1,0,0:0:0:0:
256,192,79257,1,8,0:0:0:0:
256,192,79433,1,8,0:0:0:0:
192,96,79610,1,0,0:0:0:0:
256,192,79698,1,8,0:0:0:0:
256,192,79874,1,0,0:0:0:0:
192,96,79963,1,0,0:0:0:0:
256,192,80051,1,8,0:0:0:0:
256,192,80139,1,8,0:0:0:0:
256,192,80316,1,8,0:0:0:0:
192,96,80492,1,0,0:0:0:0:
256,192,80669,1,0,0:0:0:0:
192,96,80757,1,0,0:0:0:0:
256,192,80845,1,8,0:0:0:0:
192,96,81021,1,0,0:0:0:0:
256,192,81110,1,8,0:0:0:0:
256,192,81286,1,8,0:0:0:0:
192,96,81374,1,0,0:0:0:0:
256,192,81551,1,8,0:0:0:0:
192,96,81639,1,0,0:0:0:0:
256,192,81727,1,8,0:0:0:0:
192,96,81904,1,0,0:0:0:0:
256,192,82080,1,8,0:0:0:0:
256,192,82257,1,0,0:0:0:0:
192,96,82433,1,0,0:0:0:0:
256,192,82521,1,8,0:0:0:0:
256,192,82698,1,8,0:0:0:0:
192,96,82786,1,0,0:0:0:0:
256,192,82874,1,0,0:0:0:0:
256,192,82963,1,8,0:0:0:0:
256,192,83139,1,8,0:0:0:0:
192,96,83316,1,0,0:0:0:0:
192,96,83580,1,0,0:0:0:0:
256,192,83757,1,8,0:0:0:0:
192,96,83845,1,0,0:0:0:0:
192,96,84021,1,0,0:0:0:0:
256,192,84110,1,8,0:0:0:0:
192,96,84198,1,0,0:0:0:0:
256,192,84286,1,8,0:0:0:0:
256,192,84374,1,8,0:0:0:0:
256,192,84433,1,8,0:0:0:0:
256,192,84492,1,8,0:0:0:0:
256,192,84551,1,0,0:0:0:0:
192,96,84727,1,0,0:0:0:0:
256,192,84904,1,8,0:0:0:0:
352,96,85080,1,0,0:0:0:0:
256,192,85257,1,0,0:0:0:0:
256,192,85345,1,8,0:0:0:0:
352,96,85521,1,0,0:0:0:0:
256,192,85698,1,8,0:0:0:0:
352,96,85786,1,0,0:0:0:0:
256,192,85963,1,8,0:0:0:0:
192,96,86139,1,0,0:0:0:0:
256,192,86227,1,8,0:0:0:0:
256,192,86316,1,8,0:0:0:0:
352,96,86492,1,0,0:0:0:0:
256,192,86669,1,0,0:0:0:0:
256,192,86757,1,8,0:0:0:0:
256,192,86933,1,0,0:0:0:0:
256,192,87110,1,8,0:0:0:0:
352,96,87198,1,0,0:0:0:0:
256,192,87374,1,8,0:0:0:0:
192,96,87551,1,0,0:0:0:0:
256,192,87727,1,8,0:0:0:0:
352,96,87904,1,0,0:0:0:0:
256,192,88080,1,8,0:0:0:0:
256,192,88169,1,8,0:0:0:0:
352,96,88345,1,8,0:0:0:0:
256,192,88521,1,8,0:0:0:0:
352,96,88610,1,0,0:0:0:0:
256,192,88786,1,8,0:0:0:0:
192,96,88963,1,0,0:0:0:0:
256,192,89139,1,0,0:0:0:0:
256,192,89316,1,8,0:0:0:0:
256,192,89492,1,0,0:0:0:0:
256,192,89580,1,8,0:0:0:0:
352,96,89757,1,0,0:0:0:0:
256,192,89933,1,8,0:0:0:0:
192,96,90021,1,0,0:0:0:0:
256,192,90110,1,0,0:0:0:0:
256,192,90198,1,8,0:0:0:0:
256,192,90286,1,8,0:0:0:0:
192,96,90374,1,0,0:0:0:0:
256,192,90551,1,0,0:0:0:0:
352,96,90727,1,0,0:0:0:0:
256,192,90904,1,0,0:0:0:0:
256,192,90992,1,8,0:0:0:0:
352,96,91169,1,8,0:0:0:0:
256,192,91345,1,8,0:0:0:0:
192,96,91433,1,8,0:0:0:0:
256,192,91521,1,0,0:0:0:0:
256,192,91610,1,8,0:0:0:0:
256,192,91698,1,8,0:0:0:0:
192,96,91786,1,0,0:0:0:0:
256,192,91963,1,0,0:0:0:0:
192,96,92139,1,0,0:0:0:0:
256,192,92316,1,8,0:0:0:0:
256,192,92404,1,8,0:0:0:0:
192,96,92492,1,0,0:0:0:0:
256,192,92580,1,8,0:0:0:0:
256,192,92757,1,0,0:0:0:0:
192,96,92845,1,0,0:0:0:0:
256,192,93021,1,8,0:0:0:0:
192,96,93198,1,0,0:0:0:0:
192,96,93374,1,0,0:0:0:0:
192,96,93551,1,0,0:0:0:0:
256,192,93727,1,8,0:0:0:0:
256,192,93816,1,0,0:0:0:0:
192,96,93904,1,0,0:0:0:0:
192,96,94080,1,0,0:0:0:0:
192,96,94257,1,0,0:0:0:0:
256,192,94433,1,8,0:0:0:0:
256,192,94610,1,0,0:0:0:0:
256,192,94698,1,8,0:0:0:0:
256,192,94786,1,8,0:0:0:0:
256,192,94874,1,8,0:0:0:0:
256,192,94963,1,8,0:0:0:0:
256,192,95051,1,8,0:0:0:0:
256,192,95139,1,8,0:0:0:0:
256,192,95227,1,8,0:0:0:0:
256,192,95316,1,8,0:0:0:0:
256,192,95404,1,0,0:0:0:0:
256,192,95492,1,0,0:0:0:0:
256,192,95580,1,0,0:0:0:0:
256,192,95669,1,0,0:0:0:0:
256,192,95757,1,0,0:0:0:0:
256,192,95845,1,0,0:0:0:0:
256,192,95933,1,0,0:0:0:0:
256,192,96021,1,12,0:0:0:0:
256,192,96198,1,8,0:0:0:0:
256,192,96286,1,0,0:0:0:0:
256,192,96374,1,8,0:0:0:0:
256,192,96463,1,8,0:0:0:0:
256,192,96551,1,0,0:0:0:0:
256,192,96639,1,8,0:0:0:0:
256,192,96727,1,0,0:0:0:0:
256,192,96816,1,0,0:0:0:0:
256,192,96904,1,8,0:0:0:0:
256,192,96992,1,8,0:0:0:0:
256,192,97080,1,0,0:0:0:0:
256,192,97169,1,8,0:0:0:0:
256,192,97257,1,0,0:0:0:0:
256,192,97345,1,8,0:0:0:0:
256,192,97433,1,8,0:0:0:0:
256,192,97521,1,0,0:0:0:0:
256,192,97610,1,0,0:0:0:0:
256,192,97698,1,8,0:0:0:0:
256,192,97786,1,0,0:0:0:0:
256,192,97874,1,0,0:0:0:0:
256,192,97963,1,8,0:0:0:0:
256,192,98051,1,8,0:0:0:0:
256,192,98139,1,0,0:0:0:0:
256,192,98227,1,8,0:0:0:0:
256,192,98316,1,8,0:0:0:0:
256,192,98404,1,0,0:0:0:0:
256,192,98492,1,8,0:0:0:0:
256,192,98580,1,8,0:0:0:0:
256,192,98669,1,8,0:0:0:0:
256,192,98757,1,8,0:0:0:0:
256,192,99021,1,8,0:0:0:0:
256,192,99110,1,0,0:0:0:0:
256,192,99198,1,8,0:0:0:0:
256,192,99286,1,8,0:0:0:0:
256,192,99374,1,0,0:0:0:0:
256,192,99463,1,8,0:0:0:0:
256,192,99551,1,8,0:0:0:0:
256,192,99639,1,0,0:0:0:0:
256,192,99727,1,0,0:0:0:0:
256,192,99816,1,0,0:0:0:0:
256,192,99904,1,8,0:0:0:0:
256,192,99992,1,8,0:0:0:0:
256,192,100080,1,8,0:0:0:0:
256,192,100169,1,0,0:0:0:0:
256,192,100257,1,8,0:0:0:0:
256,192,100345,1,8,0:0:0:0:
256,192,100433,1,0,0:0:0:0:
256,192,100521,1,8,0:0:0:0:
256,192,100610,1,8,0:0:0:0:
256,192,100698,1,0,0:0:0:0:
256,192,100786,1,8,0:0:0:0:
256,192,100874,1,8,0:0:0:0:
256,192,100963,1,0,0:0:0:0:
256,192,101051,1,0,0:0:0:0:
256,192,101139,1,0,0:0:0:0:
256,192,101227,1,8,0:0:0:0:
256,192,101316,1,8,0:0:0:0:
256,192,101404,1,0,0:0:0:0:
256,192,101492,1,8,0:0:0:0:
256,192,101669,1,12,0:0:0:0:
256,192,101845,1,8,0:0:0:0:
256,192,101933,1,0,0:0:0:0:
256,192,102021,1,8,0:0:0:0:
256,192,102110,1,8,0:0:0:0:
256,192,102198,1,0,0:0:0:0:
256,192,102286,1,8,0:0:0:0:
256,192,102374,1,8,0:0:0:0:
256,192,102463,1,0,0:0:0:0:
256,192,102551,1,0,0:0:0:0:
256,192,102639,1,8,0:0:0:0:
256,192,102727,1,0,0:0:0:0:
256,192,102816,1,8,0:0:0:0:
256,192,102904,1,8,0:0:0:0:
256,192,102992,1,0,0:0:0:0:
256,192,103080,1,8,0:0:0:0:
256,192,103169,1,8,0:0:0:0:
256,192,103257,1,0,0:0:0:0:
256,192,103345,1,8,0:0:0:0:
256,192,103433,1,8,0:0:0:0:
256,192,103521,1,0,0:0:0:0:
256,192,103610,1,8,0:0:0:0:
256,192,103698,1,0,0:0:0:0:
256,192,103786,1,0,0:0:0:0:
256,192,103874,1,8,0:0:0:0:
256,192,103963,1,8,0:0:0:0:
256,192,104051,1,0,0:0:0:0:
256,192,104139,1,8,0:0:0:0:
256,192,104227,1,0,0:0:0:0:
256,192,104316,1,8,0:0:0:0:
256,192,104404,1,8,0:0:0:0:
256,192,104669,1,8,0:0:0:0:
256,192,104757,1,0,0:0:0:0:
256,192,104845,1,8,0:0:0:0:
256,192,104933,1,8,0:0:0:0:
256,192,105021,1,0,0:0:0:0:
256,192,105110,1,8,0:0:0:0:
256,192,105198,1,8,0:0:0:0:
256,192,105286,1,0,0:0:0:0:
256,192,105374,1,8,0:0:0:0:
256,192,105463,1,0,0:0:0:0:
256,192,105551,1,0,0:0:0:0:
256,192,105639,1,8,0:0:0:0:
256,192,105727,1,8,0:0:0:0:
256,192,105816,1,0,0:0:0:0:
256,192,105904,1,8,0:0:0:0:
256,192,105992,1,0,0:0:0:0:
256,192,106080,1,8,0:0:0:0:
256,192,106169,1,8,0:0:0:0:
256,192,106257,1,8,0:0:0:0:
256,192,106345,1,0,0:0:0:0:
256,192,106433,1,0,0:0:0:0:
256,192,106521,1,8,0:0:0:0:
256,192,106610,1,8,0:0:0:0:
256,192,106698,1,0,0:0:0:0:
256,192,106786,1,8,0:0:0:0:
256,192,106874,1,8,0:0:0:0:
256,192,106963,1,8,0:0:0:0:
256,192,107051,1,8,0:0:0:0:
256,192,107139,1,8,0:0:0:0:
256,192,107316,1,12,0:0:0:0:
256,192,107492,1,8,0:0:0:0:
256,192,107580,1,0,0:0:0:0:
256,192,107669,1,8,0:0:0:0:
256,192,107757,1,8,0:0:0:0:
256,192,107845,1,0,0:0:0:0:
256,192,107933,1,8,0:0:0:0:
256,192,108021,1,8,0:0:0:0:
256,192,108110,1,0,0:0:0:0:
256,192,108198,1,8,0:0:0:0:
256,192,108286,1,8,0:0:0:0:
256,192,108374,1,0,0:0:0:0:
256,192,108463,1,8,0:0:0:0:
256,192,108551,1,8,0:0:0:0:
256,192,108639,1,8,0:0:0:0:
256,192,108727,1,8,0:0:0:0:
256,192,108816,1,0,0:0:0:0:
256,192,108904,1,0,0:0:0:0:
256,192,108992,1,8,0:0:0:0:
256,192,109080,1,8,0:0:0:0:
256,192,109169,1,0,0:0:0:0:
256,192,109257,1,8,0:0:0:0:
256,192,109345,1,8,0:0:0:0:
256,192,109433,1,0,0:0:0:0:
256,192,109521,1,8,0:0:0:0:
256,192,109610,1,8,0:0:0:0:
256,192,109698,1,0,0:0:0:0:
256,192,109786,1,8,0:0:0:0:
256,192,109874,1,8,0:0:0:0:
256,192,109963,1,0,0:0:0:0:
256,192,110227,1,8,0:0:0:0:
256,192,110316,1,8,0:0:0:0:
256,192,110404,1,0,0:0:0:0:
256,192,110492,1,8,0:0:0:0:
256,192,110580,1,8,0:0:0:0:
256,192,110669,1,0,0:0:0:0:
256,192,110757,1,8,0:0:0:0:
256,192,110845,1,0,0:0:0:0:
256,192,110933,1,0,0:0:0:0:
256,192,111021,1,0,0:0:0:0:
256,192,111110,1,8,0:0:0:0:
256,192,111198,1,0,0:0:0:0:
256,192,111286,1,0,0:0:0:0:
256,192,111374,1,8,0:0:0:0:
256,192,111463,1,8,0:0:0:0:
256,192,111551,1,8,0:0:0:0:
256,192,111639,1,8,0:0:0:0:
256,192,111727,1,0,0:0:0:0:
256,192,111816,1,0,0:0:0:0:
256,192,111904,1,8,0:0:0:0:
256,192,111992,1,0,0:0:0:0:
256,192,112080,1,8,0:0:0:0:
256,192,112169,1,8,0:0:0:0:
256,192,112257,1,0,0:0:0:0:
256,192,112345,1,8,0:0:0:0:
256,192,112433,1,8,0:0:0:0:
256,192,112521,1,0,0:0:0:0:
256,192,112610,1,8,0:0:0:0:
256,192,112698,1,8,0:0:0:0:
256,192,112786,1,8,0:0:0:0:
256,192,112963,1,4,0:0:0:0:
256,192,113139,1,8,0:0:0:0:
256,192,113227,1,8,0:0:0:0:
256,192,113316,1,8,0:0:0:0:
256,192,113404,1,0,0:0:0:0:
256,192,113492,1,8,0:0:0:0:
256,192,113580,1,8,0:0:0:0:
256,192,113669,1,8,0:0:0:0:
256,192,113757,1,0,0:0:0:0:
256,192,113845,1,8,0:0:0:0:
256,192,113933,1,8,0:0:0:0:
256,192,114021,1,0,0:0:0:0:
256,192,114110,1,8,0:0:0:0:
256,192,114198,1,8,0:0:0:0:
256,192,114286,1,0,0:0:0:0:
256,192,114374,1,8,0:0:0:0:
256,192,114463,1,8,0:0:0:0:
256,192,114551,1,0,0:0:0:0:
256,192,114639,1,8,0:0:0:0:
256,192,114727,1,8,0:0:0:0:
256,192,114816,1,0,0:0:0:0:
256,192,114904,1,8,0:0:0:0:
256,192,114992,1,8,0:0:0:0:
256,192,115080,1,0,0:0:0:0:
256,192,115169,1,8,0:0:0:0:
256,192,115257,1,8,0:0:0:0:
256,192,115345,1,0,0:0:0:0:
256,192,115433,1,8,0:0:0:0:
256,192,115521,1,8,0:0:0:0:
256,192,115610,1,8,0:0:0:0:
256,192,115698,1,8,0:0:0:0:
256,192,115963,1,8,0:0:0:0:
256,192,116051,1,0,0:0:0:0:
256,192,116139,1,8,0:0:0:0:
256,192,116227,1,8,0:0:0:0:
256,192,116316,1,0,0:0:0:0:
256,192,116404,1,8,0:0:0:0:
256,192,116492,1,8,0:0:0:0:
256,192,116580,1,0,0:0:0:0:
256,192,116669,1,8,0:0:0:0:
256,192,116757,1,8,0:0:0:0:
256,192,116845,1,0,0:0:0:0:
256,192,116933,1,0,0:0:0:0:
256,192,117021,1,8,0:0:0:0:
256,192,117110,1,8,0:0:0:0:
256,192,117198,1,0,0:0:0:0:
256,192,117286,1,8,0:0:0:0:
256,192,117374,1,8,0:0:0:0:
256,192,117463,1,8,0:0:0:0:
256,192,117551,1,0,0:0:0:0:
256,192,117639,1,8,0:0:0:0:
256,192,117727,1,8,0:0:0:0:
256,192,117816,1,8,0:0:0:0:
256,192,117904,1,8,0:0:0:0:
256,192,117992,1,8,0:0:0:0:
256,192,118080,1,8,0:0:0:0:
256,192,118169,1,8,0:0:0:0:
256,192,118257,1,8,0:0:0:0:
256,192,118345,1,0,0:0:0:0:
256,192,118433,1,0,0:0:0:0:
256,192,118521,1,0,0:0:0:0:
256,192,118610,1,8,0:0:0:0:
256,192,119139,1,8,0:0:0:0:
256,192,119492,1,0,0:0:0:0:
256,192,119580,1,0,0:0:0:0:
256,192,119669,1,8,0:0:0:0:
256,192,120021,1,0,0:0:0:0:
256,192,120198,1,0,0:0:0:0:
256,192,120286,1,0,0:0:0:0:
256,192,120374,1,8,0:0:0:0:
256,192,120727,1,0,0:0:0:0:
256,192,120904,1,0,0:0:0:0:
256,192,120992,1,0,0:0:0:0:
256,192,121080,1,8,0:0:0:0:
256,192,121433,1,8,0:0:0:0:
256,192,121610,1,0,0:0:0:0:
256,192,121698,1,0,0:0:0:0:
256,192,121786,1,8,0:0:0:0:
256,192,122139,1,0,0:0:0:0:
256,192,122316,1,0,0:0:0:0:
256,192,122404,1,0,0:0:0:0:
256,192,122492,1,8,0:0:0:0:
256,192,122845,5,0,0:0:0:0:
256,192,123551,1,8,0:0:0:0:
256,192,123727,1,0,0:0:0:0:
256,192,123816,1,8,0:0:0:0:
256,192,123904,1,8,0:0:0:0:
256,192,124080,1,0,0:0:0:0:
256,192,124169,1,0,0:0:0:0:
256,192,124257,1,8,0:0:0:0:
256,192,124786,1,8,0:0:0:0:
256,192,125845,5,8,0:0:0:0:
256,192,126021,1,8,0:0:0:0:
256,192,126198,1,8,0:0:0:0:
256,192,126374,1,8,0:0:0:0:
256,192,126551,1,0,0:0:0:0:
256,192,126727,1,0,0:0:0:0:
256,192,126904,1,0,0:0:0:0:
256,192,126992,1,0,0:0:0:0:
256,192,127080,1,8,0:0:0:0:
256,192,127257,1,0,0:0:0:0:
256,192,127433,1,0,0:0:0:0:
256,192,127610,1,8,0:0:0:0:
256,192,127786,1,8,0:0:0:0:
256,192,127963,1,0,0:0:0:0:
256,192,128139,1,8,0:0:0:0:
256,192,128316,1,0,0:0:0:0:
256,192,128404,1,0,0:0:0:0:
256,192,128492,1,8,0:0:0:0:
256,192,128669,1,8,0:0:0:0:
256,192,128757,1,0,0:0:0:0:
256,192,128845,1,8,0:0:0:0:
256,192,129021,1,8,0:0:0:0:
256,192,129110,1,8,0:0:0:0:
256,192,129198,1,8,0:0:0:0:
256,192,129286,1,8,0:0:0:0:
256,192,129374,1,0,0:0:0:0:
256,192,129463,1,0,0:0:0:0:
256,192,129551,1,8,0:0:0:0:
256,192,129639,1,8,0:0:0:0:
256,192,129727,1,0,0:0:0:0:
256,192,129816,1,0,0:0:0:0:
256,192,129904,1,8,0:0:0:0:
256,192,130433,1,8,0:0:0:0:
256,192,130521,12,0,134139,0:0:0:0:
