osu file format v14

[General]
AudioFilename: audio.mp3
AudioLeadIn: 0
PreviewTime: 94610
Countdown: 0
SampleSet: Normal
StackLeniency: 0.7
Mode: 1
LetterboxInBreaks: 0
WidescreenStoryboard: 1

[Editor]
DistanceSpacing: 1
BeatDivisor: 4
GridSize: 32
TimelineZoom: 0.96

[Metadata]
Title:Uranium
TitleUnicode:Uranium
Artist:Memme
ArtistUnicode:Memme
Creator:zsPixel
Version:Futsuu
Source:
Tags:
BeatmapID:1749564
BeatmapSetID:831138

[Difficulty]
HPDrainRate:6.5
CircleSize:2
OverallDifficulty:4
ApproachRate:6
SliderMultiplier:1.4
SliderTickRate:1

[Events]
//Background and Video events
0,0,"Encounter.jpg",0,90
//Break Periods
//Storyboard Layer 0 (Background)
//Storyboard Layer 1 (Fail)
//Storyboard Layer 2 (Pass)
//Storyboard Layer 3 (Foreground)
//Storyboard Layer 4 (Overlay)
//Storyboard Sound Samples

[TimingPoints]
22,352.941176470588,4,1,0,10,1,0
2845,-100,4,1,0,100,0,0
96021,-100,4,1,0,100,0,1
118610,-100,4,1,0,100,0,0
118874,-100,4,1,0,70,0,0
124169,-100,4,1,0,80,0,0
130610,-100,4,1,0,100,0,0
130963,-100,4,1,0,90,0,0
131316,-100,4,1,0,80,0,0
131669,-100,4,1,0,70,0,0
132021,-100,4,1,0,60,0,0
132374,-100,4,1,0,50,0,0
132727,-100,4,1,0,40,0,0
133080,-100,4,1,0,30,0,0
133433,-100,4,1,0,20,0,0
133786,-100,4,1,0,10,0,0
134139,-100,4,1,0,5,0,0

[HitObjects]
256,192,1786,12,0,2492,0:0:0:0:
256,192,2845,5,0,0:0:0:0:
256,192,3198,1,8,0:0:0:0:
256,192,3904,1,8,0:0:0:0:
256,192,4610,1,8,0:0:0:0:
256,192,5316,1,0,0:0:0:0:
256,192,5492,1,8,0:0:0:0:
256,192,5669,1,0,0:0:0:0:
256,192,6021,1,8,0:0:0:0:
256,192,6727,1,8,0:0:0:0:
256,192,7433,1,8,0:0:0:0:
256,192,7786,1,8,0:0:0:0:
256,192,8492,1,4,0:0:0:0:
256,192,9198,1,0,0:0:0:0:
256,192,9904,1,0,0:0:0:0:
256,192,10610,1,0,0:0:0:0:
256,192,11316,1,4,0:0:0:0:
256,192,11669,1,0,0:0:0:0:
256,192,12021,1,0,0:0:0:0:
256,192,12374,1,0,0:0:0:0:
256,192,12727,1,12,0:0:0:0:
256,192,13433,1,0,0:0:0:0:
256,192,13786,1,8,0:0:0:0:
256,192,14139,1,8,0:0:0:0:
256,192,14492,1,0,0:0:0:0:
256,192,15198,1,0,0:0:0:0:
256,192,15551,1,0,0:0:0:0:
256,192,15904,1,8,0:0:0:0:
256,192,16257,1,0,0:0:0:0:
256,192,16610,1,8,0:0:0:0:
256,192,16963,1,0,0:0:0:0:
256,192,17669,1,0,0:0:0:0:
256,192,18021,1,8,0:0:0:0:
256,192,18374,1,0,0:0:0:0:
256,192,18727,1,8,0:0:0:0:
256,192,19080,1,0,0:0:0:0:
256,192,19786,1,4,0:0:0:0:
256,192,20139,1,8,0:0:0:0:
256,192,20492,1,0,0:0:0:0:
256,192,21198,1,12,0:0:0:0:
256,192,21551,1,8,0:0:0:0:
256,192,21904,1,0,0:0:0:0:
256,192,22257,1,8,0:0:0:0:
256,192,22610,1,4,0:0:0:0:
256,192,22963,1,0,0:0:0:0:
256,192,23316,1,8,0:0:0:0:
256,192,24021,1,0,0:0:0:0:
256,192,24374,1,8,0:0:0:0:
256,192,24727,1,0,0:0:0:0:
256,192,25080,1,0,0:0:0:0:
256,192,25433,1,8,0:0:0:0:
256,192,25786,1,0,0:0:0:0:
256,192,26845,1,0,0:0:0:0:
256,192,27198,1,8,0:0:0:0:
256,192,27551,1,8,0:0:0:0:
256,192,27904,1,8,0:0:0:0:
256,192,28257,1,0,0:0:0:0:
256,192,28610,1,0,0:0:0:0:
256,192,28963,1,8,0:0:0:0:
256,192,29669,1,0,0:0:0:0:
256,192,30021,1,8,0:0:0:0:
256,192,30374,1,0,0:0:0:0:
256,192,30727,1,8,0:0:0:0:
256,192,31080,1,4,0:0:0:0:
256,192,31433,1,0,0:0:0:0:
256,192,31786,1,8,0:0:0:0:
256,192,32492,1,4,0:0:0:0:
256,192,32845,1,8,0:0:0:0:
256,192,33198,1,8,0:0:0:0:
256,192,33551,1,0,0:0:0:0:
256,192,33904,1,12,0:0:0:0:
256,192,34257,1,0,0:0:0:0:
256,192,34610,1,0,0:0:0:0:
256,192,34963,1,8,0:0:0:0:
256,192,35316,1,0,0:0:0:0:
256,192,35669,1,8,0:0:0:0:
256,192,36021,1,8,0:0:0:0:
256,192,36727,1,0,0:0:0:0:
256,192,37257,1,0,0:0:0:0:
256,192,38316,1,0,0:0:0:0:
256,192,38669,1,0,0:0:0:0:
256,192,38845,1,8,0:0:0:0:
256,192,39551,1,8,0:0:0:0:
256,192,40080,1,0,0:0:0:0:
256,192,40610,1,0,0:0:0:0:
256,192,40963,1,8,0:0:0:0:
256,192,41492,1,0,0:0:0:0:
256,192,42021,1,8,0:0:0:0:
256,192,42374,1,0,0:0:0:0:
256,192,42904,1,8,0:0:0:0:
256,192,43963,1,8,0:0:0:0:
256,192,44139,1,8,0:0:0:0:
256,192,44316,1,8,0:0:0:0:
256,192,44492,1,8,0:0:0:0:
256,192,44669,1,8,0:0:0:0:
256,192,45198,1,8,0:0:0:0:
256,192,45727,1,8,0:0:0:0:
256,192,45904,1,8,0:0:0:0:
256,192,46257,1,0,0:0:0:0:
256,192,46610,1,8,0:0:0:0:
256,192,47139,2,0,L|160:192,4,70.000000298023
256,192,48727,1,8,0:0:0:0:
256,192,48904,1,8,0:0:0:0:
256,192,49080,1,0,0:0:0:0:
256,192,49257,1,8,0:0:0:0:
256,192,50139,1,8,0:0:0:0:
256,192,50492,1,0,0:0:0:0:
256,192,50845,1,8,0:0:0:0:
256,192,51374,1,8,0:0:0:0:
256,192,51904,1,8,0:0:0:0:
256,192,52257,1,0,0:0:0:0:
256,192,52610,1,8,0:0:0:0:
256,192,52963,1,0,0:0:0:0:
256,192,53316,1,8,0:0:0:0:
256,192,53669,1,0,0:0:0:0:
256,192,54374,1,0,0:0:0:0:
256,192,54727,1,8,0:0:0:0:
256,192,54904,1,8,0:0:0:0:
256,192,55786,1,8,0:0:0:0:
256,192,56139,1,8,0:0:0:0:
256,192,56492,1,8,0:0:0:0:
256,192,57021,1,8,0:0:0:0:
256,192,57551,1,8,0:0:0:0:
256,192,57904,1,0,0:0:0:0:
256,192,58433,1,8,0:0:0:0:
256,192,58963,1,8,0:0:0:0:
256,192,59316,1,0,0:0:0:0:
256,192,59669,1,0,0:0:0:0:
256,192,60021,1,0,0:0:0:0:
256,192,60374,1,0,0:0:0:0:
256,192,60727,1,8,0:0:0:0:
256,192,61080,1,8,0:0:0:0:
256,192,61433,1,0,0:0:0:0:
256,192,61786,1,8,0:0:0:0:
256,192,62139,1,0,0:0:0:0:
256,192,62492,1,0,0:0:0:0:
256,192,63198,1,0,0:0:0:0:
256,192,63904,1,0,0:0:0:0:
256,192,64610,1,8,0:0:0:0:
256,192,64963,1,0,0:0:0:0:
256,192,65316,1,0,0:0:0:0:
256,192,65580,1,8,0:0:0:0:
256,192,66021,1,0,0:0:0:0:
256,192,66286,1,8,0:0:0:0:
256,192,66727,1,0,0:0:0:0:
256,192,66992,1,8,0:0:0:0:
256,192,67786,1,0,0:0:0:0:
256,192,68139,1,0,0:0:0:0:
256,192,68492,1,8,0:0:0:0:
256,192,68845,1,0,0:0:0:0:
256,192,69551,1,0,0:0:0:0:
256,192,69904,1,8,0:0:0:0:
256,192,70257,1,8,0:0:0:0:
256,192,70610,1,0,0:0:0:0:
256,192,70786,1,0,0:0:0:0:
256,192,70963,1,0,0:0:0:0:
256,192,71316,1,0,0:0:0:0:
256,192,71492,1,0,0:0:0:0:
256,192,71669,1,0,0:0:0:0:
256,192,72021,1,0,0:0:0:0:
256,192,72198,1,0,0:0:0:0:
256,192,72374,1,0,0:0:0:0:
256,192,72551,1,0,0:0:0:0:
256,192,72727,1,0,0:0:0:0:
256,192,73080,1,8,0:0:0:0:
256,192,73433,1,0,0:0:0:0:
256,192,74845,1,0,0:0:0:0:
256,192,75198,1,8,0:0:0:0:
256,192,75463,1,0,0:0:0:0:
256,192,75639,1,8,0:0:0:0:
256,192,75904,1,0,0:0:0:0:
256,192,76610,1,8,0:0:0:0:
256,192,76874,1,0,0:0:0:0:
256,192,77051,1,8,0:0:0:0:
256,192,77316,1,0,0:0:0:0:
256,192,78021,1,8,0:0:0:0:
256,192,78286,1,0,0:0:0:0:
256,192,78463,1,0,0:0:0:0:
256,192,78727,1,8,0:0:0:0:
256,192,79080,1,0,0:0:0:0:
256,192,79610,1,0,0:0:0:0:
256,192,79963,1,8,0:0:0:0:
256,192,80139,1,8,0:0:0:0:
256,192,80492,1,0,0:0:0:0:
256,192,80757,1,0,0:0:0:0:
256,192,81021,1,0,0:0:0:0:
256,192,81374,1,0,0:0:0:0:
256,192,81551,1,8,0:0:0:0:
256,192,81904,1,0,0:0:0:0:
256,192,82433,1,0,0:0:0:0:
256,192,82786,1,8,0:0:0:0:
256,192,82963,1,8,0:0:0:0:
256,192,83316,1,0,0:0:0:0:
256,192,83580,1,0,0:0:0:0:
256,192,83845,1,0,0:0:0:0:
256,192,84727,1,0,0:0:0:0:
256,192,85080,1,8,0:0:0:0:
256,192,85345,1,8,0:0:0:0:
256,192,85521,1,0,0:0:0:0:
256,192,85786,1,0,0:0:0:0:
256,192,85963,1,8,0:0:0:0:
256,192,86492,1,8,0:0:0:0:
256,192,86757,1,8,0:0:0:0:
256,192,86933,1,0,0:0:0:0:
256,192,87198,1,0,0:0:0:0:
256,192,87374,1,8,0:0:0:0:
256,192,87904,1,0,0:0:0:0:
256,192,88169,1,0,0:0:0:0:
256,192,88345,1,8,0:0:0:0:
256,192,88610,1,8,0:0:0:0:
256,192,88786,1,8,0:0:0:0:
256,192,89316,1,0,0:0:0:0:
256,192,89580,1,0,0:0:0:0:
256,192,89757,1,8,0:0:0:0:
256,192,90021,1,8,0:0:0:0:
256,192,90374,1,0,0:0:0:0:
256,192,90727,1,8,0:0:0:0:
256,192,90992,1,0,0:0:0:0:
256,192,91169,1,8,0:0:0:0:
256,192,91433,1,0,0:0:0:0:
256,192,92139,1,8,0:0:0:0:
256,192,92316,1,0,0:0:0:0:
256,192,92669,1,8,0:0:0:0:
256,192,92845,1,0,0:0:0:0:
256,192,93198,1,8,0:0:0:0:
256,192,93551,1,0,0:0:0:0:
256,192,93904,1,8,0:0:0:0:
256,192,94257,1,0,0:0:0:0:
256,192,94610,2,0,L|192:192,12,35.0000001490115
256,192,96021,1,0,0:0:0:0:
256,192,96374,1,0,0:0:0:0:
256,192,96639,1,0,0:0:0:0:
256,192,96904,1,0,0:0:0:0:
256,192,97433,1,8,0:0:0:0:
256,192,97786,1,8,0:0:0:0:
256,192,98139,1,8,0:0:0:0:
256,192,98492,1,8,0:0:0:0:
256,192,98845,1,0,0:0:0:0:
256,192,99198,1,0,0:0:0:0:
256,192,99463,1,0,0:0:0:0:
256,192,99727,1,0,0:0:0:0:
256,192,100257,1,8,0:0:0:0:
256,192,100610,1,8,0:0:0:0:
256,192,100963,1,8,0:0:0:0:
256,192,101316,1,8,0:0:0:0:
256,192,101669,1,0,0:0:0:0:
256,192,102021,1,8,0:0:0:0:
256,192,102286,1,8,0:0:0:0:
256,192,102551,1,8,0:0:0:0:
256,192,103080,1,0,0:0:0:0:
256,192,103433,1,0,0:0:0:0:
256,192,103786,1,0,0:0:0:0:
256,192,104139,1,0,0:0:0:0:
256,192,104492,1,0,0:0:0:0:
256,192,104845,1,8,0:0:0:0:
256,192,105110,1,8,0:0:0:0:
256,192,105374,1,8,0:0:0:0:
256,192,105904,1,0,0:0:0:0:
256,192,106257,1,0,0:0:0:0:
256,192,106610,1,8,0:0:0:0:
256,192,106963,1,8,0:0:0:0:
256,192,107669,1,0,0:0:0:0:
256,192,107933,1,8,0:0:0:0:
256,192,108198,1,8,0:0:0:0:
256,192,108727,1,8,0:0:0:0:
256,192,109080,1,0,0:0:0:0:
256,192,109433,1,8,0:0:0:0:
256,192,109786,1,0,0:0:0:0:
256,192,110139,1,0,0:0:0:0:
256,192,110492,1,0,0:0:0:0:
256,192,110757,1,8,0:0:0:0:
256,192,111021,1,8,0:0:0:0:
256,192,111551,1,8,0:0:0:0:
256,192,111904,1,0,0:0:0:0:
256,192,112257,1,8,0:0:0:0:
256,192,112610,1,0,0:0:0:0:
256,192,112963,1,0,0:0:0:0:
256,192,113316,1,0,0:0:0:0:
256,192,113580,1,0,0:0:0:0:
256,192,113845,1,0,0:0:0:0:
256,192,114374,1,8,0:0:0:0:
256,192,114727,1,0,0:0:0:0:
256,192,115080,1,0,0:0:0:0:
256,192,115433,1,0,0:0:0:0:
256,192,115786,1,8,0:0:0:0:
256,192,116139,1,8,0:0:0:0:
256,192,116492,1,8,0:0:0:0:
256,192,116845,1,8,0:0:0:0:
256,192,117198,1,8,0:0:0:0:
256,192,117551,1,0,0:0:0:0:
256,192,117904,1,8,0:0:0:0:
256,192,118257,1,8,0:0:0:0:
256,192,118610,1,0,0:0:0:0:
256,192,119139,1,8,0:0:0:0:
256,192,120021,1,0,0:0:0:0:
256,192,120727,1,0,0:0:0:0:
256,192,121433,1,8,0:0:0:0:
256,192,122139,1,0,0:0:0:0:
256,192,122845,5,0,0:0:0:0:
256,192,123551,1,8,0:0:0:0:
256,192,123904,1,0,0:0:0:0:
256,192,124257,1,0,0:0:0:0:
256,192,124786,1,8,0:0:0:0:
256,192,125845,1,8,0:0:0:0:
256,192,126021,1,8,0:0:0:0:
256,192,126198,1,0,0:0:0:0:
256,192,126374,1,0,0:0:0:0:
256,192,127080,1,8,0:0:0:0:
256,192,127433,1,0,0:0:0:0:
256,192,127786,1,0,0:0:0:0:
256,192,128139,1,0,0:0:0:0:
256,192,128492,1,8,0:0:0:0:
256,192,128757,1,8,0:0:0:0:
256,192,129021,1,8,0:0:0:0:
256,192,129286,1,0,0:0:0:0:
256,192,129551,1,0,0:0:0:0:
256,192,129904,1,0,0:0:0:0:
256,192,130433,1,8,0:0:0:0:
256,192,130610,12,0,134139,0:0:0:0:
