osu file format v14

[General]
AudioFilename: audio.mp3
AudioLeadIn: 0
PreviewTime: 94610
Countdown: 0
SampleSet: Normal
StackLeniency: 0.7
Mode: 1
LetterboxInBreaks: 0
WidescreenStoryboard: 0

[Editor]
Bookmarks: 8492,8845,9198,9551,9904,10257,10610,10963,11316,12727,13433,13786,19786,21198,22610,23316,24021,24374,24727,25080,31080,32492,33904,34610,35316,35669,35933,36198,36374,36727,47139,48021,61433,62139,73433,79080,84727,90374,93198,93904,94610,94963,95316,95669,96021,118610
DistanceSpacing: 1
BeatDivisor: 4
GridSize: 32
TimelineZoom: 2.999999

[Metadata]
Title:Uranium
TitleUnicode:Uranium
Artist:Memme
ArtistUnicode:Memme
Creator:thesims147
Version:Oni
Source:
Tags:
BeatmapID:1378207
BeatmapSetID:650383

[Difficulty]
HPDrainRate:6
CircleSize:5
OverallDifficulty:7
ApproachRate:6
SliderMultiplier:1.8
SliderTickRate:1

[Events]
//Background and Video events
0,0,"Encounter.jpg",0,0
//Break Periods
//Storyboard Layer 0 (Background)
//Storyboard Layer 1 (Fail)
//Storyboard Layer 2 (Pass)
//Storyboard Layer 3 (Foreground)
//Storyboard Sound Samples

[TimingPoints]
22,352.941176470588,4,1,0,100,1,0
1786,-100,4,1,0,20,0,0
2845,-100,4,1,0,70,0,0
13786,-100,4,1,0,100,0,0
14316,-100,4,1,0,50,0,0
19433,-100,4,1,0,100,0,0
19963,-100,4,1,0,50,0,0
25080,-100,4,1,0,100,0,0
25610,-100,4,1,0,50,0,0
30727,-100,4,1,0,100,0,0
31257,-100,4,1,0,50,0,0
36727,-100,4,1,0,70,0,0
47139,-100,4,1,0,50,0,0
48021,-100,4,1,0,70,0,0
59316,-100,4,1,0,40,0,0
59492,-100,4,1,0,45,0,0
59669,-100,4,1,0,50,0,0
59845,-100,4,1,0,55,0,0
60021,-100,4,1,0,60,0,0
60198,-100,4,1,0,65,0,0
60374,-100,4,1,0,70,0,0
60551,-100,4,1,0,75,0,0
60727,-100,4,1,0,50,0,0
62139,-100,4,1,0,50,0,0
73433,-100,4,1,0,30,0,0
76257,-100,4,1,0,40,0,0
77669,-100,4,1,0,50,0,0
79080,-100,4,1,0,70,0,0
96021,-100,4,1,0,60,0,1
118610,-100,4,1,0,30,0,0

[HitObjects]
256,192,1786,12,0,2669,0:0:0:0:
224,160,2845,5,0,0:0:0:0:
288,160,2933,1,8,0:0:0:0:
288,160,3021,1,8,0:0:0:0:
224,160,3110,1,0,0:0:0:0:
288,160,3198,1,8,0:0:0:0:
288,160,3286,1,8,0:0:0:0:
224,160,3374,1,0,0:0:0:0:
288,160,3463,1,8,0:0:0:0:
288,160,3639,1,8,0:0:0:0:
288,160,3727,1,8,0:0:0:0:
224,160,3816,1,0,0:0:0:0:
224,160,3904,1,0,0:0:0:0:
224,160,3992,1,0,0:0:0:0:
288,160,4080,1,8,0:0:0:0:
288,160,4169,1,8,0:0:0:0:
288,160,4345,1,8,0:0:0:0:
288,160,4433,1,8,0:0:0:0:
224,160,4521,1,0,0:0:0:0:
288,160,4610,1,8,0:0:0:0:
224,160,4698,1,0,0:0:0:0:
224,160,4786,1,0,0:0:0:0:
288,160,4874,1,8,0:0:0:0:
288,160,5051,1,8,0:0:0:0:
288,160,5139,1,8,0:0:0:0:
224,160,5227,1,0,0:0:0:0:
288,160,5316,1,8,0:0:0:0:
288,160,5404,1,8,0:0:0:0:
224,160,5492,1,0,0:0:0:0:
288,160,5580,1,8,0:0:0:0:
224,160,5669,1,0,0:0:0:0:
224,160,5757,1,0,0:0:0:0:
288,160,5845,1,8,0:0:0:0:
224,160,5933,1,0,0:0:0:0:
224,160,6021,1,0,0:0:0:0:
288,160,6110,1,8,0:0:0:0:
288,160,6198,1,8,0:0:0:0:
224,160,6286,1,0,0:0:0:0:
288,160,6463,1,8,0:0:0:0:
288,160,6551,1,8,0:0:0:0:
224,160,6639,1,0,0:0:0:0:
288,160,6727,1,8,0:0:0:0:
224,160,6816,1,0,0:0:0:0:
224,160,6904,1,0,0:0:0:0:
288,160,6992,1,8,0:0:0:0:
288,160,7169,1,8,0:0:0:0:
288,160,7257,1,8,0:0:0:0:
224,160,7345,1,0,0:0:0:0:
288,160,7433,1,8,0:0:0:0:
224,160,7521,1,0,0:0:0:0:
288,160,7610,1,8,0:0:0:0:
288,160,7698,1,8,0:0:0:0:
288,160,7874,1,8,0:0:0:0:
224,160,7963,1,0,0:0:0:0:
288,160,8051,1,8,0:0:0:0:
288,160,8227,1,8,0:0:0:0:
288,160,8316,1,8,0:0:0:0:
224,160,8404,1,0,0:0:0:0:
224,160,8492,1,0,0:0:0:0:
288,160,8580,1,8,0:0:0:0:
224,160,8669,1,0,0:0:0:0:
288,160,8757,1,8,0:0:0:0:
224,160,8845,1,0,0:0:0:0:
224,160,8933,1,0,0:0:0:0:
224,160,9021,1,0,0:0:0:0:
288,160,9110,1,8,0:0:0:0:
224,160,9198,1,0,0:0:0:0:
288,160,9286,1,8,0:0:0:0:
288,160,9463,1,8,0:0:0:0:
224,160,9551,1,0,0:0:0:0:
288,160,9639,1,8,0:0:0:0:
224,160,9727,1,0,0:0:0:0:
288,160,9816,1,8,0:0:0:0:
288,160,9904,1,8,0:0:0:0:
224,160,9992,1,0,0:0:0:0:
224,160,10169,1,0,0:0:0:0:
224,160,10257,1,0,0:0:0:0:
288,160,10345,1,8,0:0:0:0:
224,160,10433,1,0,0:0:0:0:
288,160,10521,1,8,0:0:0:0:
224,160,10610,1,0,0:0:0:0:
288,160,10698,1,8,0:0:0:0:
224,160,10874,1,0,0:0:0:0:
224,160,10963,1,0,0:0:0:0:
288,160,11051,1,8,0:0:0:0:
288,160,11139,1,8,0:0:0:0:
288,160,11227,1,8,0:0:0:0:
224,160,11316,1,0,0:0:0:0:
224,160,11404,1,0,0:0:0:0:
224,160,11492,1,0,0:0:0:0:
224,160,11580,1,0,0:0:0:0:
288,160,11669,1,8,0:0:0:0:
288,160,11757,1,8,0:0:0:0:
288,160,11845,1,8,0:0:0:0:
288,160,11933,1,8,0:0:0:0:
224,160,12021,1,0,0:0:0:0:
288,160,12110,1,8,0:0:0:0:
224,160,12198,1,0,0:0:0:0:
224,160,12286,1,0,0:0:0:0:
288,160,12374,1,8,0:0:0:0:
288,160,12463,1,8,0:0:0:0:
288,160,12551,1,8,0:0:0:0:
288,160,12639,1,8,0:0:0:0:
224,160,12727,1,0,0:0:0:0:
224,160,12816,1,0,0:0:0:0:
224,160,12904,1,0,0:0:0:0:
224,160,12992,1,0,0:0:0:0:
224,160,13080,1,0,0:0:0:0:
224,160,13169,1,0,0:0:0:0:
224,160,13257,1,0,0:0:0:0:
224,160,13345,1,0,0:0:0:0:
288,160,13433,1,8,0:0:0:0:
288,160,13610,1,8,0:0:0:0:
288,160,13669,1,8,0:0:0:0:
288,160,13727,1,8,0:0:0:0:
224,160,13786,1,0,0:0:0:0:
224,160,13874,1,0,0:0:0:0:
288,160,13963,1,8,0:0:0:0:
288,160,14051,1,8,0:0:0:0:
288,160,14139,1,8,0:0:0:0:
224,160,14316,1,0,0:0:0:0:
224,160,14404,1,0,0:0:0:0:
288,160,14492,1,8,0:0:0:0:
224,160,14669,1,0,0:0:0:0:
288,160,14757,1,8,0:0:0:0:
224,160,14845,1,0,0:0:0:0:
288,160,15021,1,8,0:0:0:0:
288,160,15110,1,8,0:0:0:0:
224,160,15198,1,0,0:0:0:0:
224,160,15374,1,0,0:0:0:0:
288,160,15551,1,8,0:0:0:0:
288,160,15727,1,8,0:0:0:0:
288,160,15904,1,8,0:0:0:0:
224,160,16080,1,0,0:0:0:0:
224,160,16169,1,0,0:0:0:0:
224,160,16257,1,0,0:0:0:0:
288,160,16345,1,8,0:0:0:0:
224,160,16521,1,0,0:0:0:0:
288,160,16610,1,8,0:0:0:0:
288,160,16786,1,8,0:0:0:0:
288,160,16963,1,8,0:0:0:0:
224,160,17139,1,0,0:0:0:0:
288,160,17316,1,8,0:0:0:0:
224,160,17492,1,0,0:0:0:0:
288,160,17580,1,8,0:0:0:0:
288,160,17845,1,8,0:0:0:0:
288,160,17933,1,8,0:0:0:0:
224,160,18021,1,0,0:0:0:0:
288,160,18198,1,8,0:0:0:0:
224,160,18374,1,0,0:0:0:0:
288,160,18551,1,8,0:0:0:0:
288,160,18727,1,8,0:0:0:0:
224,160,18904,1,0,0:0:0:0:
288,160,18992,1,8,0:0:0:0:
288,160,19169,1,8,0:0:0:0:
288,160,19345,1,8,0:0:0:0:
224,160,19433,1,0,0:0:0:0:
288,160,19521,1,8,0:0:0:0:
224,160,19610,1,0,0:0:0:0:
288,160,19698,1,8,0:0:0:0:
224,160,19786,1,0,0:0:0:0:
224,160,19963,1,0,0:0:0:0:
288,160,20139,1,8,0:0:0:0:
224,160,20316,1,0,0:0:0:0:
288,160,20404,1,8,0:0:0:0:
224,160,20580,1,0,0:0:0:0:
224,160,20669,1,0,0:0:0:0:
224,160,20757,1,0,0:0:0:0:
288,160,20845,1,8,0:0:0:0:
224,160,21021,1,0,0:0:0:0:
224,160,21198,1,0,0:0:0:0:
288,160,21374,1,8,0:0:0:0:
224,160,21551,1,0,0:0:0:0:
224,160,21727,1,0,0:0:0:0:
288,160,21816,1,8,0:0:0:0:
288,160,21992,1,8,0:0:0:0:
224,160,22169,1,0,0:0:0:0:
288,160,22257,1,8,0:0:0:0:
288,160,22433,1,8,0:0:0:0:
224,160,22610,1,0,0:0:0:0:
224,160,22786,1,0,0:0:0:0:
288,160,22963,1,8,0:0:0:0:
288,160,23139,1,8,0:0:0:0:
224,160,23316,1,0,0:0:0:0:
224,160,23492,1,0,0:0:0:0:
288,160,23669,1,8,0:0:0:0:
288,160,23845,1,8,0:0:0:0:
224,160,24021,1,0,0:0:0:0:
224,160,24110,1,0,0:0:0:0:
288,160,24198,1,8,0:0:0:0:
224,160,24286,1,0,0:0:0:0:
288,160,24374,1,8,0:0:0:0:
288,160,24551,1,8,0:0:0:0:
224,160,24727,1,0,0:0:0:0:
288,160,24816,1,8,0:0:0:0:
288,160,24992,1,8,0:0:0:0:
224,160,25080,1,0,0:0:0:0:
224,160,25169,1,0,0:0:0:0:
288,160,25257,1,8,0:0:0:0:
288,160,25345,1,8,0:0:0:0:
288,160,25433,1,8,0:0:0:0:
224,160,25610,1,0,0:0:0:0:
288,160,25786,1,8,0:0:0:0:
224,160,25963,1,0,0:0:0:0:
288,160,26051,1,8,0:0:0:0:
224,160,26227,1,0,0:0:0:0:
288,160,26316,1,8,0:0:0:0:
288,160,26404,1,8,0:0:0:0:
224,160,26492,1,0,0:0:0:0:
288,160,26669,1,8,0:0:0:0:
224,160,26845,1,0,0:0:0:0:
288,160,27021,1,8,0:0:0:0:
288,160,27198,1,8,0:0:0:0:
224,160,27374,1,0,0:0:0:0:
288,160,27463,1,8,0:0:0:0:
288,160,27639,1,8,0:0:0:0:
224,160,27816,1,0,0:0:0:0:
288,160,27904,1,8,0:0:0:0:
288,160,28080,1,8,0:0:0:0:
224,160,28257,1,0,0:0:0:0:
288,160,28610,1,8,0:0:0:0:
224,160,28786,1,0,0:0:0:0:
288,160,28874,1,8,0:0:0:0:
224,160,29051,1,0,0:0:0:0:
288,160,29139,1,8,0:0:0:0:
224,160,29227,1,0,0:0:0:0:
224,160,29316,1,0,0:0:0:0:
288,160,29492,1,8,0:0:0:0:
224,160,29669,1,0,0:0:0:0:
288,160,29845,1,8,0:0:0:0:
288,160,30021,1,8,0:0:0:0:
224,160,30286,1,0,0:0:0:0:
288,160,30463,1,8,0:0:0:0:
224,160,30639,1,0,0:0:0:0:
288,160,30727,1,8,0:0:0:0:
224,160,30816,1,0,0:0:0:0:
288,160,30904,1,8,0:0:0:0:
288,160,30992,1,8,0:0:0:0:
288,160,31080,1,8,0:0:0:0:
224,160,31257,1,0,0:0:0:0:
288,160,31433,1,8,0:0:0:0:
224,160,31610,1,0,0:0:0:0:
288,160,31698,1,8,0:0:0:0:
224,160,31874,1,0,0:0:0:0:
288,160,31963,1,8,0:0:0:0:
288,160,32051,1,8,0:0:0:0:
224,160,32139,1,0,0:0:0:0:
288,160,32316,1,8,0:0:0:0:
224,160,32492,1,0,0:0:0:0:
288,160,32669,1,8,0:0:0:0:
288,160,32845,1,8,0:0:0:0:
224,160,33021,1,0,0:0:0:0:
288,160,33110,1,8,0:0:0:0:
288,160,33286,1,8,0:0:0:0:
224,160,33463,1,0,0:0:0:0:
288,160,33551,1,8,0:0:0:0:
288,160,33727,1,8,0:0:0:0:
224,160,33904,1,0,0:0:0:0:
224,160,34080,1,0,0:0:0:0:
288,160,34257,1,8,0:0:0:0:
224,160,34433,1,0,0:0:0:0:
288,160,34521,1,8,0:0:0:0:
224,160,34698,1,0,0:0:0:0:
288,160,34786,1,8,0:0:0:0:
224,160,34874,1,0,0:0:0:0:
224,160,34963,1,0,0:0:0:0:
224,160,35139,1,0,0:0:0:0:
224,160,35316,1,0,0:0:0:0:
288,160,35492,1,8,0:0:0:0:
288,160,35669,1,8,0:0:0:0:
224,160,35845,1,0,0:0:0:0:
288,160,35933,1,8,0:0:0:0:
224,160,36110,1,0,0:0:0:0:
288,160,36198,1,8,0:0:0:0:
288,160,36374,1,8,0:0:0:0:
224,160,36463,1,0,0:0:0:0:
288,160,36551,1,8,0:0:0:0:
288,160,36639,1,8,0:0:0:0:
224,160,36727,1,0,0:0:0:0:
288,160,37257,1,8,0:0:0:0:
224,160,38316,1,0,0:0:0:0:
224,160,38492,1,0,0:0:0:0:
288,160,38669,1,8,0:0:0:0:
288,160,38845,1,8,0:0:0:0:
288,160,39110,1,8,0:0:0:0:
288,160,39374,1,8,0:0:0:0:
224,160,39551,1,0,0:0:0:0:
224,160,40080,1,0,0:0:0:0:
224,160,40610,1,0,0:0:0:0:
288,160,40963,1,8,0:0:0:0:
224,160,41492,1,0,0:0:0:0:
224,160,41845,1,0,0:0:0:0:
288,160,42021,1,8,0:0:0:0:
288,160,42198,1,8,0:0:0:0:
288,160,42374,1,8,0:0:0:0:
288,160,42904,1,8,0:0:0:0:
224,160,43433,1,0,0:0:0:0:
288,160,43963,1,8,0:0:0:0:
224,160,44139,1,0,0:0:0:0:
224,160,44316,1,0,0:0:0:0:
224,160,44492,1,0,0:0:0:0:
224,160,44669,1,0,0:0:0:0:
224,160,45021,1,0,0:0:0:0:
224,160,45110,1,0,0:0:0:0:
288,160,45198,1,8,0:0:0:0:
288,160,45374,1,8,0:0:0:0:
288,160,45551,1,8,0:0:0:0:
288,160,45727,1,8,0:0:0:0:
224,160,45904,1,0,0:0:0:0:
224,160,46080,1,0,0:0:0:0:
288,160,46257,1,8,0:0:0:0:
224,160,46433,1,0,0:0:0:0:
288,160,46610,1,8,0:0:0:0:
288,160,46698,1,8,0:0:0:0:
288,160,46786,1,8,0:0:0:0:
288,160,46874,1,8,0:0:0:0:
224,160,47051,1,0,0:0:0:0:
288,160,47139,1,8,0:0:0:0:
288,160,47227,1,8,0:0:0:0:
288,160,47316,1,8,0:0:0:0:
288,160,47404,1,8,0:0:0:0:
224,160,47492,1,0,0:0:0:0:
224,160,47580,1,0,0:0:0:0:
224,160,47669,1,0,0:0:0:0:
224,160,47757,1,0,0:0:0:0:
224,160,47845,1,0,0:0:0:0:
224,160,47933,1,0,0:0:0:0:
288,160,48021,1,8,0:0:0:0:
224,160,48551,1,0,0:0:0:0:
224,160,48639,1,0,0:0:0:0:
288,160,48727,1,8,0:0:0:0:
224,160,48904,1,0,0:0:0:0:
224,160,49080,1,0,0:0:0:0:
288,160,49257,1,8,0:0:0:0:
224,160,49963,1,0,0:0:0:0:
224,160,50051,1,0,0:0:0:0:
224,160,50139,1,0,0:0:0:0:
288,160,50227,1,8,0:0:0:0:
288,160,50316,1,8,0:0:0:0:
288,160,50404,1,8,0:0:0:0:
224,160,50492,1,0,0:0:0:0:
224,160,50580,1,0,0:0:0:0:
288,160,50669,1,8,0:0:0:0:
224,160,50757,1,0,0:0:0:0:
288,160,50845,1,8,0:0:0:0:
288,160,50933,1,8,0:0:0:0:
224,160,51021,1,0,0:0:0:0:
288,160,51110,1,8,0:0:0:0:
224,160,51198,1,0,0:0:0:0:
224,160,51286,1,0,0:0:0:0:
288,160,51374,1,8,0:0:0:0:
288,160,51463,1,8,0:0:0:0:
224,160,51551,1,0,0:0:0:0:
224,160,51639,1,0,0:0:0:0:
288,160,51727,1,8,0:0:0:0:
224,160,51816,1,0,0:0:0:0:
288,160,51904,1,8,0:0:0:0:
224,160,51992,1,0,0:0:0:0:
288,160,52080,1,8,0:0:0:0:
224,160,52257,1,0,0:0:0:0:
224,160,52345,1,0,0:0:0:0:
288,160,52433,1,8,0:0:0:0:
224,160,52610,1,0,0:0:0:0:
288,160,52698,1,8,0:0:0:0:
288,160,52786,1,8,0:0:0:0:
224,160,52963,1,0,0:0:0:0:
288,160,53139,1,8,0:0:0:0:
224,160,53316,1,0,0:0:0:0:
288,160,53404,1,8,0:0:0:0:
288,160,53492,1,8,0:0:0:0:
288,160,53580,1,8,0:0:0:0:
224,160,53669,1,0,0:0:0:0:
224,160,54198,1,0,0:0:0:0:
224,160,54286,1,0,0:0:0:0:
288,160,54374,1,8,0:0:0:0:
224,160,54551,1,0,0:0:0:0:
288,160,54727,1,8,0:0:0:0:
288,160,54904,1,8,0:0:0:0:
224,160,55080,1,0,0:0:0:0:
224,160,55610,1,0,0:0:0:0:
288,160,55698,1,8,0:0:0:0:
288,160,55786,1,8,0:0:0:0:
288,160,55874,1,8,0:0:0:0:
288,160,55963,1,8,0:0:0:0:
288,160,56051,1,8,0:0:0:0:
288,160,56139,1,8,0:0:0:0:
224,160,56227,1,0,0:0:0:0:
224,160,56316,1,0,0:0:0:0:
224,160,56404,1,0,0:0:0:0:
288,160,56492,1,8,0:0:0:0:
224,160,56580,1,0,0:0:0:0:
224,160,56669,1,0,0:0:0:0:
288,160,56757,1,8,0:0:0:0:
224,160,56845,1,0,0:0:0:0:
224,160,56933,1,0,0:0:0:0:
288,160,57021,1,8,0:0:0:0:
224,160,57110,1,0,0:0:0:0:
288,160,57198,1,8,0:0:0:0:
224,160,57286,1,0,0:0:0:0:
224,160,57374,1,0,0:0:0:0:
224,160,57463,1,0,0:0:0:0:
288,160,57551,1,8,0:0:0:0:
224,160,57639,1,0,0:0:0:0:
288,160,57727,1,8,0:0:0:0:
224,160,57816,1,0,0:0:0:0:
288,160,57904,1,8,0:0:0:0:
224,160,57992,1,0,0:0:0:0:
224,160,58080,1,0,0:0:0:0:
288,160,58169,1,8,0:0:0:0:
288,160,58257,1,8,0:0:0:0:
224,160,58345,1,0,0:0:0:0:
288,160,58433,1,8,0:0:0:0:
224,160,58521,1,0,0:0:0:0:
224,160,58610,1,0,0:0:0:0:
288,160,58698,1,8,0:0:0:0:
288,160,58786,1,8,0:0:0:0:
224,160,58874,1,0,0:0:0:0:
288,160,58963,1,8,0:0:0:0:
224,160,59051,1,0,0:0:0:0:
224,160,59139,1,0,0:0:0:0:
224,160,59227,1,0,0:0:0:0:
288,160,59316,1,8,0:0:0:0:
224,160,59492,1,0,0:0:0:0:
224,160,59669,1,0,0:0:0:0:
224,160,59845,1,0,0:0:0:0:
224,160,60021,1,0,0:0:0:0:
224,160,60198,1,0,0:0:0:0:
224,160,60374,1,0,0:0:0:0:
224,160,60551,1,0,0:0:0:0:
224,160,60727,1,0,0:0:0:0:
224,160,60816,1,0,0:0:0:0:
224,160,60904,1,0,0:0:0:0:
224,160,60992,1,0,0:0:0:0:
224,160,61080,1,0,0:0:0:0:
224,160,61169,1,0,0:0:0:0:
224,160,61257,1,0,0:0:0:0:
224,160,61345,1,0,0:0:0:0:
224,160,61433,1,0,0:0:0:0:
288,160,61610,1,8,0:0:0:0:
288,160,61786,1,8,0:0:0:0:
288,160,61845,1,8,0:0:0:0:
288,160,61904,1,8,0:0:0:0:
224,160,61963,1,0,0:0:0:0:
224,160,62139,1,0,0:0:0:0:
288,160,62227,1,8,0:0:0:0:
288,160,62316,1,8,0:0:0:0:
288,160,62404,1,8,0:0:0:0:
224,160,62492,1,0,0:0:0:0:
224,160,62580,1,0,0:0:0:0:
224,160,62669,1,0,0:0:0:0:
288,160,62757,1,8,0:0:0:0:
288,160,62933,1,8,0:0:0:0:
224,160,63021,1,0,0:0:0:0:
224,160,63110,1,0,0:0:0:0:
224,160,63198,1,0,0:0:0:0:
224,160,63286,1,0,0:0:0:0:
288,160,63374,1,8,0:0:0:0:
288,160,63463,1,8,0:0:0:0:
288,160,63639,1,8,0:0:0:0:
224,160,63727,1,0,0:0:0:0:
224,160,63816,1,0,0:0:0:0:
224,160,63904,1,0,0:0:0:0:
224,160,63992,1,0,0:0:0:0:
224,160,64080,1,0,0:0:0:0:
288,160,64169,1,8,0:0:0:0:
288,160,64345,1,8,0:0:0:0:
224,160,64521,1,0,0:0:0:0:
224,160,64610,1,0,0:0:0:0:
288,160,64698,1,8,0:0:0:0:
224,160,64786,1,0,0:0:0:0:
288,160,64874,1,8,0:0:0:0:
224,160,64963,1,0,0:0:0:0:
288,160,65051,1,8,0:0:0:0:
224,160,65139,1,0,0:0:0:0:
288,160,65227,1,8,0:0:0:0:
224,160,65316,1,0,0:0:0:0:
224,160,65404,1,0,0:0:0:0:
224,160,65492,1,0,0:0:0:0:
288,160,65580,1,8,0:0:0:0:
288,160,65757,1,8,0:0:0:0:
224,160,65845,1,0,0:0:0:0:
224,160,65933,1,0,0:0:0:0:
288,160,66021,1,8,0:0:0:0:
224,160,66110,1,0,0:0:0:0:
288,160,66198,1,8,0:0:0:0:
288,160,66286,1,8,0:0:0:0:
288,160,66463,1,8,0:0:0:0:
224,160,66639,1,0,0:0:0:0:
288,160,66727,1,8,0:0:0:0:
288,160,66816,1,8,0:0:0:0:
224,160,66904,1,0,0:0:0:0:
288,160,66992,1,8,0:0:0:0:
224,160,67080,1,0,0:0:0:0:
288,160,67169,1,8,0:0:0:0:
224,160,67345,1,0,0:0:0:0:
224,160,67433,1,0,0:0:0:0:
288,160,67521,1,8,0:0:0:0:
224,160,67610,1,0,0:0:0:0:
288,160,67698,1,8,0:0:0:0:
224,160,67786,1,0,0:0:0:0:
224,160,68139,1,0,0:0:0:0:
224,160,68227,1,0,0:0:0:0:
288,160,68316,1,8,0:0:0:0:
288,160,68404,1,8,0:0:0:0:
288,160,68580,1,8,0:0:0:0:
224,160,68845,1,0,0:0:0:0:
288,160,68933,1,8,0:0:0:0:
288,160,69021,1,8,0:0:0:0:
224,160,69110,1,0,0:0:0:0:
288,160,69286,1,8,0:0:0:0:
288,160,69551,1,8,0:0:0:0:
224,160,69639,1,0,0:0:0:0:
288,160,69727,1,8,0:0:0:0:
224,160,69816,1,0,0:0:0:0:
224,160,69992,1,0,0:0:0:0:
288,160,70257,1,8,0:0:0:0:
288,160,70345,1,8,0:0:0:0:
224,160,70433,1,0,0:0:0:0:
224,160,70521,1,0,0:0:0:0:
224,160,70610,1,0,0:0:0:0:
224,160,70786,1,0,0:0:0:0:
224,160,70963,1,0,0:0:0:0:
224,160,71139,1,0,0:0:0:0:
224,160,71316,1,0,0:0:0:0:
224,160,71492,1,0,0:0:0:0:
224,160,71669,1,0,0:0:0:0:
224,160,71845,1,0,0:0:0:0:
224,160,72021,1,0,0:0:0:0:
224,160,72110,1,0,0:0:0:0:
224,160,72198,1,0,0:0:0:0:
224,160,72286,1,0,0:0:0:0:
224,160,72374,1,0,0:0:0:0:
224,160,72463,1,0,0:0:0:0:
224,160,72551,1,0,0:0:0:0:
224,160,72639,1,0,0:0:0:0:
224,160,72727,1,0,0:0:0:0:
288,160,72904,1,8,0:0:0:0:
288,160,72963,1,8,0:0:0:0:
288,160,73021,1,8,0:0:0:0:
288,160,73080,1,8,0:0:0:0:
224,160,73433,1,0,0:0:0:0:
224,160,73610,1,0,0:0:0:0:
288,160,73786,1,8,0:0:0:0:
224,160,73963,1,0,0:0:0:0:
288,160,74051,1,8,0:0:0:0:
224,160,74227,1,0,0:0:0:0:
224,160,74404,1,0,0:0:0:0:
288,160,74492,1,8,0:0:0:0:
288,160,74669,1,8,0:0:0:0:
224,160,74845,1,0,0:0:0:0:
288,160,75021,1,8,0:0:0:0:
288,160,75198,1,8,0:0:0:0:
224,160,75374,1,0,0:0:0:0:
288,160,75463,1,8,0:0:0:0:
288,160,75639,1,8,0:0:0:0:
224,160,75816,1,0,0:0:0:0:
288,160,75904,1,8,0:0:0:0:
288,160,76080,1,8,0:0:0:0:
224,160,76257,1,0,0:0:0:0:
288,160,76433,1,8,0:0:0:0:
224,160,76610,1,0,0:0:0:0:
224,160,76786,1,0,0:0:0:0:
288,160,76874,1,8,0:0:0:0:
288,160,77051,1,8,0:0:0:0:
224,160,77227,1,0,0:0:0:0:
288,160,77316,1,8,0:0:0:0:
288,160,77492,1,8,0:0:0:0:
224,160,77669,1,0,0:0:0:0:
224,160,77845,1,0,0:0:0:0:
288,160,78021,1,8,0:0:0:0:
224,160,78198,1,0,0:0:0:0:
288,160,78286,1,8,0:0:0:0:
224,160,78463,1,0,0:0:0:0:
224,160,78639,1,0,0:0:0:0:
288,160,78727,1,8,0:0:0:0:
288,160,78904,1,8,0:0:0:0:
224,160,79080,1,0,0:0:0:0:
224,160,79257,1,0,0:0:0:0:
288,160,79433,1,8,0:0:0:0:
224,160,79610,1,0,0:0:0:0:
288,160,79698,1,8,0:0:0:0:
288,160,79874,1,8,0:0:0:0:
224,160,79963,1,0,0:0:0:0:
288,160,80139,1,8,0:0:0:0:
224,160,80316,1,0,0:0:0:0:
224,160,80492,1,0,0:0:0:0:
224,160,80669,1,0,0:0:0:0:
288,160,80845,1,8,0:0:0:0:
224,160,81021,1,0,0:0:0:0:
288,160,81110,1,8,0:0:0:0:
288,160,81286,1,8,0:0:0:0:
224,160,81374,1,0,0:0:0:0:
288,160,81551,1,8,0:0:0:0:
288,160,81727,1,8,0:0:0:0:
224,160,81904,1,0,0:0:0:0:
224,160,82080,1,0,0:0:0:0:
288,160,82257,1,8,0:0:0:0:
224,160,82433,1,0,0:0:0:0:
288,160,82521,1,8,0:0:0:0:
288,160,82698,1,8,0:0:0:0:
224,160,82786,1,0,0:0:0:0:
288,160,82963,1,8,0:0:0:0:
288,160,83139,1,8,0:0:0:0:
224,224,83316,1,4,0:0:0:0:
224,224,83580,1,4,0:0:0:0:
224,224,83845,1,4,0:0:0:0:
224,160,84021,1,0,0:0:0:0:
224,160,84110,1,0,0:0:0:0:
288,160,84198,1,8,0:0:0:0:
288,160,84286,1,8,0:0:0:0:
288,160,84374,1,8,0:0:0:0:
288,160,84433,1,8,0:0:0:0:
288,160,84492,1,8,0:0:0:0:
224,160,84551,1,0,0:0:0:0:
288,160,84727,1,8,0:0:0:0:
224,160,84904,1,0,0:0:0:0:
224,160,84992,1,0,0:0:0:0:
288,160,85080,1,8,0:0:0:0:
224,160,85257,1,0,0:0:0:0:
288,160,85345,1,8,0:0:0:0:
288,160,85521,1,8,0:0:0:0:
224,160,85698,1,0,0:0:0:0:
288,160,85786,1,8,0:0:0:0:
288,160,85963,1,8,0:0:0:0:
224,160,86139,1,0,0:0:0:0:
288,160,86316,1,8,0:0:0:0:
288,160,86492,1,8,0:0:0:0:
224,160,86669,1,0,0:0:0:0:
288,160,86757,1,8,0:0:0:0:
288,160,86933,1,8,0:0:0:0:
288,160,87110,1,8,0:0:0:0:
224,160,87198,1,0,0:0:0:0:
288,160,87374,1,8,0:0:0:0:
224,160,87551,1,0,0:0:0:0:
224,160,87727,1,0,0:0:0:0:
288,160,87904,1,8,0:0:0:0:
288,160,88080,1,8,0:0:0:0:
224,160,88169,1,0,0:0:0:0:
288,160,88345,1,8,0:0:0:0:
224,160,88521,1,0,0:0:0:0:
288,160,88610,1,8,0:0:0:0:
288,160,88786,1,8,0:0:0:0:
224,160,88963,1,0,0:0:0:0:
288,160,89139,1,8,0:0:0:0:
224,160,89316,1,0,0:0:0:0:
224,160,89492,1,0,0:0:0:0:
288,160,89580,1,8,0:0:0:0:
288,160,89757,1,8,0:0:0:0:
224,160,89933,1,0,0:0:0:0:
288,160,90021,1,8,0:0:0:0:
288,160,90198,1,8,0:0:0:0:
224,160,90374,1,0,0:0:0:0:
288,160,90551,1,8,0:0:0:0:
288,160,90727,1,8,0:0:0:0:
288,160,90904,1,8,0:0:0:0:
224,160,90992,1,0,0:0:0:0:
224,160,91169,1,0,0:0:0:0:
224,160,91345,1,0,0:0:0:0:
288,160,91433,1,8,0:0:0:0:
288,160,91610,1,8,0:0:0:0:
224,160,91786,1,0,0:0:0:0:
288,160,91963,1,8,0:0:0:0:
288,160,92139,1,8,0:0:0:0:
288,160,92316,1,8,0:0:0:0:
224,160,92404,1,0,0:0:0:0:
224,160,92580,1,0,0:0:0:0:
224,160,92757,1,0,0:0:0:0:
288,160,92845,1,8,0:0:0:0:
288,160,93021,1,8,0:0:0:0:
224,224,93198,1,4,0:0:0:0:
224,224,93374,1,4,0:0:0:0:
224,224,93551,1,4,0:0:0:0:
224,224,93727,1,4,0:0:0:0:
224,224,93904,1,4,0:0:0:0:
224,224,94080,1,4,0:0:0:0:
224,224,94257,1,4,0:0:0:0:
224,224,94433,1,4,0:0:0:0:
224,160,94610,1,0,0:0:0:0:
288,160,94698,1,8,0:0:0:0:
288,160,94786,1,8,0:0:0:0:
288,160,94874,1,8,0:0:0:0:
288,160,94963,1,8,0:0:0:0:
288,160,95051,1,8,0:0:0:0:
288,160,95139,1,8,0:0:0:0:
288,160,95227,1,8,0:0:0:0:
288,160,95316,1,8,0:0:0:0:
288,160,95404,1,8,0:0:0:0:
224,160,95492,1,0,0:0:0:0:
224,160,95580,1,0,0:0:0:0:
288,160,95669,1,8,0:0:0:0:
288,160,95757,1,8,0:0:0:0:
224,160,95845,1,0,0:0:0:0:
288,160,95933,1,8,0:0:0:0:
224,160,96021,1,0,0:0:0:0:
224,160,96110,1,0,0:0:0:0:
288,160,96198,1,8,0:0:0:0:
224,160,96286,1,0,0:0:0:0:
288,160,96374,1,8,0:0:0:0:
224,160,96463,1,0,0:0:0:0:
224,160,96551,1,0,0:0:0:0:
288,160,96639,1,8,0:0:0:0:
224,160,96727,1,0,0:0:0:0:
224,160,96816,1,0,0:0:0:0:
288,160,96904,1,8,0:0:0:0:
224,160,96992,1,0,0:0:0:0:
224,160,97080,1,0,0:0:0:0:
288,160,97169,1,8,0:0:0:0:
224,160,97257,1,0,0:0:0:0:
224,160,97345,1,0,0:0:0:0:
288,160,97433,1,8,0:0:0:0:
224,160,97521,1,0,0:0:0:0:
224,160,97610,1,0,0:0:0:0:
288,160,97698,1,8,0:0:0:0:
224,160,97786,1,0,0:0:0:0:
224,160,97874,1,0,0:0:0:0:
288,160,97963,1,8,0:0:0:0:
224,160,98051,1,0,0:0:0:0:
224,160,98139,1,0,0:0:0:0:
288,160,98227,1,8,0:0:0:0:
224,160,98316,1,0,0:0:0:0:
224,160,98404,1,0,0:0:0:0:
288,160,98492,1,8,0:0:0:0:
224,160,98580,1,0,0:0:0:0:
288,160,98668,1,8,0:0:0:0:
224,160,98757,1,0,0:0:0:0:
224,160,98845,1,0,0:0:0:0:
224,160,98933,1,0,0:0:0:0:
288,160,99021,1,8,0:0:0:0:
224,160,99110,1,0,0:0:0:0:
288,160,99198,1,8,0:0:0:0:
224,160,99286,1,0,0:0:0:0:
224,160,99374,1,0,0:0:0:0:
288,160,99463,1,8,0:0:0:0:
224,160,99551,1,0,0:0:0:0:
224,160,99639,1,0,0:0:0:0:
288,160,99727,1,8,0:0:0:0:
224,160,99816,1,0,0:0:0:0:
224,160,99904,1,0,0:0:0:0:
288,160,99992,1,8,0:0:0:0:
224,160,100080,1,0,0:0:0:0:
224,160,100169,1,0,0:0:0:0:
288,160,100257,1,8,0:0:0:0:
224,160,100345,1,0,0:0:0:0:
224,160,100433,1,0,0:0:0:0:
288,160,100521,1,8,0:0:0:0:
224,160,100610,1,0,0:0:0:0:
224,160,100698,1,0,0:0:0:0:
288,160,100786,1,8,0:0:0:0:
224,160,100874,1,0,0:0:0:0:
224,160,100963,1,0,0:0:0:0:
288,160,101051,1,8,0:0:0:0:
224,160,101139,1,0,0:0:0:0:
224,160,101227,1,0,0:0:0:0:
288,160,101316,1,8,0:0:0:0:
224,160,101404,1,0,0:0:0:0:
288,160,101492,1,8,0:0:0:0:
224,160,101580,1,0,0:0:0:0:
288,160,101669,1,8,0:0:0:0:
224,160,101757,1,0,0:0:0:0:
288,160,101845,1,8,0:0:0:0:
224,160,101933,1,0,0:0:0:0:
288,160,102021,1,8,0:0:0:0:
224,160,102110,1,0,0:0:0:0:
224,160,102198,1,0,0:0:0:0:
288,160,102286,1,8,0:0:0:0:
224,160,102374,1,0,0:0:0:0:
224,160,102463,1,0,0:0:0:0:
288,160,102551,1,8,0:0:0:0:
224,160,102639,1,0,0:0:0:0:
224,160,102727,1,0,0:0:0:0:
288,160,102816,1,8,0:0:0:0:
288,160,102904,1,8,0:0:0:0:
288,160,102992,1,8,0:0:0:0:
288,160,103080,1,8,0:0:0:0:
224,160,103169,1,0,0:0:0:0:
224,160,103257,1,0,0:0:0:0:
288,160,103345,1,8,0:0:0:0:
224,160,103433,1,0,0:0:0:0:
224,160,103521,1,0,0:0:0:0:
288,160,103610,1,8,0:0:0:0:
224,160,103698,1,0,0:0:0:0:
224,160,103786,1,0,0:0:0:0:
288,160,103874,1,8,0:0:0:0:
224,160,103963,1,0,0:0:0:0:
224,160,104051,1,0,0:0:0:0:
288,160,104139,1,8,0:0:0:0:
224,160,104227,1,0,0:0:0:0:
288,160,104316,1,8,0:0:0:0:
224,160,104404,1,0,0:0:0:0:
288,160,104492,1,8,0:0:0:0:
224,160,104580,1,0,0:0:0:0:
224,160,104669,1,0,0:0:0:0:
224,160,104757,1,0,0:0:0:0:
288,160,104845,1,8,0:0:0:0:
224,160,104933,1,0,0:0:0:0:
224,160,105021,1,0,0:0:0:0:
288,160,105110,1,8,0:0:0:0:
224,160,105198,1,0,0:0:0:0:
224,160,105286,1,0,0:0:0:0:
288,160,105374,1,8,0:0:0:0:
224,160,105463,1,0,0:0:0:0:
224,160,105551,1,0,0:0:0:0:
288,160,105639,1,8,0:0:0:0:
224,160,105727,1,0,0:0:0:0:
224,160,105816,1,0,0:0:0:0:
288,160,105904,1,8,0:0:0:0:
224,160,105992,1,0,0:0:0:0:
288,160,106080,1,8,0:0:0:0:
224,160,106169,1,0,0:0:0:0:
288,160,106257,1,8,0:0:0:0:
224,160,106345,1,0,0:0:0:0:
224,160,106433,1,0,0:0:0:0:
288,160,106521,1,8,0:0:0:0:
224,160,106610,1,0,0:0:0:0:
288,160,106698,1,8,0:0:0:0:
224,160,106786,1,0,0:0:0:0:
288,160,106874,1,8,0:0:0:0:
288,160,106963,1,8,0:0:0:0:
224,160,107051,1,0,0:0:0:0:
288,160,107139,1,8,0:0:0:0:
224,160,107227,1,0,0:0:0:0:
224,160,107316,1,0,0:0:0:0:
224,160,107404,1,0,0:0:0:0:
288,160,107492,1,8,0:0:0:0:
224,160,107580,1,0,0:0:0:0:
288,160,107669,1,8,0:0:0:0:
224,160,107757,1,0,0:0:0:0:
224,160,107845,1,0,0:0:0:0:
288,160,107933,1,8,0:0:0:0:
224,160,108021,1,0,0:0:0:0:
224,160,108110,1,0,0:0:0:0:
288,160,108198,1,8,0:0:0:0:
224,160,108286,1,0,0:0:0:0:
224,160,108374,1,0,0:0:0:0:
288,160,108463,1,8,0:0:0:0:
224,160,108551,1,0,0:0:0:0:
224,160,108639,1,0,0:0:0:0:
288,160,108727,1,8,0:0:0:0:
224,160,108816,1,0,0:0:0:0:
224,160,108904,1,0,0:0:0:0:
288,160,108992,1,8,0:0:0:0:
224,160,109080,1,0,0:0:0:0:
224,160,109169,1,0,0:0:0:0:
288,160,109257,1,8,0:0:0:0:
224,160,109345,1,0,0:0:0:0:
224,160,109433,1,0,0:0:0:0:
288,160,109521,1,8,0:0:0:0:
224,160,109610,1,0,0:0:0:0:
224,160,109698,1,0,0:0:0:0:
288,160,109786,1,8,0:0:0:0:
224,160,109874,1,0,0:0:0:0:
288,160,109963,1,8,0:0:0:0:
224,160,110051,1,0,0:0:0:0:
224,160,110139,1,0,0:0:0:0:
224,160,110227,1,0,0:0:0:0:
288,160,110316,1,8,0:0:0:0:
224,160,110404,1,0,0:0:0:0:
288,160,110492,1,8,0:0:0:0:
224,160,110580,1,0,0:0:0:0:
224,160,110669,1,0,0:0:0:0:
288,160,110757,1,8,0:0:0:0:
224,160,110845,1,0,0:0:0:0:
224,160,110933,1,0,0:0:0:0:
288,160,111022,1,8,0:0:0:0:
288,160,111110,1,8,0:0:0:0:
224,160,111198,1,0,0:0:0:0:
288,160,111286,1,8,0:0:0:0:
288,160,111374,1,8,0:0:0:0:
288,160,111463,1,8,0:0:0:0:
288,160,111551,1,8,0:0:0:0:
224,160,111639,1,0,0:0:0:0:
224,160,111727,1,0,0:0:0:0:
288,160,111816,1,8,0:0:0:0:
224,160,111904,1,0,0:0:0:0:
224,160,111992,1,0,0:0:0:0:
288,160,112080,1,8,0:0:0:0:
224,160,112169,1,0,0:0:0:0:
224,160,112257,1,0,0:0:0:0:
288,160,112345,1,8,0:0:0:0:
224,160,112433,1,0,0:0:0:0:
224,160,112521,1,0,0:0:0:0:
288,160,112610,1,8,0:0:0:0:
224,160,112698,1,0,0:0:0:0:
288,160,112786,1,8,0:0:0:0:
224,160,112874,1,0,0:0:0:0:
288,160,112963,1,8,0:0:0:0:
224,160,113051,1,0,0:0:0:0:
288,160,113139,1,8,0:0:0:0:
224,160,113227,1,0,0:0:0:0:
288,160,113316,1,8,0:0:0:0:
224,160,113404,1,0,0:0:0:0:
224,160,113492,1,0,0:0:0:0:
288,160,113580,1,8,0:0:0:0:
224,160,113669,1,0,0:0:0:0:
224,160,113757,1,0,0:0:0:0:
288,160,113845,1,8,0:0:0:0:
224,160,113933,1,0,0:0:0:0:
224,160,114021,1,0,0:0:0:0:
288,160,114110,1,8,0:0:0:0:
224,160,114198,1,0,0:0:0:0:
224,160,114286,1,0,0:0:0:0:
288,160,114374,1,8,0:0:0:0:
224,160,114463,1,0,0:0:0:0:
224,160,114551,1,0,0:0:0:0:
288,160,114639,1,8,0:0:0:0:
224,160,114727,1,0,0:0:0:0:
224,160,114816,1,0,0:0:0:0:
288,160,114904,1,8,0:0:0:0:
224,160,114992,1,0,0:0:0:0:
224,160,115080,1,0,0:0:0:0:
288,160,115169,1,8,0:0:0:0:
224,160,115257,1,0,0:0:0:0:
224,160,115345,1,0,0:0:0:0:
288,160,115433,1,8,0:0:0:0:
224,160,115521,1,0,0:0:0:0:
288,160,115610,1,8,0:0:0:0:
224,160,115698,1,0,0:0:0:0:
288,160,115786,1,8,0:0:0:0:
224,160,115874,1,0,0:0:0:0:
224,160,115963,1,0,0:0:0:0:
224,160,116051,1,0,0:0:0:0:
288,160,116139,1,8,0:0:0:0:
288,160,116227,1,8,0:0:0:0:
224,160,116316,1,0,0:0:0:0:
288,160,116404,1,8,0:0:0:0:
224,160,116492,1,0,0:0:0:0:
224,160,116580,1,0,0:0:0:0:
288,160,116669,1,8,0:0:0:0:
224,160,116757,1,0,0:0:0:0:
288,160,116845,1,8,0:0:0:0:
224,160,116933,1,0,0:0:0:0:
288,160,117021,1,8,0:0:0:0:
224,160,117110,1,0,0:0:0:0:
288,160,117198,1,8,0:0:0:0:
288,160,117286,1,8,0:0:0:0:
288,160,117374,1,8,0:0:0:0:
288,160,117463,1,8,0:0:0:0:
288,160,117551,1,8,0:0:0:0:
288,160,117639,1,8,0:0:0:0:
288,160,117727,1,8,0:0:0:0:
288,160,117816,1,8,0:0:0:0:
224,160,117904,1,0,0:0:0:0:
224,160,117992,1,0,0:0:0:0:
224,160,118080,1,0,0:0:0:0:
224,160,118169,1,0,0:0:0:0:
224,160,118257,1,0,0:0:0:0:
224,160,118345,1,0,0:0:0:0:
224,160,118433,1,0,0:0:0:0:
224,160,118521,1,0,0:0:0:0:
288,160,118610,1,8,0:0:0:0:
288,160,118786,1,8,0:0:0:0:
288,160,118874,1,8,0:0:0:0:
224,160,118963,1,0,0:0:0:0:
288,160,119139,1,8,0:0:0:0:
288,160,119227,1,8,0:0:0:0:
224,160,119316,1,0,0:0:0:0:
288,160,119492,1,8,0:0:0:0:
288,160,119580,1,8,0:0:0:0:
224,160,119669,1,0,0:0:0:0:
288,160,119845,1,8,0:0:0:0:
288,160,119933,1,8,0:0:0:0:
224,160,120021,1,0,0:0:0:0:
288,160,120198,1,8,0:0:0:0:
224,160,120286,1,0,0:0:0:0:
224,160,120374,1,0,0:0:0:0:
288,160,120551,1,8,0:0:0:0:
224,160,120639,1,0,0:0:0:0:
224,160,120727,1,0,0:0:0:0:
224,160,120904,1,0,0:0:0:0:
288,160,120992,1,8,0:0:0:0:
224,160,121080,1,0,0:0:0:0:
224,160,121257,1,0,0:0:0:0:
288,160,121345,1,8,0:0:0:0:
224,160,121433,1,0,0:0:0:0:
224,160,121610,1,0,0:0:0:0:
224,160,121698,1,0,0:0:0:0:
288,160,121786,1,8,0:0:0:0:
288,160,121963,1,8,0:0:0:0:
288,160,122051,1,8,0:0:0:0:
224,160,122139,1,0,0:0:0:0:
288,160,122316,1,8,0:0:0:0:
288,160,122404,1,8,0:0:0:0:
224,160,122492,1,0,0:0:0:0:
224,160,122669,1,0,0:0:0:0:
288,160,122757,1,8,0:0:0:0:
224,160,122845,1,0,0:0:0:0:
224,160,123021,1,0,0:0:0:0:
224,160,123110,1,0,0:0:0:0:
224,160,123198,1,0,0:0:0:0:
224,160,123374,1,0,0:0:0:0:
224,160,123463,1,0,0:0:0:0:
288,160,123551,1,8,0:0:0:0:
288,160,123727,1,8,0:0:0:0:
224,160,123816,1,0,0:0:0:0:
224,160,123904,1,0,0:0:0:0:
224,160,124080,1,0,0:0:0:0:
224,160,124257,1,0,0:0:0:0:
288,160,124786,1,8,0:0:0:0:
288,160,125845,1,8,0:0:0:0:
224,160,126021,1,0,0:0:0:0:
224,160,126198,1,0,0:0:0:0:
224,160,126374,1,0,0:0:0:0:
288,160,126551,1,8,0:0:0:0:
224,160,126904,1,0,0:0:0:0:
224,160,126992,1,0,0:0:0:0:
288,160,127080,1,8,0:0:0:0:
224,160,127257,1,0,0:0:0:0:
224,160,127433,1,0,0:0:0:0:
288,160,127610,1,8,0:0:0:0:
288,160,127786,1,8,0:0:0:0:
224,160,127963,1,0,0:0:0:0:
288,160,128139,1,8,0:0:0:0:
288,160,128316,1,8,0:0:0:0:
224,224,128492,1,4,0:0:0:0:
224,224,128757,1,4,0:0:0:0:
224,224,129021,1,4,0:0:0:0:
224,224,129286,1,4,0:0:0:0:
224,224,129551,1,4,0:0:0:0:
224,224,129727,1,4,0:0:0:0:
224,160,129904,1,0,0:0:0:0:
288,160,130433,1,8,0:0:0:0:
