osu file format v14

[General]
AudioFilename: audio.ogg
AudioLeadIn: 0
PreviewTime: 12823
Countdown: 0
SampleSet: Soft
StackLeniency: 0.7
Mode: 3
LetterboxInBreaks: 0
SpecialStyle: 0
WidescreenStoryboard: 0

[Editor]
DistanceSpacing: 1
BeatDivisor: 4
GridSize: 4
TimelineZoom: 1.2

[Metadata]
Title:Uranium
TitleUnicode:Uranium
Artist:Memme
ArtistUnicode:Memme
Creator:Tailsdk
Version:Radioactive Noodles
Source:O2Jam - Music & Game
Tags:Park Original Soundtrack Vol. 4 Electronic Instrumental Asherz007 park jong cheol U O2JamU 박종철 오투잼 - 뮤직 & 게임 ParkMemme video game 2TMT 2v2 :thonking: Mania Tournament DeltaMax's Key Smasher DMX 3 Speed of Light LN Long Notes
BeatmapID:1824765
BeatmapSetID:872940

[Difficulty]
HPDrainRate:8
CircleSize:4
OverallDifficulty:8
ApproachRate:5
SliderMultiplier:1.4
SliderTickRate:1

[Events]
//Background and Video events
0,0,"background.jpg",0,0
//Break Periods
//Storyboard Layer 0 (Background)
//Storyboard Layer 1 (Fail)
//Storyboard Layer 2 (Pass)
//Storyboard Layer 3 (Foreground)
//Storyboard Layer 4 (Overlay)
//Storyboard Sound Samples

[TimingPoints]
1529,352.941176470588,4,2,1,70,1,0
12823,-100,4,2,1,70,0,1
35411,-100,4,2,1,70,0,0
94705,-100,4,2,1,70,0,1
117293,-100,4,2,1,70,0,0

[HitObjects]
64,192,1529,5,0,0:0:0:0:
448,192,1529,1,0,0:0:0:0:
320,192,1617,1,0,0:0:0:0:
192,192,1705,1,0,0:0:0:0:
320,192,1793,1,0,0:0:0:0:
64,192,1881,1,0,0:0:0:0:
192,192,1970,1,0,0:0:0:0:
320,192,2058,1,0,0:0:0:0:
192,192,2146,128,0,2499:0:0:0:0:
64,192,2323,128,0,2499:0:0:0:0:
448,192,2499,1,0,0:0:0:0:
320,192,2587,1,0,0:0:0:0:
64,192,2676,1,0,0:0:0:0:
192,192,2764,1,0,0:0:0:0:
448,192,2852,128,0,3205:0:0:0:0:
320,192,3028,128,0,3205:0:0:0:0:
64,192,3205,1,0,0:0:0:0:
192,192,3293,1,0,0:0:0:0:
320,192,3381,1,0,0:0:0:0:
64,192,3470,1,0,0:0:0:0:
192,192,3558,128,0,3911:0:0:0:0:
448,192,3734,128,0,3911:0:0:0:0:
320,192,3911,128,0,3999:0:0:0:0:
64,192,3999,128,0,4087:0:0:0:0:
448,192,4087,128,0,4176:0:0:0:0:
320,192,4176,128,0,4264:0:0:0:0:
64,192,4264,128,0,4352:0:0:0:0:
448,192,4352,128,0,4528:0:0:0:0:
192,192,4352,128,0,4440:0:0:0:0:
320,192,4528,1,0,0:0:0:0:
192,192,4617,1,0,0:0:0:0:
448,192,4705,1,0,0:0:0:0:
320,192,4793,1,0,0:0:0:0:
64,192,4881,1,0,0:0:0:0:
192,192,4970,128,0,5323:0:0:0:0:
448,192,5146,128,0,5323:0:0:0:0:
320,192,5323,1,0,0:0:0:0:
64,192,5411,1,0,0:0:0:0:
448,192,5499,1,0,0:0:0:0:
192,192,5587,1,0,0:0:0:0:
320,192,5676,128,0,6028:0:0:0:0:
64,192,5852,128,0,6028:0:0:0:0:
192,192,6028,1,0,0:0:0:0:
448,192,6117,1,0,0:0:0:0:
64,192,6205,1,0,0:0:0:0:
320,192,6293,1,0,0:0:0:0:
192,192,6381,128,0,6558:0:0:0:0:
448,192,6558,1,0,0:0:0:0:
64,192,6558,1,0,0:0:0:0:
192,192,6646,1,0,0:0:0:0:
320,192,6646,1,0,0:0:0:0:
448,192,6734,1,0,0:0:0:0:
64,192,6734,1,0,0:0:0:0:
192,192,6823,1,0,0:0:0:0:
320,192,6823,1,0,0:0:0:0:
64,192,6911,1,0,0:0:0:0:
448,192,6911,1,0,0:0:0:0:
192,192,6999,1,0,0:0:0:0:
320,192,7087,1,0,0:0:0:0:
64,192,7176,128,0,7352:0:0:0:0:
192,192,7176,128,0,7264:0:0:0:0:
448,192,7176,128,0,7440:0:0:0:0:
320,192,7264,1,0,0:0:0:0:
192,192,7352,1,0,0:0:0:0:
64,192,7440,1,0,0:0:0:0:
320,192,7528,128,0,7617:0:0:0:0:
192,192,7528,128,0,7705:0:0:0:0:
448,192,7528,128,0,7793:0:0:0:0:
64,192,7617,1,0,0:0:0:0:
320,192,7705,1,0,0:0:0:0:
192,192,7793,1,0,0:0:0:0:
320,192,7881,128,0,8058:0:0:0:0:
64,192,7881,128,0,7970:0:0:0:0:
448,192,7881,128,0,8146:0:0:0:0:
192,192,7970,128,0,8146:0:0:0:0:
64,192,8058,1,0,0:0:0:0:
320,192,8146,1,0,0:0:0:0:
64,192,8234,128,0,8323:0:0:0:0:
192,192,8234,128,0,8411:0:0:0:0:
448,192,8234,128,0,8499:0:0:0:0:
320,192,8323,1,0,0:0:0:0:
64,192,8411,1,0,0:0:0:0:
192,192,8499,1,0,0:0:0:0:
320,192,8587,128,0,8676:0:0:0:0:
64,192,8587,128,0,8852:0:0:0:0:
448,192,8587,128,0,8764:0:0:0:0:
192,192,8676,128,0,8852:0:0:0:0:
320,192,8764,1,0,0:0:0:0:
448,192,8852,1,0,0:0:0:0:
192,192,8940,128,0,9028:0:0:0:0:
320,192,8940,128,0,9117:0:0:0:0:
64,192,8940,128,0,9205:0:0:0:0:
448,192,9028,1,0,0:0:0:0:
192,192,9117,1,0,0:0:0:0:
320,192,9205,1,0,0:0:0:0:
192,192,9293,128,0,9381:0:0:0:0:
448,192,9293,128,0,9470:0:0:0:0:
64,192,9293,128,0,9558:0:0:0:0:
320,192,9381,128,0,9558:0:0:0:0:
192,192,9470,1,0,0:0:0:0:
448,192,9558,1,0,0:0:0:0:
64,192,9646,128,0,9911:0:0:0:0:
192,192,9646,128,0,9734:0:0:0:0:
320,192,9646,128,0,9823:0:0:0:0:
448,192,9734,1,0,0:0:0:0:
192,192,9823,1,0,0:0:0:0:
320,192,9911,1,0,0:0:0:0:
192,192,9999,128,0,10087:0:0:0:0:
64,192,9999,128,0,10176:0:0:0:0:
448,192,9999,1,0,0:0:0:0:
320,192,10176,128,0,10264:0:0:0:0:
448,192,10176,128,0,10352:0:0:0:0:
192,192,10176,1,0,0:0:0:0:
192,192,10352,128,0,10440:0:0:0:0:
320,192,10352,128,0,10528:0:0:0:0:
64,192,10352,1,0,0:0:0:0:
64,192,10528,128,0,10705:0:0:0:0:
448,192,10528,128,0,10617:0:0:0:0:
192,192,10528,1,0,0:0:0:0:
448,192,10705,1,0,0:0:0:0:
192,192,10705,128,0,10881:0:0:0:0:
320,192,10705,128,0,10793:0:0:0:0:
320,192,10881,1,0,0:0:0:0:
448,192,10881,128,0,11058:0:0:0:0:
64,192,10881,128,0,10970:0:0:0:0:
320,192,11058,1,0,0:0:0:0:
64,192,11058,128,0,11146:0:0:0:0:
192,192,11058,128,0,11234:0:0:0:0:
64,192,11234,1,0,0:0:0:0:
320,192,11234,128,0,11411:0:0:0:0:
448,192,11234,128,0,11323:0:0:0:0:
192,192,11411,1,0,0:0:0:0:
64,192,11411,1,0,0:0:0:0:
320,192,11499,1,0,0:0:0:0:
448,192,11499,1,0,0:0:0:0:
192,192,11587,1,0,0:0:0:0:
64,192,11587,1,0,0:0:0:0:
320,192,11676,1,0,0:0:0:0:
448,192,11676,1,0,0:0:0:0:
192,192,11764,1,0,0:0:0:0:
64,192,11764,1,0,0:0:0:0:
320,192,11852,1,0,0:0:0:0:
448,192,11852,1,0,0:0:0:0:
192,192,11940,1,0,0:0:0:0:
64,192,11940,1,0,0:0:0:0:
320,192,12028,1,0,0:0:0:0:
448,192,12028,1,0,0:0:0:0:
192,192,12117,1,0,0:0:0:0:
64,192,12117,1,0,0:0:0:0:
448,192,12293,1,0,0:0:0:0:
320,192,12337,1,0,0:0:0:0:
192,192,12381,1,0,0:0:0:0:
64,192,12426,1,0,0:0:0:0:
448,192,12470,1,0,0:0:0:0:
320,192,12470,128,0,12558:0:0:0:0:
192,192,12558,128,0,12646:0:0:0:0:
448,192,12646,128,0,12734:0:0:0:0:
320,192,12734,128,0,12823:0:0:0:0:
448,192,12823,1,0,0:0:0:0:
64,192,12823,128,0,13087:0:0:0:0:
192,192,12823,128,0,12999:0:0:0:0:
320,192,12999,1,0,0:0:0:0:
192,192,13087,1,0,0:0:0:0:
320,192,13176,128,0,13352:0:0:0:0:
448,192,13176,128,0,13440:0:0:0:0:
64,192,13176,1,0,0:0:0:0:
192,192,13352,1,0,0:0:0:0:
320,192,13440,128,0,13528:0:0:0:0:
192,192,13528,1,0,0:0:0:0:
64,192,13528,128,0,13793:0:0:0:0:
192,192,13705,128,0,13793:0:0:0:0:
320,192,13705,1,0,0:0:0:0:
448,192,13793,128,0,13881:0:0:0:0:
192,192,13881,1,0,0:0:0:0:
320,192,13881,128,0,14146:0:0:0:0:
64,192,13881,128,0,13970:0:0:0:0:
64,192,14058,128,0,14234:0:0:0:0:
192,192,14058,1,0,0:0:0:0:
320,192,14234,128,0,14411:0:0:0:0:
448,192,14234,128,0,14499:0:0:0:0:
192,192,14411,1,0,0:0:0:0:
64,192,14411,128,0,14499:0:0:0:0:
320,192,14499,1,0,0:0:0:0:
192,192,14587,128,0,14852:0:0:0:0:
448,192,14587,128,0,14764:0:0:0:0:
64,192,14587,1,0,0:0:0:0:
64,192,14764,128,0,14852:0:0:0:0:
320,192,14764,1,0,0:0:0:0:
448,192,14852,128,0,14940:0:0:0:0:
192,192,14940,1,0,0:0:0:0:
320,192,14940,128,0,15205:0:0:0:0:
64,192,15028,128,0,15205:0:0:0:0:
192,192,15117,1,0,0:0:0:0:
448,192,15205,128,0,15293:0:0:0:0:
320,192,15293,1,0,0:0:0:0:
64,192,15293,128,0,15558:0:0:0:0:
192,192,15293,128,0,15381:0:0:0:0:
320,192,15470,128,0,15646:0:0:0:0:
448,192,15470,1,0,0:0:0:0:
448,192,15646,128,0,15911:0:0:0:0:
192,192,15646,128,0,15823:0:0:0:0:
320,192,15823,1,0,0:0:0:0:
64,192,15911,1,0,0:0:0:0:
448,192,15999,1,0,0:0:0:0:
320,192,15999,128,0,16264:0:0:0:0:
192,192,15999,128,0,16176:0:0:0:0:
64,192,16176,1,0,0:0:0:0:
448,192,16264,128,0,16352:0:0:0:0:
64,192,16352,1,0,0:0:0:0:
192,192,16352,128,0,16617:0:0:0:0:
448,192,16528,128,0,16617:0:0:0:0:
64,192,16528,1,0,0:0:0:0:
320,192,16617,128,0,16705:0:0:0:0:
448,192,16705,1,0,0:0:0:0:
192,192,16705,128,0,16793:0:0:0:0:
64,192,16705,128,0,16970:0:0:0:0:
320,192,16881,128,0,17058:0:0:0:0:
448,192,16881,1,0,0:0:0:0:
448,192,17058,128,0,17323:0:0:0:0:
64,192,17058,128,0,17234:0:0:0:0:
192,192,17234,1,0,0:0:0:0:
320,192,17234,128,0,17323:0:0:0:0:
64,192,17323,1,0,0:0:0:0:
448,192,17411,1,0,0:0:0:0:
192,192,17411,128,0,17676:0:0:0:0:
320,192,17411,128,0,17587:0:0:0:0:
448,192,17587,1,0,0:0:0:0:
64,192,17587,128,0,17676:0:0:0:0:
320,192,17676,128,0,17764:0:0:0:0:
64,192,17764,1,0,0:0:0:0:
448,192,17764,128,0,18028:0:0:0:0:
192,192,17852,128,0,18028:0:0:0:0:
320,192,17940,1,0,0:0:0:0:
64,192,18028,128,0,18117:0:0:0:0:
448,192,18117,128,0,18205:0:0:0:0:
320,192,18117,1,0,0:0:0:0:
192,192,18205,128,0,18293:0:0:0:0:
64,192,18293,128,0,18381:0:0:0:0:
448,192,18293,1,0,0:0:0:0:
320,192,18381,128,0,18470:0:0:0:0:
192,192,18470,128,0,18734:0:0:0:0:
448,192,18470,128,0,18646:0:0:0:0:
64,192,18470,1,0,0:0:0:0:
64,192,18646,128,0,18734:0:0:0:0:
320,192,18646,1,0,0:0:0:0:
448,192,18734,1,0,0:0:0:0:
192,192,18823,1,0,0:0:0:0:
64,192,18823,128,0,19087:0:0:0:0:
320,192,18823,128,0,18999:0:0:0:0:
192,192,18999,128,0,19087:0:0:0:0:
448,192,18999,1,0,0:0:0:0:
320,192,19087,128,0,19176:0:0:0:0:
192,192,19176,1,0,0:0:0:0:
448,192,19176,128,0,19440:0:0:0:0:
64,192,19264,128,0,19352:0:0:0:0:
320,192,19352,128,0,19440:0:0:0:0:
192,192,19440,128,0,19528:0:0:0:0:
448,192,19528,1,0,0:0:0:0:
64,192,19528,128,0,19705:0:0:0:0:
320,192,19528,128,0,19793:0:0:0:0:
448,192,19705,128,0,19881:0:0:0:0:
192,192,19705,1,0,0:0:0:0:
192,192,19881,128,0,20146:0:0:0:0:
320,192,19881,128,0,20058:0:0:0:0:
64,192,19881,1,0,0:0:0:0:
64,192,20058,128,0,20146:0:0:0:0:
448,192,20058,1,0,0:0:0:0:
320,192,20146,1,0,0:0:0:0:
192,192,20234,1,0,0:0:0:0:
448,192,20234,128,0,20411:0:0:0:0:
64,192,20234,128,0,20499:0:0:0:0:
192,192,20411,128,0,20499:0:0:0:0:
320,192,20411,1,0,0:0:0:0:
448,192,20499,128,0,20587:0:0:0:0:
192,192,20587,1,0,0:0:0:0:
320,192,20587,128,0,20852:0:0:0:0:
64,192,20676,128,0,20852:0:0:0:0:
448,192,20764,1,0,0:0:0:0:
192,192,20852,128,0,20940:0:0:0:0:
448,192,20940,128,0,21205:0:0:0:0:
320,192,20940,128,0,21028:0:0:0:0:
64,192,20940,1,0,0:0:0:0:
192,192,21028,128,0,21117:0:0:0:0:
320,192,21117,128,0,21293:0:0:0:0:
64,192,21117,1,0,0:0:0:0:
448,192,21293,128,0,21470:0:0:0:0:
64,192,21293,128,0,21381:0:0:0:0:
192,192,21293,1,0,0:0:0:0:
320,192,21470,1,0,0:0:0:0:
64,192,21470,1,0,0:0:0:0:
192,192,21470,128,0,21646:0:0:0:0:
448,192,21646,1,0,0:0:0:0:
64,192,21646,128,0,21823:0:0:0:0:
320,192,21646,128,0,21734:0:0:0:0:
192,192,21823,1,0,0:0:0:0:
448,192,21823,128,0,21999:0:0:0:0:
320,192,21823,1,0,0:0:0:0:
64,192,21911,128,0,21999:0:0:0:0:
192,192,21999,1,0,0:0:0:0:
320,192,21999,128,0,22176:0:0:0:0:
448,192,22087,128,0,22176:0:0:0:0:
64,192,22176,128,0,22352:0:0:0:0:
192,192,22176,128,0,22264:0:0:0:0:
320,192,22264,128,0,22352:0:0:0:0:
448,192,22352,128,0,22440:0:0:0:0:
192,192,22352,128,0,22528:0:0:0:0:
320,192,22528,128,0,22705:0:0:0:0:
64,192,22528,128,0,22617:0:0:0:0:
448,192,22528,1,0,0:0:0:0:
448,192,22705,1,0,0:0:0:0:
192,192,22705,128,0,22881:0:0:0:0:
64,192,22705,1,0,0:0:0:0:
448,192,22881,128,0,23058:0:0:0:0:
64,192,22881,1,0,0:0:0:0:
320,192,22970,1,0,0:0:0:0:
64,192,23058,1,0,0:0:0:0:
192,192,23058,128,0,23234:0:0:0:0:
320,192,23234,128,0,23411:0:0:0:0:
448,192,23234,1,0,0:0:0:0:
64,192,23323,1,0,0:0:0:0:
192,192,23411,1,0,0:0:0:0:
448,192,23411,1,0,0:0:0:0:
64,192,23499,128,0,23676:0:0:0:0:
320,192,23499,128,0,23587:0:0:0:0:
448,192,23587,1,0,0:0:0:0:
192,192,23676,128,0,23764:0:0:0:0:
320,192,23764,128,0,23852:0:0:0:0:
448,192,23764,128,0,23940:0:0:0:0:
64,192,23852,128,0,23940:0:0:0:0:
192,192,23940,128,0,24028:0:0:0:0:
448,192,24028,128,0,24117:0:0:0:0:
192,192,24117,1,0,0:0:0:0:
64,192,24117,128,0,24293:0:0:0:0:
320,192,24117,128,0,24381:0:0:0:0:
192,192,24293,128,0,24381:0:0:0:0:
448,192,24293,1,0,0:0:0:0:
64,192,24381,1,0,0:0:0:0:
320,192,24470,1,0,0:0:0:0:
448,192,24470,128,0,24734:0:0:0:0:
192,192,24470,128,0,24646:0:0:0:0:
320,192,24646,128,0,24734:0:0:0:0:
64,192,24646,1,0,0:0:0:0:
192,192,24734,128,0,24823:0:0:0:0:
64,192,24823,128,0,25087:0:0:0:0:
448,192,24823,1,0,0:0:0:0:
192,192,24911,128,0,24999:0:0:0:0:
320,192,24999,128,0,25087:0:0:0:0:
448,192,24999,1,0,0:0:0:0:
192,192,25087,128,0,25176:0:0:0:0:
448,192,25176,128,0,25440:0:0:0:0:
64,192,25176,128,0,25264:0:0:0:0:
320,192,25176,1,0,0:0:0:0:
192,192,25264,128,0,25352:0:0:0:0:
320,192,25352,128,0,25528:0:0:0:0:
64,192,25352,1,0,0:0:0:0:
64,192,25528,128,0,25793:0:0:0:0:
192,192,25528,128,0,25705:0:0:0:0:
448,192,25705,128,0,25793:0:0:0:0:
320,192,25705,1,0,0:0:0:0:
192,192,25793,1,0,0:0:0:0:
320,192,25881,1,0,0:0:0:0:
64,192,25881,128,0,26146:0:0:0:0:
448,192,25881,128,0,26058:0:0:0:0:
320,192,26058,128,0,26146:0:0:0:0:
192,192,26058,1,0,0:0:0:0:
448,192,26146,128,0,26234:0:0:0:0:
192,192,26234,1,0,0:0:0:0:
64,192,26234,128,0,26499:0:0:0:0:
320,192,26323,128,0,26499:0:0:0:0:
448,192,26411,1,0,0:0:0:0:
192,192,26499,128,0,26587:0:0:0:0:
320,192,26587,128,0,26676:0:0:0:0:
448,192,26587,128,0,26852:0:0:0:0:
64,192,26587,1,0,0:0:0:0:
320,192,26764,128,0,26940:0:0:0:0:
64,192,26764,1,0,0:0:0:0:
192,192,26940,128,0,27205:0:0:0:0:
64,192,26940,128,0,27117:0:0:0:0:
320,192,27117,128,0,27205:0:0:0:0:
448,192,27117,1,0,0:0:0:0:
64,192,27205,1,0,0:0:0:0:
192,192,27293,1,0,0:0:0:0:
320,192,27293,128,0,27558:0:0:0:0:
448,192,27293,128,0,27470:0:0:0:0:
64,192,27470,128,0,27558:0:0:0:0:
192,192,27470,1,0,0:0:0:0:
448,192,27558,128,0,27646:0:0:0:0:
192,192,27646,1,0,0:0:0:0:
64,192,27646,128,0,27911:0:0:0:0:
320,192,27734,128,0,27823:0:0:0:0:
192,192,27823,128,0,27911:0:0:0:0:
448,192,27823,1,0,0:0:0:0:
320,192,27911,128,0,27999:0:0:0:0:
448,192,27999,128,0,28264:0:0:0:0:
192,192,27999,1,0,0:0:0:0:
64,192,27999,128,0,28087:0:0:0:0:
192,192,28176,128,0,28352:0:0:0:0:
320,192,28176,1,0,0:0:0:0:
320,192,28352,128,0,28617:0:0:0:0:
64,192,28352,128,0,28528:0:0:0:0:
448,192,28528,1,0,0:0:0:0:
192,192,28528,128,0,28617:0:0:0:0:
64,192,28617,1,0,0:0:0:0:
192,192,28705,1,0,0:0:0:0:
448,192,28705,128,0,28970:0:0:0:0:
320,192,28705,128,0,28881:0:0:0:0:
192,192,28881,128,0,28970:0:0:0:0:
64,192,28881,1,0,0:0:0:0:
320,192,28970,128,0,29058:0:0:0:0:
64,192,29058,128,0,29323:0:0:0:0:
448,192,29058,1,0,0:0:0:0:
320,192,29146,128,0,29323:0:0:0:0:
448,192,29234,1,0,0:0:0:0:
192,192,29323,128,0,29411:0:0:0:0:
64,192,29411,128,0,29587:0:0:0:0:
448,192,29411,128,0,29499:0:0:0:0:
320,192,29411,1,0,0:0:0:0:
192,192,29499,128,0,29587:0:0:0:0:
448,192,29587,128,0,29764:0:0:0:0:
320,192,29587,128,0,29676:0:0:0:0:
64,192,29676,128,0,29764:0:0:0:0:
320,192,29764,128,0,30028:0:0:0:0:
192,192,29764,128,0,29940:0:0:0:0:
64,192,29940,128,0,30028:0:0:0:0:
448,192,29940,1,0,0:0:0:0:
192,192,30028,1,0,0:0:0:0:
320,192,30117,1,0,0:0:0:0:
448,192,30117,128,0,30293:0:0:0:0:
64,192,30117,128,0,30381:0:0:0:0:
192,192,30293,1,0,0:0:0:0:
320,192,30381,128,0,30470:0:0:0:0:
64,192,30470,1,0,0:0:0:0:
192,192,30470,128,0,30734:0:0:0:0:
64,192,30646,128,0,30734:0:0:0:0:
448,192,30646,1,0,0:0:0:0:
320,192,30734,128,0,30823:0:0:0:0:
448,192,30823,128,0,31087:0:0:0:0:
192,192,30823,128,0,30911:0:0:0:0:
64,192,30823,1,0,0:0:0:0:
320,192,30911,128,0,30999:0:0:0:0:
192,192,30999,128,0,31176:0:0:0:0:
64,192,30999,1,0,0:0:0:0:
64,192,31176,128,0,31440:0:0:0:0:
448,192,31176,128,0,31352:0:0:0:0:
320,192,31176,1,0,0:0:0:0:
192,192,31352,128,0,31440:0:0:0:0:
320,192,31352,1,0,0:0:0:0:
448,192,31440,1,0,0:0:0:0:
320,192,31528,128,0,31793:0:0:0:0:
192,192,31528,128,0,31705:0:0:0:0:
64,192,31528,1,0,0:0:0:0:
64,192,31705,128,0,31793:0:0:0:0:
448,192,31705,1,0,0:0:0:0:
192,192,31793,128,0,31881:0:0:0:0:
320,192,31881,1,0,0:0:0:0:
448,192,31881,128,0,32146:0:0:0:0:
192,192,31970,128,0,32146:0:0:0:0:
64,192,32058,1,0,0:0:0:0:
320,192,32146,128,0,32234:0:0:0:0:
64,192,32234,128,0,32499:0:0:0:0:
192,192,32234,128,0,32323:0:0:0:0:
448,192,32234,1,0,0:0:0:0:
320,192,32323,128,0,32411:0:0:0:0:
192,192,32411,128,0,32587:0:0:0:0:
448,192,32411,1,0,0:0:0:0:
64,192,32587,1,0,0:0:0:0:
320,192,32587,128,0,32676:0:0:0:0:
448,192,32587,128,0,32764:0:0:0:0:
320,192,32764,1,0,0:0:0:0:
192,192,32764,1,0,0:0:0:0:
64,192,32764,128,0,32940:0:0:0:0:
192,192,32940,1,0,0:0:0:0:
320,192,32940,128,0,33117:0:0:0:0:
448,192,32940,128,0,33028:0:0:0:0:
448,192,33117,1,0,0:0:0:0:
64,192,33117,128,0,33293:0:0:0:0:
192,192,33205,128,0,33293:0:0:0:0:
448,192,33293,128,0,33470:0:0:0:0:
320,192,33293,1,0,0:0:0:0:
192,192,33381,128,0,33470:0:0:0:0:
64,192,33470,128,0,33646:0:0:0:0:
320,192,33470,128,0,33558:0:0:0:0:
192,192,33558,128,0,33646:0:0:0:0:
320,192,33646,128,0,33823:0:0:0:0:
448,192,33646,128,0,33734:0:0:0:0:
64,192,33734,128,0,33823:0:0:0:0:
448,192,33823,128,0,33999:0:0:0:0:
192,192,33823,128,0,33999:0:0:0:0:
320,192,33999,1,0,0:0:0:0:
64,192,33999,128,0,34264:0:0:0:0:
192,192,34087,128,0,34440:0:0:0:0:
320,192,34176,128,0,34352:0:0:0:0:
64,192,34352,128,0,34528:0:0:0:0:
448,192,34352,128,0,34528:0:0:0:0:
320,192,34440,128,0,34617:0:0:0:0:
192,192,34528,128,0,34705:0:0:0:0:
448,192,34617,128,0,34881:0:0:0:0:
64,192,34617,128,0,34793:0:0:0:0:
320,192,34705,128,0,34793:0:0:0:0:
192,192,34793,128,0,34970:0:0:0:0:
64,192,34881,128,0,35146:0:0:0:0:
320,192,34881,128,0,35058:0:0:0:0:
448,192,34970,128,0,35058:0:0:0:0:
192,192,35058,128,0,35234:0:0:0:0:
320,192,35146,128,0,35323:0:0:0:0:
448,192,35146,128,0,35411:0:0:0:0:
64,192,35234,128,0,35323:0:0:0:0:
192,192,35323,128,0,35411:0:0:0:0:
320,192,35411,128,0,35940:0:0:0:0:
64,192,35411,128,0,35587:0:0:0:0:
448,192,35587,1,0,0:0:0:0:
192,192,35676,1,0,0:0:0:0:
64,192,35764,128,0,35940:0:0:0:0:
448,192,35940,128,0,36646:0:0:0:0:
192,192,35940,1,0,0:0:0:0:
320,192,36028,1,0,0:0:0:0:
64,192,36117,128,0,36293:0:0:0:0:
192,192,36293,1,0,0:0:0:0:
320,192,36381,1,0,0:0:0:0:
64,192,36470,128,0,36646:0:0:0:0:
320,192,36646,128,0,36823:0:0:0:0:
192,192,36823,1,0,0:0:0:0:
64,192,36999,128,0,37176:0:0:0:0:
448,192,36999,1,0,0:0:0:0:
320,192,37087,1,0,0:0:0:0:
448,192,37176,128,0,37352:0:0:0:0:
192,192,37176,128,0,37352:0:0:0:0:
320,192,37352,128,0,37528:0:0:0:0:
64,192,37352,1,0,0:0:0:0:
192,192,37440,1,0,0:0:0:0:
64,192,37528,128,0,37793:0:0:0:0:
448,192,37528,128,0,37705:0:0:0:0:
320,192,37705,1,0,0:0:0:0:
448,192,37793,128,0,38058:0:0:0:0:
192,192,37793,1,0,0:0:0:0:
64,192,37881,128,0,38058:0:0:0:0:
320,192,38058,128,0,38234:0:0:0:0:
192,192,38058,128,0,38234:0:0:0:0:
448,192,38234,128,0,38764:0:0:0:0:
64,192,38234,128,0,38411:0:0:0:0:
192,192,38411,1,0,0:0:0:0:
64,192,38499,1,0,0:0:0:0:
320,192,38587,128,0,38764:0:0:0:0:
192,192,38764,128,0,39293:0:0:0:0:
64,192,38764,1,0,0:0:0:0:
320,192,38852,1,0,0:0:0:0:
448,192,38940,128,0,39117:0:0:0:0:
64,192,39117,1,0,0:0:0:0:
320,192,39205,1,0,0:0:0:0:
64,192,39293,128,0,39646:0:0:0:0:
448,192,39293,128,0,39470:0:0:0:0:
192,192,39470,128,0,39646:0:0:0:0:
448,192,39646,128,0,39823:0:0:0:0:
320,192,39646,128,0,40176:0:0:0:0:
192,192,39823,1,0,0:0:0:0:
64,192,39911,1,0,0:0:0:0:
448,192,39999,128,0,40176:0:0:0:0:
192,192,40176,128,0,40528:0:0:0:0:
64,192,40176,1,0,0:0:0:0:
320,192,40264,1,0,0:0:0:0:
448,192,40352,128,0,40528:0:0:0:0:
64,192,40528,128,0,40705:0:0:0:0:
320,192,40528,1,0,0:0:0:0:
192,192,40617,1,0,0:0:0:0:
448,192,40705,128,0,40881:0:0:0:0:
320,192,40705,128,0,40881:0:0:0:0:
64,192,40881,128,0,41058:0:0:0:0:
192,192,40881,1,0,0:0:0:0:
320,192,41058,128,0,41587:0:0:0:0:
448,192,41058,1,0,0:0:0:0:
192,192,41058,128,0,41234:0:0:0:0:
448,192,41234,1,0,0:0:0:0:
192,192,41323,1,0,0:0:0:0:
64,192,41411,128,0,41587:0:0:0:0:
192,192,41587,128,0,42117:0:0:0:0:
448,192,41587,1,0,0:0:0:0:
320,192,41676,1,0,0:0:0:0:
64,192,41764,128,0,41940:0:0:0:0:
448,192,41940,1,0,0:0:0:0:
320,192,42028,1,0,0:0:0:0:
448,192,42117,128,0,42293:0:0:0:0:
64,192,42117,128,0,42293:0:0:0:0:
320,192,42293,128,0,42470:0:0:0:0:
192,192,42293,128,0,42646:0:0:0:0:
448,192,42470,128,0,42646:0:0:0:0:
64,192,42646,128,0,42823:0:0:0:0:
320,192,42646,1,0,0:0:0:0:
192,192,42734,1,0,0:0:0:0:
320,192,42823,128,0,42999:0:0:0:0:
448,192,42823,128,0,42999:0:0:0:0:
192,192,42999,128,0,43176:0:0:0:0:
64,192,42999,1,0,0:0:0:0:
320,192,43087,1,0,0:0:0:0:
64,192,43176,128,0,43352:0:0:0:0:
448,192,43176,128,0,43352:0:0:0:0:
320,192,43352,128,0,43528:0:0:0:0:
192,192,43352,1,0,0:0:0:0:
448,192,43440,1,0,0:0:0:0:
64,192,43528,128,0,43705:0:0:0:0:
192,192,43528,128,0,43705:0:0:0:0:
320,192,43705,128,0,43793:0:0:0:0:
448,192,43705,128,0,43881:0:0:0:0:
192,192,43793,128,0,43881:0:0:0:0:
64,192,43881,128,0,44058:0:0:0:0:
320,192,43881,128,0,43970:0:0:0:0:
320,192,44058,128,0,44234:0:0:0:0:
192,192,44058,1,0,0:0:0:0:
448,192,44058,128,0,44146:0:0:0:0:
192,192,44234,128,0,44411:0:0:0:0:
64,192,44234,1,0,0:0:0:0:
448,192,44234,1,0,0:0:0:0:
448,192,44411,128,0,44587:0:0:0:0:
320,192,44411,1,0,0:0:0:0:
64,192,44411,128,0,44499:0:0:0:0:
320,192,44587,128,0,44764:0:0:0:0:
64,192,44587,1,0,0:0:0:0:
192,192,44587,128,0,44676:0:0:0:0:
64,192,44764,128,0,44940:0:0:0:0:
192,192,44764,1,0,0:0:0:0:
448,192,44764,128,0,44852:0:0:0:0:
192,192,44940,128,0,45117:0:0:0:0:
448,192,44940,1,0,0:0:0:0:
320,192,44940,128,0,45028:0:0:0:0:
320,192,45117,128,0,45293:0:0:0:0:
64,192,45117,1,0,0:0:0:0:
448,192,45117,128,0,45205:0:0:0:0:
64,192,45293,1,0,0:0:0:0:
192,192,45293,128,0,45381:0:0:0:0:
320,192,45381,1,0,0:0:0:0:
448,192,45381,1,0,0:0:0:0:
192,192,45470,1,0,0:0:0:0:
64,192,45470,128,0,45558:0:0:0:0:
320,192,45558,1,0,0:0:0:0:
448,192,45558,1,0,0:0:0:0:
192,192,45734,1,0,0:0:0:0:
64,192,45734,1,0,0:0:0:0:
448,192,45823,1,0,0:0:0:0:
320,192,45823,128,0,45911:0:0:0:0:
192,192,45911,128,0,45999:0:0:0:0:
64,192,45999,1,0,0:0:0:0:
448,192,45999,128,0,46176:0:0:0:0:
320,192,46087,128,0,46264:0:0:0:0:
64,192,46176,128,0,46352:0:0:0:0:
192,192,46176,128,0,46264:0:0:0:0:
448,192,46264,128,0,46440:0:0:0:0:
192,192,46352,128,0,46528:0:0:0:0:
320,192,46352,128,0,46440:0:0:0:0:
64,192,46440,128,0,46617:0:0:0:0:
448,192,46528,1,0,0:0:0:0:
320,192,46528,128,0,46705:0:0:0:0:
192,192,46617,128,0,46705:0:0:0:0:
64,192,46705,1,0,0:0:0:0:
448,192,46705,1,0,0:0:0:0:
320,192,46793,1,0,0:0:0:0:
192,192,46881,1,0,0:0:0:0:
448,192,46970,1,0,0:0:0:0:
320,192,47058,1,0,0:0:0:0:
192,192,47058,1,0,0:0:0:0:
64,192,47146,1,0,0:0:0:0:
320,192,47234,128,0,47411:0:0:0:0:
192,192,47323,128,0,47499:0:0:0:0:
64,192,47411,128,0,47587:0:0:0:0:
448,192,47411,1,0,0:0:0:0:
320,192,47499,1,0,0:0:0:0:
448,192,47587,128,0,47676:0:0:0:0:
192,192,47587,1,0,0:0:0:0:
64,192,47676,1,0,0:0:0:0:
320,192,47764,1,0,0:0:0:0:
192,192,47764,128,0,47852:0:0:0:0:
64,192,47852,1,0,0:0:0:0:
448,192,47940,128,0,48028:0:0:0:0:
320,192,47940,1,0,0:0:0:0:
64,192,48028,1,0,0:0:0:0:
192,192,48117,1,0,0:0:0:0:
320,192,48117,1,0,0:0:0:0:
448,192,48205,1,0,0:0:0:0:
64,192,48293,1,0,0:0:0:0:
192,192,48381,1,0,0:0:0:0:
320,192,48470,1,0,0:0:0:0:
448,192,48470,1,0,0:0:0:0:
64,192,48558,1,0,0:0:0:0:
320,192,48646,128,0,48823:0:0:0:0:
192,192,48734,128,0,48999:0:0:0:0:
448,192,48823,1,0,0:0:0:0:
64,192,48823,128,0,49087:0:0:0:0:
320,192,48911,128,0,49087:0:0:0:0:
448,192,48999,128,0,49176:0:0:0:0:
192,192,49087,128,0,49352:0:0:0:0:
64,192,49176,1,0,0:0:0:0:
320,192,49176,128,0,49440:0:0:0:0:
448,192,49264,128,0,49440:0:0:0:0:
64,192,49352,128,0,49528:0:0:0:0:
192,192,49440,128,0,49793:0:0:0:0:
320,192,49528,128,0,49705:0:0:0:0:
448,192,49528,1,0,0:0:0:0:
64,192,49617,128,0,49793:0:0:0:0:
448,192,49705,128,0,49881:0:0:0:0:
320,192,49793,128,0,49970:0:0:0:0:
64,192,49881,1,0,0:0:0:0:
192,192,49881,128,0,50146:0:0:0:0:
448,192,49970,128,0,50146:0:0:0:0:
320,192,50058,128,0,50234:0:0:0:0:
64,192,50146,128,0,50499:0:0:0:0:
448,192,50234,1,0,0:0:0:0:
192,192,50234,128,0,50411:0:0:0:0:
320,192,50323,128,0,50499:0:0:0:0:
448,192,50411,128,0,50587:0:0:0:0:
192,192,50499,128,0,50852:0:0:0:0:
320,192,50587,1,0,0:0:0:0:
64,192,50587,128,0,50764:0:0:0:0:
448,192,50676,128,0,50852:0:0:0:0:
320,192,50764,128,0,50940:0:0:0:0:
64,192,50852,128,0,50940:0:0:0:0:
192,192,50940,1,0,0:0:0:0:
448,192,50940,128,0,51117:0:0:0:0:
320,192,51028,1,0,0:0:0:0:
192,192,51117,128,0,51293:0:0:0:0:
320,192,51205,1,0,0:0:0:0:
64,192,51293,128,0,51558:0:0:0:0:
448,192,51293,1,0,0:0:0:0:
320,192,51381,128,0,51558:0:0:0:0:
192,192,51470,128,0,51646:0:0:0:0:
448,192,51558,128,0,51646:0:0:0:0:
320,192,51646,128,0,51823:0:0:0:0:
64,192,51646,1,0,0:0:0:0:
192,192,51734,128,0,51911:0:0:0:0:
64,192,51823,128,0,51999:0:0:0:0:
320,192,51911,128,0,52176:0:0:0:0:
448,192,51999,1,0,0:0:0:0:
192,192,51999,128,0,52264:0:0:0:0:
64,192,52087,128,0,52264:0:0:0:0:
448,192,52176,128,0,52352:0:0:0:0:
320,192,52264,128,0,52352:0:0:0:0:
192,192,52352,1,0,0:0:0:0:
64,192,52352,1,0,0:0:0:0:
320,192,52440,1,0,0:0:0:0:
448,192,52528,1,0,0:0:0:0:
192,192,52617,1,0,0:0:0:0:
64,192,52705,1,0,0:0:0:0:
320,192,52705,1,0,0:0:0:0:
448,192,52793,1,0,0:0:0:0:
192,192,52881,128,0,53058:0:0:0:0:
320,192,52970,128,0,53146:0:0:0:0:
64,192,53058,1,0,0:0:0:0:
448,192,53058,128,0,53234:0:0:0:0:
192,192,53146,1,0,0:0:0:0:
320,192,53234,128,0,53323:0:0:0:0:
64,192,53234,1,0,0:0:0:0:
448,192,53323,1,0,0:0:0:0:
192,192,53411,1,0,0:0:0:0:
64,192,53411,128,0,53499:0:0:0:0:
320,192,53499,1,0,0:0:0:0:
448,192,53587,128,0,53676:0:0:0:0:
192,192,53587,1,0,0:0:0:0:
64,192,53676,1,0,0:0:0:0:
448,192,53764,1,0,0:0:0:0:
320,192,53764,1,0,0:0:0:0:
64,192,53852,1,0,0:0:0:0:
448,192,53940,1,0,0:0:0:0:
192,192,54028,1,0,0:0:0:0:
64,192,54117,1,0,0:0:0:0:
320,192,54117,1,0,0:0:0:0:
448,192,54205,1,0,0:0:0:0:
192,192,54293,128,0,54470:0:0:0:0:
320,192,54381,128,0,54646:0:0:0:0:
64,192,54470,1,0,0:0:0:0:
448,192,54470,128,0,54734:0:0:0:0:
192,192,54558,128,0,54734:0:0:0:0:
64,192,54646,128,0,54823:0:0:0:0:
320,192,54734,128,0,54911:0:0:0:0:
448,192,54823,1,0,0:0:0:0:
192,192,54823,128,0,55087:0:0:0:0:
64,192,54911,128,0,55087:0:0:0:0:
320,192,54999,128,0,55176:0:0:0:0:
448,192,55087,128,0,55176:0:0:0:0:
192,192,55176,1,0,0:0:0:0:
64,192,55176,128,0,55352:0:0:0:0:
192,192,55352,128,0,55528:0:0:0:0:
64,192,55440,128,0,55793:0:0:0:0:
320,192,55528,1,0,0:0:0:0:
448,192,55528,128,0,55705:0:0:0:0:
192,192,55617,128,0,55793:0:0:0:0:
320,192,55705,128,0,55881:0:0:0:0:
448,192,55793,128,0,56146:0:0:0:0:
64,192,55881,1,0,0:0:0:0:
192,192,55881,128,0,56058:0:0:0:0:
320,192,55970,128,0,56146:0:0:0:0:
64,192,56058,128,0,56234:0:0:0:0:
192,192,56146,128,0,56411:0:0:0:0:
320,192,56234,1,0,0:0:0:0:
448,192,56234,128,0,56499:0:0:0:0:
64,192,56323,128,0,56499:0:0:0:0:
320,192,56411,128,0,56587:0:0:0:0:
192,192,56499,128,0,56587:0:0:0:0:
448,192,56587,1,0,0:0:0:0:
64,192,56587,128,0,56852:0:0:0:0:
192,192,56676,128,0,56852:0:0:0:0:
320,192,56764,128,0,56940:0:0:0:0:
448,192,56852,128,0,57293:0:0:0:0:
192,192,56940,1,0,0:0:0:0:
64,192,56940,128,0,57205:0:0:0:0:
320,192,57028,128,0,57205:0:0:0:0:
192,192,57117,128,0,57293:0:0:0:0:
64,192,57293,1,0,0:0:0:0:
320,192,57293,128,0,57558:0:0:0:0:
192,192,57381,128,0,57558:0:0:0:0:
64,192,57470,128,0,57646:0:0:0:0:
448,192,57558,128,0,57823:0:0:0:0:
192,192,57646,1,0,0:0:0:0:
320,192,57646,128,0,57911:0:0:0:0:
64,192,57734,128,0,57911:0:0:0:0:
192,192,57823,128,0,57999:0:0:0:0:
448,192,57911,128,0,57999:0:0:0:0:
64,192,57999,1,0,0:0:0:0:
320,192,57999,128,0,58176:0:0:0:0:
192,192,58087,128,0,58264:0:0:0:0:
64,192,58176,128,0,58352:0:0:0:0:
448,192,58176,1,0,0:0:0:0:
320,192,58264,128,0,58440:0:0:0:0:
192,192,58352,1,0,0:0:0:0:
448,192,58352,128,0,58528:0:0:0:0:
64,192,58440,128,0,58617:0:0:0:0:
320,192,58528,1,0,0:0:0:0:
192,192,58528,128,0,58705:0:0:0:0:
448,192,58617,128,0,58793:0:0:0:0:
320,192,58705,128,0,58881:0:0:0:0:
64,192,58705,1,0,0:0:0:0:
192,192,58793,128,0,58970:0:0:0:0:
64,192,58881,128,0,59058:0:0:0:0:
448,192,58881,1,0,0:0:0:0:
320,192,58970,128,0,59146:0:0:0:0:
192,192,59058,1,0,0:0:0:0:
448,192,59058,128,0,59234:0:0:0:0:
64,192,59146,128,0,59411:0:0:0:0:
192,192,59234,128,0,59411:0:0:0:0:
320,192,59234,1,0,0:0:0:0:
320,192,59411,1,0,0:0:0:0:
448,192,59411,1,0,0:0:0:0:
192,192,59499,1,0,0:0:0:0:
64,192,59499,1,0,0:0:0:0:
320,192,59587,1,0,0:0:0:0:
448,192,59587,1,0,0:0:0:0:
192,192,59676,1,0,0:0:0:0:
64,192,59676,1,0,0:0:0:0:
320,192,59764,1,0,0:0:0:0:
448,192,59764,1,0,0:0:0:0:
192,192,59852,1,0,0:0:0:0:
64,192,59852,1,0,0:0:0:0:
320,192,59940,1,0,0:0:0:0:
448,192,59940,1,0,0:0:0:0:
192,192,60028,1,0,0:0:0:0:
64,192,60028,1,0,0:0:0:0:
320,192,60117,1,0,0:0:0:0:
448,192,60117,128,0,60293:0:0:0:0:
64,192,60293,128,0,60470:0:0:0:0:
448,192,60470,1,0,0:0:0:0:
320,192,60514,1,0,0:0:0:0:
192,192,60558,1,0,0:0:0:0:
64,192,60602,1,0,0:0:0:0:
320,192,60646,1,0,0:0:0:0:
448,192,60646,1,0,0:0:0:0:
448,192,60823,1,0,0:0:0:0:
192,192,60823,1,0,0:0:0:0:
64,192,60823,1,0,0:0:0:0:
320,192,60911,1,0,0:0:0:0:
192,192,60999,1,0,0:0:0:0:
320,192,61087,1,0,0:0:0:0:
64,192,61176,1,0,0:0:0:0:
192,192,61264,1,0,0:0:0:0:
320,192,61352,1,0,0:0:0:0:
192,192,61440,128,0,61793:0:0:0:0:
448,192,61617,128,0,61793:0:0:0:0:
64,192,61793,1,0,0:0:0:0:
320,192,61881,1,0,0:0:0:0:
448,192,61970,1,0,0:0:0:0:
192,192,62058,1,0,0:0:0:0:
320,192,62146,128,0,62499:0:0:0:0:
64,192,62323,128,0,62499:0:0:0:0:
448,192,62499,1,0,0:0:0:0:
192,192,62587,1,0,0:0:0:0:
64,192,62676,1,0,0:0:0:0:
320,192,62764,1,0,0:0:0:0:
192,192,62852,128,0,63205:0:0:0:0:
448,192,63028,128,0,63205:0:0:0:0:
320,192,63205,128,0,63293:0:0:0:0:
64,192,63293,128,0,63381:0:0:0:0:
192,192,63381,128,0,63470:0:0:0:0:
448,192,63470,128,0,63558:0:0:0:0:
320,192,63558,128,0,63646:0:0:0:0:
64,192,63646,128,0,63823:0:0:0:0:
192,192,63646,128,0,63734:0:0:0:0:
320,192,63823,1,0,0:0:0:0:
192,192,63911,1,0,0:0:0:0:
448,192,63999,1,0,0:0:0:0:
320,192,64087,1,0,0:0:0:0:
192,192,64176,1,0,0:0:0:0:
320,192,64264,128,0,64617:0:0:0:0:
64,192,64440,128,0,64617:0:0:0:0:
192,192,64617,1,0,0:0:0:0:
320,192,64705,1,0,0:0:0:0:
448,192,64793,1,0,0:0:0:0:
192,192,64881,1,0,0:0:0:0:
320,192,64970,128,0,65323:0:0:0:0:
64,192,65146,128,0,65323:0:0:0:0:
192,192,65323,1,0,0:0:0:0:
448,192,65411,1,0,0:0:0:0:
64,192,65499,1,0,0:0:0:0:
320,192,65587,1,0,0:0:0:0:
192,192,65676,128,0,65852:0:0:0:0:
320,192,65852,1,0,0:0:0:0:
448,192,65852,1,0,0:0:0:0:
192,192,65940,1,0,0:0:0:0:
64,192,65940,1,0,0:0:0:0:
320,192,66028,1,0,0:0:0:0:
448,192,66028,1,0,0:0:0:0:
192,192,66117,1,0,0:0:0:0:
64,192,66117,1,0,0:0:0:0:
320,192,66205,1,0,0:0:0:0:
448,192,66205,1,0,0:0:0:0:
192,192,66293,1,0,0:0:0:0:
448,192,66381,1,0,0:0:0:0:
320,192,66470,128,0,66646:0:0:0:0:
192,192,66470,128,0,66558:0:0:0:0:
64,192,66470,128,0,66734:0:0:0:0:
448,192,66558,1,0,0:0:0:0:
192,192,66646,1,0,0:0:0:0:
320,192,66734,1,0,0:0:0:0:
192,192,66823,128,0,66911:0:0:0:0:
448,192,66823,128,0,67087:0:0:0:0:
64,192,66823,128,0,66999:0:0:0:0:
320,192,66911,1,0,0:0:0:0:
192,192,66999,1,0,0:0:0:0:
64,192,67087,1,0,0:0:0:0:
448,192,67176,128,0,67264:0:0:0:0:
320,192,67176,128,0,67440:0:0:0:0:
192,192,67176,128,0,67352:0:0:0:0:
64,192,67264,128,0,67440:0:0:0:0:
192,192,67440,1,0,0:0:0:0:
320,192,67528,128,0,67617:0:0:0:0:
448,192,67528,128,0,67705:0:0:0:0:
64,192,67528,128,0,67793:0:0:0:0:
192,192,67617,1,0,0:0:0:0:
320,192,67705,1,0,0:0:0:0:
448,192,67793,1,0,0:0:0:0:
192,192,67881,128,0,67970:0:0:0:0:
320,192,67881,128,0,68146:0:0:0:0:
64,192,67881,128,0,68058:0:0:0:0:
448,192,67970,128,0,68146:0:0:0:0:
192,192,68058,1,0,0:0:0:0:
64,192,68146,1,0,0:0:0:0:
192,192,68234,128,0,68499:0:0:0:0:
320,192,68234,128,0,68323:0:0:0:0:
448,192,68234,128,0,68411:0:0:0:0:
64,192,68323,1,0,0:0:0:0:
320,192,68411,1,0,0:0:0:0:
448,192,68499,1,0,0:0:0:0:
64,192,68587,128,0,68676:0:0:0:0:
192,192,68587,128,0,68764:0:0:0:0:
320,192,68587,128,0,68852:0:0:0:0:
448,192,68676,128,0,68852:0:0:0:0:
192,192,68852,1,0,0:0:0:0:
320,192,68940,128,0,69028:0:0:0:0:
64,192,68940,128,0,69117:0:0:0:0:
448,192,68940,128,0,69205:0:0:0:0:
192,192,69028,1,0,0:0:0:0:
320,192,69117,1,0,0:0:0:0:
64,192,69205,1,0,0:0:0:0:
448,192,69293,1,0,0:0:0:0:
192,192,69293,128,0,69470:0:0:0:0:
320,192,69293,128,0,69381:0:0:0:0:
448,192,69470,128,0,69646:0:0:0:0:
64,192,69470,128,0,69558:0:0:0:0:
320,192,69470,1,0,0:0:0:0:
320,192,69646,1,0,0:0:0:0:
64,192,69646,128,0,69823:0:0:0:0:
192,192,69646,128,0,69734:0:0:0:0:
192,192,69823,1,0,0:0:0:0:
320,192,69823,128,0,69911:0:0:0:0:
448,192,69823,128,0,69999:0:0:0:0:
64,192,69999,1,0,0:0:0:0:
192,192,69999,128,0,70176:0:0:0:0:
320,192,69999,128,0,70087:0:0:0:0:
320,192,70176,1,0,0:0:0:0:
64,192,70176,128,0,70352:0:0:0:0:
448,192,70176,128,0,70264:0:0:0:0:
448,192,70352,1,0,0:0:0:0:
192,192,70352,128,0,70440:0:0:0:0:
320,192,70352,128,0,70528:0:0:0:0:
448,192,70528,1,0,0:0:0:0:
64,192,70528,128,0,70705:0:0:0:0:
192,192,70528,128,0,70617:0:0:0:0:
320,192,70705,1,0,0:0:0:0:
448,192,70705,1,0,0:0:0:0:
192,192,70793,1,0,0:0:0:0:
64,192,70793,1,0,0:0:0:0:
320,192,70881,1,0,0:0:0:0:
448,192,70881,1,0,0:0:0:0:
64,192,70970,1,0,0:0:0:0:
192,192,70970,1,0,0:0:0:0:
320,192,71058,1,0,0:0:0:0:
448,192,71058,1,0,0:0:0:0:
192,192,71146,1,0,0:0:0:0:
64,192,71146,1,0,0:0:0:0:
448,192,71234,1,0,0:0:0:0:
320,192,71234,1,0,0:0:0:0:
192,192,71323,1,0,0:0:0:0:
64,192,71323,1,0,0:0:0:0:
320,192,71411,1,0,0:0:0:0:
448,192,71411,1,0,0:0:0:0:
64,192,71587,1,0,0:0:0:0:
192,192,71631,1,0,0:0:0:0:
320,192,71676,1,0,0:0:0:0:
448,192,71720,1,0,0:0:0:0:
192,192,71764,1,0,0:0:0:0:
64,192,71764,1,0,0:0:0:0:
320,192,71852,1,0,0:0:0:0:
64,192,71940,1,0,0:0:0:0:
448,192,72028,1,0,0:0:0:0:
320,192,72117,1,0,0:0:0:0:
192,192,72117,1,0,0:0:0:0:
64,192,72117,1,0,0:0:0:0:
448,192,72293,1,0,0:0:0:0:
192,192,72470,1,0,0:0:0:0:
448,192,72646,1,0,0:0:0:0:
320,192,72734,1,0,0:0:0:0:
64,192,72911,1,0,0:0:0:0:
320,192,73087,1,0,0:0:0:0:
192,192,73176,1,0,0:0:0:0:
320,192,73352,1,0,0:0:0:0:
64,192,73528,1,0,0:0:0:0:
448,192,73705,1,0,0:0:0:0:
320,192,73881,1,0,0:0:0:0:
64,192,74058,1,0,0:0:0:0:
192,192,74146,1,0,0:0:0:0:
448,192,74323,1,0,0:0:0:0:
192,192,74499,1,0,0:0:0:0:
320,192,74587,1,0,0:0:0:0:
64,192,74764,1,0,0:0:0:0:
192,192,74940,1,0,0:0:0:0:
448,192,75117,1,0,0:0:0:0:
64,192,75293,1,0,0:0:0:0:
320,192,75470,1,0,0:0:0:0:
192,192,75558,1,0,0:0:0:0:
448,192,75734,1,0,0:0:0:0:
192,192,75911,1,0,0:0:0:0:
64,192,75999,1,0,0:0:0:0:
320,192,76176,1,0,0:0:0:0:
192,192,76352,1,0,0:0:0:0:
64,192,76528,1,0,0:0:0:0:
320,192,76705,1,0,0:0:0:0:
64,192,76881,1,0,0:0:0:0:
192,192,76970,1,0,0:0:0:0:
448,192,77146,1,0,0:0:0:0:
192,192,77323,1,0,0:0:0:0:
320,192,77411,1,0,0:0:0:0:
64,192,77587,1,0,0:0:0:0:
320,192,77764,1,0,0:0:0:0:
448,192,77764,1,0,0:0:0:0:
192,192,77764,1,0,0:0:0:0:
64,192,77940,1,0,0:0:0:0:
320,192,78117,1,0,0:0:0:0:
192,192,78293,1,0,0:0:0:0:
64,192,78293,1,0,0:0:0:0:
320,192,78381,1,0,0:0:0:0:
192,192,78558,1,0,0:0:0:0:
320,192,78646,1,0,0:0:0:0:
448,192,78646,1,0,0:0:0:0:
64,192,78734,1,0,0:0:0:0:
192,192,78823,1,0,0:0:0:0:
448,192,78999,1,0,0:0:0:0:
320,192,79176,1,0,0:0:0:0:
64,192,79176,1,0,0:0:0:0:
448,192,79352,1,0,0:0:0:0:
192,192,79440,1,0,0:0:0:0:
64,192,79440,1,0,0:0:0:0:
320,192,79528,1,0,0:0:0:0:
192,192,79705,1,0,0:0:0:0:
448,192,79705,1,0,0:0:0:0:
64,192,79793,1,0,0:0:0:0:
320,192,79970,1,0,0:0:0:0:
448,192,80058,1,0,0:0:0:0:
192,192,80058,1,0,0:0:0:0:
64,192,80146,1,0,0:0:0:0:
320,192,80234,1,0,0:0:0:0:
192,192,80323,1,0,0:0:0:0:
64,192,80323,1,0,0:0:0:0:
320,192,80411,1,0,0:0:0:0:
192,192,80587,1,0,0:0:0:0:
64,192,80587,1,0,0:0:0:0:
448,192,80587,1,0,0:0:0:0:
320,192,80764,1,0,0:0:0:0:
192,192,80940,1,0,0:0:0:0:
64,192,81117,1,0,0:0:0:0:
320,192,81117,1,0,0:0:0:0:
448,192,81205,1,0,0:0:0:0:
64,192,81381,1,0,0:0:0:0:
192,192,81470,1,0,0:0:0:0:
448,192,81470,1,0,0:0:0:0:
320,192,81558,1,0,0:0:0:0:
64,192,81646,1,0,0:0:0:0:
192,192,81823,1,0,0:0:0:0:
64,192,81999,1,0,0:0:0:0:
320,192,81999,1,0,0:0:0:0:
448,192,81999,128,0,82176:0:0:0:0:
192,192,82176,128,0,82264:0:0:0:0:
448,192,82264,1,0,0:0:0:0:
64,192,82264,1,0,0:0:0:0:
320,192,82264,128,0,82440:0:0:0:0:
64,192,82440,128,0,82528:0:0:0:0:
192,192,82528,1,0,0:0:0:0:
320,192,82528,1,0,0:0:0:0:
448,192,82528,128,0,82617:0:0:0:0:
64,192,82705,1,0,0:0:0:0:
320,192,82705,1,0,0:0:0:0:
448,192,82705,1,0,0:0:0:0:
192,192,82793,1,0,0:0:0:0:
320,192,82881,1,0,0:0:0:0:
192,192,82970,1,0,0:0:0:0:
448,192,83058,1,0,0:0:0:0:
320,192,83102,1,0,0:0:0:0:
192,192,83146,1,0,0:0:0:0:
64,192,83190,1,0,0:0:0:0:
320,192,83234,1,0,0:0:0:0:
448,192,83234,1,0,0:0:0:0:
192,192,83411,1,0,0:0:0:0:
64,192,83411,1,0,0:0:0:0:
448,192,83411,1,0,0:0:0:0:
64,192,83587,128,0,83764:0:0:0:0:
320,192,83587,1,0,0:0:0:0:
192,192,83676,1,0,0:0:0:0:
320,192,83764,1,0,0:0:0:0:
448,192,83764,128,0,83940:0:0:0:0:
192,192,83940,128,0,84028:0:0:0:0:
64,192,83940,1,0,0:0:0:0:
320,192,84028,128,0,84205:0:0:0:0:
64,192,84117,1,0,0:0:0:0:
448,192,84117,1,0,0:0:0:0:
192,192,84205,128,0,84381:0:0:0:0:
448,192,84293,1,0,0:0:0:0:
64,192,84381,128,0,84470:0:0:0:0:
448,192,84470,128,0,84646:0:0:0:0:
192,192,84470,1,0,0:0:0:0:
320,192,84558,1,0,0:0:0:0:
192,192,84646,128,0,84823:0:0:0:0:
64,192,84646,128,0,84823:0:0:0:0:
448,192,84823,1,0,0:0:0:0:
320,192,84823,128,0,84999:0:0:0:0:
192,192,84999,128,0,85176:0:0:0:0:
448,192,84999,1,0,0:0:0:0:
64,192,85087,1,0,0:0:0:0:
320,192,85176,1,0,0:0:0:0:
448,192,85176,128,0,85352:0:0:0:0:
64,192,85352,128,0,85440:0:0:0:0:
320,192,85352,1,0,0:0:0:0:
192,192,85440,128,0,85617:0:0:0:0:
448,192,85528,1,0,0:0:0:0:
320,192,85528,1,0,0:0:0:0:
64,192,85617,128,0,85793:0:0:0:0:
320,192,85705,1,0,0:0:0:0:
448,192,85793,128,0,85881:0:0:0:0:
192,192,85881,1,0,0:0:0:0:
320,192,85881,128,0,86058:0:0:0:0:
448,192,86058,128,0,86234:0:0:0:0:
64,192,86058,128,0,86234:0:0:0:0:
192,192,86234,1,0,0:0:0:0:
320,192,86234,128,0,86411:0:0:0:0:
64,192,86411,128,0,86587:0:0:0:0:
192,192,86411,1,0,0:0:0:0:
320,192,86499,1,0,0:0:0:0:
192,192,86587,1,0,0:0:0:0:
448,192,86587,128,0,86764:0:0:0:0:
320,192,86764,128,0,86852:0:0:0:0:
64,192,86764,1,0,0:0:0:0:
192,192,86852,128,0,87028:0:0:0:0:
448,192,86940,1,0,0:0:0:0:
64,192,86940,1,0,0:0:0:0:
320,192,87028,128,0,87205:0:0:0:0:
448,192,87117,1,0,0:0:0:0:
192,192,87205,128,0,87293:0:0:0:0:
64,192,87293,128,0,87470:0:0:0:0:
448,192,87293,1,0,0:0:0:0:
320,192,87470,128,0,87646:0:0:0:0:
448,192,87470,128,0,87646:0:0:0:0:
64,192,87646,1,0,0:0:0:0:
192,192,87646,128,0,87823:0:0:0:0:
64,192,87823,128,0,87999:0:0:0:0:
320,192,87823,1,0,0:0:0:0:
448,192,87911,1,0,0:0:0:0:
320,192,87999,128,0,88176:0:0:0:0:
192,192,87999,1,0,0:0:0:0:
64,192,88176,128,0,88264:0:0:0:0:
448,192,88176,1,0,0:0:0:0:
192,192,88264,128,0,88440:0:0:0:0:
320,192,88352,1,0,0:0:0:0:
448,192,88352,1,0,0:0:0:0:
64,192,88440,128,0,88617:0:0:0:0:
320,192,88528,1,0,0:0:0:0:
448,192,88617,128,0,88705:0:0:0:0:
320,192,88705,128,0,88881:0:0:0:0:
192,192,88705,1,0,0:0:0:0:
64,192,88705,1,0,0:0:0:0:
448,192,88881,128,0,89058:0:0:0:0:
64,192,88881,1,0,0:0:0:0:
192,192,88881,1,0,0:0:0:0:
320,192,89058,1,0,0:0:0:0:
64,192,89058,128,0,89234:0:0:0:0:
192,192,89058,1,0,0:0:0:0:
192,192,89234,128,0,89411:0:0:0:0:
448,192,89234,1,0,0:0:0:0:
320,192,89323,1,0,0:0:0:0:
448,192,89411,1,0,0:0:0:0:
64,192,89411,128,0,89587:0:0:0:0:
320,192,89587,128,0,89676:0:0:0:0:
448,192,89587,1,0,0:0:0:0:
192,192,89676,128,0,89852:0:0:0:0:
448,192,89764,1,0,0:0:0:0:
64,192,89764,1,0,0:0:0:0:
320,192,89852,128,0,90028:0:0:0:0:
64,192,89940,1,0,0:0:0:0:
448,192,90028,128,0,90117:0:0:0:0:
64,192,90117,128,0,90293:0:0:0:0:
192,192,90117,1,0,0:0:0:0:
320,192,90293,128,0,90470:0:0:0:0:
448,192,90293,128,0,90470:0:0:0:0:
192,192,90470,1,0,0:0:0:0:
64,192,90470,128,0,90646:0:0:0:0:
320,192,90646,128,0,90823:0:0:0:0:
448,192,90646,1,0,0:0:0:0:
192,192,90734,1,0,0:0:0:0:
448,192,90823,1,0,0:0:0:0:
64,192,90823,128,0,90999:0:0:0:0:
192,192,90999,128,0,91087:0:0:0:0:
320,192,90999,1,0,0:0:0:0:
448,192,91087,128,0,91264:0:0:0:0:
320,192,91176,1,0,0:0:0:0:
64,192,91176,1,0,0:0:0:0:
192,192,91264,128,0,91440:0:0:0:0:
64,192,91352,1,0,0:0:0:0:
320,192,91440,128,0,91528:0:0:0:0:
448,192,91528,1,0,0:0:0:0:
64,192,91528,128,0,91705:0:0:0:0:
192,192,91705,128,0,91881:0:0:0:0:
320,192,91705,128,0,91793:0:0:0:0:
320,192,91881,1,0,0:0:0:0:
448,192,91881,128,0,92058:0:0:0:0:
64,192,91881,128,0,91970:0:0:0:0:
64,192,92058,1,0,0:0:0:0:
192,192,92058,128,0,92146:0:0:0:0:
320,192,92058,128,0,92234:0:0:0:0:
192,192,92234,128,0,92323:0:0:0:0:
64,192,92234,128,0,92411:0:0:0:0:
448,192,92234,1,0,0:0:0:0:
448,192,92411,128,0,92587:0:0:0:0:
320,192,92411,128,0,92499:0:0:0:0:
192,192,92411,1,0,0:0:0:0:
192,192,92587,128,0,92764:0:0:0:0:
320,192,92587,128,0,92676:0:0:0:0:
64,192,92587,1,0,0:0:0:0:
320,192,92764,1,0,0:0:0:0:
64,192,92764,128,0,92940:0:0:0:0:
448,192,92764,128,0,92852:0:0:0:0:
320,192,92940,128,0,93117:0:0:0:0:
192,192,92940,128,0,93028:0:0:0:0:
448,192,92940,1,0,0:0:0:0:
64,192,93117,1,0,0:0:0:0:
192,192,93117,128,0,93293:0:0:0:0:
448,192,93117,128,0,93646:0:0:0:0:
64,192,93293,1,0,0:0:0:0:
320,192,93293,128,0,93470:0:0:0:0:
192,192,93381,128,0,93558:0:0:0:0:
64,192,93470,128,0,93823:0:0:0:0:
320,192,93558,128,0,93734:0:0:0:0:
192,192,93646,128,0,93911:0:0:0:0:
448,192,93734,128,0,93911:0:0:0:0:
320,192,93823,128,0,93999:0:0:0:0:
64,192,93911,128,0,94440:0:0:0:0:
192,192,93999,128,0,94264:0:0:0:0:
448,192,93999,1,0,0:0:0:0:
320,192,94087,128,0,94352:0:0:0:0:
448,192,94176,128,0,94617:0:0:0:0:
192,192,94352,128,0,94528:0:0:0:0:
320,192,94440,128,0,94617:0:0:0:0:
64,192,94528,128,0,94705:0:0:0:0:
192,192,94617,128,0,94705:0:0:0:0:
448,192,94705,128,0,94881:0:0:0:0:
320,192,94705,128,0,94793:0:0:0:0:
192,192,94793,128,0,94970:0:0:0:0:
320,192,94881,128,0,95058:0:0:0:0:
64,192,94970,1,0,0:0:0:0:
448,192,95058,128,0,95234:0:0:0:0:
192,192,95058,128,0,95146:0:0:0:0:
64,192,95146,128,0,95323:0:0:0:0:
320,192,95234,1,0,0:0:0:0:
192,192,95323,128,0,95411:0:0:0:0:
64,192,95411,128,0,95499:0:0:0:0:
320,192,95411,128,0,95587:0:0:0:0:
448,192,95499,128,0,95587:0:0:0:0:
192,192,95587,128,0,95764:0:0:0:0:
320,192,95676,128,0,95764:0:0:0:0:
448,192,95764,128,0,95940:0:0:0:0:
64,192,95764,128,0,95852:0:0:0:0:
192,192,95852,128,0,96028:0:0:0:0:
64,192,95940,128,0,96028:0:0:0:0:
320,192,95940,128,0,96117:0:0:0:0:
448,192,96028,128,0,96117:0:0:0:0:
64,192,96117,128,0,96205:0:0:0:0:
192,192,96117,128,0,96293:0:0:0:0:
320,192,96205,128,0,96381:0:0:0:0:
64,192,96293,1,0,0:0:0:0:
448,192,96381,128,0,96470:0:0:0:0:
64,192,96470,128,0,96646:0:0:0:0:
192,192,96470,128,0,96558:0:0:0:0:
320,192,96558,1,0,0:0:0:0:
192,192,96646,128,0,96823:0:0:0:0:
448,192,96734,128,0,96823:0:0:0:0:
320,192,96823,128,0,96999:0:0:0:0:
64,192,96823,128,0,96911:0:0:0:0:
448,192,96911,128,0,97087:0:0:0:0:
192,192,96999,128,0,97176:0:0:0:0:
64,192,97087,1,0,0:0:0:0:
320,192,97176,128,0,97352:0:0:0:0:
448,192,97176,128,0,97264:0:0:0:0:
64,192,97264,128,0,97440:0:0:0:0:
448,192,97352,128,0,97440:0:0:0:0:
192,192,97352,128,0,97528:0:0:0:0:
320,192,97440,128,0,97528:0:0:0:0:
448,192,97528,128,0,97705:0:0:0:0:
64,192,97528,128,0,97617:0:0:0:0:
192,192,97617,128,0,97793:0:0:0:0:
64,192,97705,128,0,97881:0:0:0:0:
320,192,97793,1,0,0:0:0:0:
448,192,97881,128,0,97970:0:0:0:0:
192,192,97881,128,0,98058:0:0:0:0:
320,192,97970,128,0,98146:0:0:0:0:
64,192,98058,1,0,0:0:0:0:
192,192,98146,128,0,98234:0:0:0:0:
64,192,98234,128,0,98411:0:0:0:0:
448,192,98234,128,0,98323:0:0:0:0:
320,192,98323,1,0,0:0:0:0:
192,192,98411,128,0,98587:0:0:0:0:
64,192,98499,128,0,98587:0:0:0:0:
448,192,98587,128,0,98764:0:0:0:0:
320,192,98587,128,0,98676:0:0:0:0:
64,192,98676,128,0,98852:0:0:0:0:
192,192,98764,128,0,98940:0:0:0:0:
320,192,98764,128,0,98852:0:0:0:0:
448,192,98852,128,0,98940:0:0:0:0:
320,192,98940,128,0,99117:0:0:0:0:
64,192,98940,128,0,99028:0:0:0:0:
448,192,99028,128,0,99205:0:0:0:0:
64,192,99117,1,0,0:0:0:0:
192,192,99205,128,0,99293:0:0:0:0:
64,192,99293,128,0,99470:0:0:0:0:
320,192,99293,128,0,99381:0:0:0:0:
448,192,99381,1,0,0:0:0:0:
320,192,99470,128,0,99646:0:0:0:0:
192,192,99558,128,0,99646:0:0:0:0:
448,192,99646,128,0,99734:0:0:0:0:
64,192,99646,128,0,99823:0:0:0:0:
320,192,99734,128,0,99911:0:0:0:0:
192,192,99823,128,0,99999:0:0:0:0:
64,192,99911,128,0,99999:0:0:0:0:
448,192,99999,128,0,100176:0:0:0:0:
320,192,99999,128,0,100087:0:0:0:0:
192,192,100087,128,0,100264:0:0:0:0:
320,192,100176,128,0,100264:0:0:0:0:
64,192,100176,128,0,100352:0:0:0:0:
448,192,100264,128,0,100352:0:0:0:0:
320,192,100352,128,0,100528:0:0:0:0:
192,192,100352,128,0,100440:0:0:0:0:
448,192,100440,128,0,100617:0:0:0:0:
192,192,100528,128,0,100705:0:0:0:0:
64,192,100617,1,0,0:0:0:0:
320,192,100705,128,0,100881:0:0:0:0:
448,192,100705,128,0,100793:0:0:0:0:
64,192,100793,128,0,100970:0:0:0:0:
192,192,100881,1,0,0:0:0:0:
320,192,100970,128,0,101058:0:0:0:0:
448,192,101058,128,0,101146:0:0:0:0:
192,192,101058,128,0,101234:0:0:0:0:
64,192,101146,1,0,0:0:0:0:
320,192,101234,128,0,101411:0:0:0:0:
192,192,101323,128,0,101411:0:0:0:0:
64,192,101411,128,0,101499:0:0:0:0:
448,192,101411,128,0,101676:0:0:0:0:
320,192,101499,128,0,101587:0:0:0:0:
192,192,101587,128,0,101676:0:0:0:0:
64,192,101587,128,0,101764:0:0:0:0:
320,192,101676,128,0,101764:0:0:0:0:
192,192,101764,128,0,101940:0:0:0:0:
448,192,101764,128,0,101852:0:0:0:0:
64,192,101852,128,0,102028:0:0:0:0:
448,192,101940,1,0,0:0:0:0:
320,192,102028,128,0,102117:0:0:0:0:
448,192,102117,128,0,102293:0:0:0:0:
192,192,102117,128,0,102205:0:0:0:0:
64,192,102205,1,0,0:0:0:0:
192,192,102293,128,0,102470:0:0:0:0:
320,192,102381,128,0,102470:0:0:0:0:
448,192,102470,128,0,102646:0:0:0:0:
64,192,102470,128,0,102558:0:0:0:0:
192,192,102558,128,0,102734:0:0:0:0:
320,192,102646,128,0,102823:0:0:0:0:
448,192,102734,1,0,0:0:0:0:
192,192,102823,128,0,102911:0:0:0:0:
64,192,102823,128,0,102999:0:0:0:0:
448,192,102911,128,0,103087:0:0:0:0:
320,192,102999,128,0,103087:0:0:0:0:
192,192,102999,128,0,103176:0:0:0:0:
64,192,103087,128,0,103176:0:0:0:0:
320,192,103176,128,0,103264:0:0:0:0:
448,192,103176,128,0,103352:0:0:0:0:
192,192,103264,128,0,103440:0:0:0:0:
64,192,103352,128,0,103528:0:0:0:0:
320,192,103352,128,0,103440:0:0:0:0:
448,192,103440,128,0,103617:0:0:0:0:
320,192,103528,128,0,103617:0:0:0:0:
192,192,103528,128,0,103793:0:0:0:0:
64,192,103617,128,0,103705:0:0:0:0:
320,192,103705,128,0,103793:0:0:0:0:
448,192,103705,128,0,103881:0:0:0:0:
64,192,103793,128,0,103970:0:0:0:0:
192,192,103881,128,0,103970:0:0:0:0:
320,192,103881,128,0,104058:0:0:0:0:
448,192,103970,128,0,104146:0:0:0:0:
64,192,104058,128,0,104234:0:0:0:0:
192,192,104058,128,0,104146:0:0:0:0:
320,192,104146,128,0,104323:0:0:0:0:
448,192,104234,128,0,104411:0:0:0:0:
192,192,104234,128,0,104323:0:0:0:0:
64,192,104323,128,0,104411:0:0:0:0:
192,192,104411,128,0,104499:0:0:0:0:
320,192,104411,128,0,104587:0:0:0:0:
448,192,104587,128,0,104676:0:0:0:0:
64,192,104587,128,0,104764:0:0:0:0:
192,192,104676,128,0,104764:0:0:0:0:
320,192,104764,128,0,104852:0:0:0:0:
448,192,104764,128,0,104940:0:0:0:0:
192,192,104852,128,0,104940:0:0:0:0:
320,192,104940,128,0,105117:0:0:0:0:
64,192,104940,128,0,105028:0:0:0:0:
192,192,105028,128,0,105117:0:0:0:0:
448,192,105117,128,0,105205:0:0:0:0:
64,192,105117,128,0,105293:0:0:0:0:
320,192,105205,128,0,105293:0:0:0:0:
448,192,105293,128,0,105470:0:0:0:0:
192,192,105293,128,0,105381:0:0:0:0:
64,192,105381,128,0,105470:0:0:0:0:
192,192,105470,128,0,105646:0:0:0:0:
320,192,105470,128,0,105558:0:0:0:0:
448,192,105558,128,0,105646:0:0:0:0:
64,192,105646,128,0,105823:0:0:0:0:
320,192,105646,128,0,105734:0:0:0:0:
192,192,105734,128,0,105823:0:0:0:0:
448,192,105823,128,0,105999:0:0:0:0:
320,192,105823,128,0,105911:0:0:0:0:
192,192,105911,128,0,105999:0:0:0:0:
64,192,105999,128,0,106176:0:0:0:0:
320,192,105999,128,0,106087:0:0:0:0:
448,192,106087,128,0,106264:0:0:0:0:
192,192,106176,128,0,106352:0:0:0:0:
64,192,106264,1,0,0:0:0:0:
448,192,106352,128,0,106528:0:0:0:0:
320,192,106352,128,0,106440:0:0:0:0:
64,192,106440,128,0,106617:0:0:0:0:
320,192,106528,1,0,0:0:0:0:
448,192,106617,128,0,106705:0:0:0:0:
64,192,106705,128,0,106793:0:0:0:0:
192,192,106705,128,0,106881:0:0:0:0:
320,192,106793,1,0,0:0:0:0:
448,192,106881,128,0,107058:0:0:0:0:
192,192,106970,128,0,107058:0:0:0:0:
320,192,107058,128,0,107234:0:0:0:0:
64,192,107058,128,0,107146:0:0:0:0:
192,192,107146,128,0,107234:0:0:0:0:
448,192,107234,128,0,107323:0:0:0:0:
64,192,107234,128,0,107411:0:0:0:0:
192,192,107323,128,0,107411:0:0:0:0:
448,192,107411,128,0,107587:0:0:0:0:
320,192,107411,128,0,107499:0:0:0:0:
64,192,107499,128,0,107676:0:0:0:0:
192,192,107587,1,0,0:0:0:0:
448,192,107676,128,0,107764:0:0:0:0:
192,192,107764,128,0,107940:0:0:0:0:
320,192,107764,128,0,107852:0:0:0:0:
64,192,107852,1,0,0:0:0:0:
320,192,107940,128,0,108117:0:0:0:0:
448,192,108028,128,0,108117:0:0:0:0:
192,192,108117,128,0,108293:0:0:0:0:
64,192,108117,128,0,108205:0:0:0:0:
320,192,108205,128,0,108381:0:0:0:0:
448,192,108293,128,0,108470:0:0:0:0:
192,192,108381,1,0,0:0:0:0:
320,192,108470,128,0,108646:0:0:0:0:
64,192,108470,128,0,108558:0:0:0:0:
448,192,108558,128,0,108734:0:0:0:0:
64,192,108646,128,0,108734:0:0:0:0:
192,192,108646,128,0,108823:0:0:0:0:
320,192,108734,128,0,108823:0:0:0:0:
64,192,108823,128,0,108999:0:0:0:0:
448,192,108823,128,0,108911:0:0:0:0:
320,192,108911,128,0,109087:0:0:0:0:
448,192,108999,128,0,109176:0:0:0:0:
64,192,109087,1,0,0:0:0:0:
320,192,109176,128,0,109264:0:0:0:0:
192,192,109176,128,0,109352:0:0:0:0:
64,192,109264,128,0,109440:0:0:0:0:
448,192,109352,1,0,0:0:0:0:
192,192,109440,128,0,109528:0:0:0:0:
448,192,109528,128,0,109705:0:0:0:0:
320,192,109528,128,0,109617:0:0:0:0:
64,192,109617,1,0,0:0:0:0:
192,192,109705,128,0,109881:0:0:0:0:
448,192,109793,128,0,109881:0:0:0:0:
64,192,109881,128,0,110058:0:0:0:0:
320,192,109881,128,0,109970:0:0:0:0:
448,192,109970,128,0,110146:0:0:0:0:
192,192,110058,128,0,110234:0:0:0:0:
320,192,110058,128,0,110146:0:0:0:0:
64,192,110146,128,0,110234:0:0:0:0:
320,192,110234,128,0,110411:0:0:0:0:
448,192,110234,128,0,110323:0:0:0:0:
192,192,110323,128,0,110499:0:0:0:0:
64,192,110411,1,0,0:0:0:0:
320,192,110499,128,0,110587:0:0:0:0:
192,192,110587,128,0,110764:0:0:0:0:
64,192,110587,128,0,110676:0:0:0:0:
320,192,110676,1,0,0:0:0:0:
448,192,110764,128,0,110940:0:0:0:0:
192,192,110852,128,0,110940:0:0:0:0:
320,192,110940,128,0,111028:0:0:0:0:
64,192,110940,128,0,111117:0:0:0:0:
192,192,111028,128,0,111205:0:0:0:0:
320,192,111117,128,0,111293:0:0:0:0:
448,192,111205,128,0,111381:0:0:0:0:
64,192,111293,128,0,111470:0:0:0:0:
192,192,111293,128,0,111381:0:0:0:0:
320,192,111381,128,0,111558:0:0:0:0:
192,192,111470,128,0,111558:0:0:0:0:
448,192,111470,128,0,111646:0:0:0:0:
64,192,111558,128,0,111646:0:0:0:0:
192,192,111646,128,0,111823:0:0:0:0:
320,192,111646,128,0,111734:0:0:0:0:
64,192,111734,128,0,111911:0:0:0:0:
320,192,111823,128,0,111999:0:0:0:0:
192,192,111911,1,0,0:0:0:0:
448,192,111999,128,0,112176:0:0:0:0:
64,192,111999,128,0,112087:0:0:0:0:
192,192,112087,128,0,112264:0:0:0:0:
320,192,112176,128,0,112264:0:0:0:0:
64,192,112264,128,0,112352:0:0:0:0:
320,192,112352,128,0,112440:0:0:0:0:
448,192,112352,128,0,112528:0:0:0:0:
192,192,112440,1,0,0:0:0:0:
64,192,112528,128,0,112705:0:0:0:0:
192,192,112617,128,0,112793:0:0:0:0:
448,192,112705,128,0,112793:0:0:0:0:
320,192,112705,128,0,112881:0:0:0:0:
64,192,112793,128,0,112881:0:0:0:0:
448,192,112881,128,0,112970:0:0:0:0:
192,192,112881,128,0,113058:0:0:0:0:
64,192,112970,128,0,113058:0:0:0:0:
448,192,113058,128,0,113234:0:0:0:0:
320,192,113058,128,0,113146:0:0:0:0:
192,192,113146,128,0,113323:0:0:0:0:
64,192,113234,1,0,0:0:0:0:
320,192,113323,128,0,113411:0:0:0:0:
64,192,113411,128,0,113587:0:0:0:0:
448,192,113411,128,0,113499:0:0:0:0:
192,192,113499,1,0,0:0:0:0:
320,192,113587,128,0,113764:0:0:0:0:
192,192,113676,128,0,113764:0:0:0:0:
64,192,113764,128,0,113940:0:0:0:0:
448,192,113764,128,0,113852:0:0:0:0:
192,192,113852,128,0,114028:0:0:0:0:
320,192,113940,128,0,114117:0:0:0:0:
64,192,114028,1,0,0:0:0:0:
192,192,114117,128,0,114205:0:0:0:0:
448,192,114117,128,0,114293:0:0:0:0:
64,192,114205,128,0,114293:0:0:0:0:
320,192,114293,128,0,114381:0:0:0:0:
192,192,114293,128,0,114470:0:0:0:0:
64,192,114381,128,0,114470:0:0:0:0:
448,192,114470,128,0,114646:0:0:0:0:
320,192,114470,128,0,114558:0:0:0:0:
192,192,114558,128,0,114734:0:0:0:0:
64,192,114646,128,0,114823:0:0:0:0:
320,192,114646,128,0,114734:0:0:0:0:
448,192,114734,128,0,114911:0:0:0:0:
320,192,114823,128,0,114911:0:0:0:0:
192,192,114823,128,0,115087:0:0:0:0:
64,192,114911,128,0,114999:0:0:0:0:
320,192,114999,128,0,115087:0:0:0:0:
448,192,114999,128,0,115176:0:0:0:0:
64,192,115087,128,0,115264:0:0:0:0:
192,192,115176,128,0,115264:0:0:0:0:
320,192,115176,128,0,115352:0:0:0:0:
448,192,115264,128,0,115440:0:0:0:0:
192,192,115352,128,0,115440:0:0:0:0:
64,192,115352,128,0,115528:0:0:0:0:
320,192,115440,128,0,115617:0:0:0:0:
192,192,115528,128,0,115617:0:0:0:0:
448,192,115528,128,0,115793:0:0:0:0:
64,192,115617,128,0,115793:0:0:0:0:
192,192,115705,128,0,115881:0:0:0:0:
320,192,115705,128,0,115970:0:0:0:0:
64,192,115881,128,0,116146:0:0:0:0:
448,192,115881,128,0,116058:0:0:0:0:
192,192,115970,128,0,116146:0:0:0:0:
320,192,116058,128,0,116234:0:0:0:0:
448,192,116146,128,0,116411:0:0:0:0:
192,192,116234,128,0,116323:0:0:0:0:
64,192,116234,128,0,116499:0:0:0:0:
320,192,116323,128,0,116587:0:0:0:0:
192,192,116411,128,0,116499:0:0:0:0:
448,192,116499,128,0,116676:0:0:0:0:
192,192,116587,128,0,116764:0:0:0:0:
64,192,116587,128,0,116852:0:0:0:0:
320,192,116676,128,0,116940:0:0:0:0:
448,192,116764,128,0,116852:0:0:0:0:
192,192,116852,128,0,117028:0:0:0:0:
64,192,116940,128,0,117117:0:0:0:0:
448,192,116940,128,0,117028:0:0:0:0:
320,192,117028,128,0,117117:0:0:0:0:
192,192,117117,128,0,117205:0:0:0:0:
64,192,117205,128,0,117293:0:0:0:0:
320,192,117293,1,0,0:0:0:0:
448,192,117293,128,0,117381:0:0:0:0:
192,192,117381,1,0,0:0:0:0:
448,192,117470,1,0,0:0:0:0:
64,192,117558,1,0,0:0:0:0:
192,192,117646,1,0,0:0:0:0:
320,192,117646,1,0,0:0:0:0:
448,192,117734,1,0,0:0:0:0:
64,192,117823,128,0,117911:0:0:0:0:
320,192,117911,1,0,0:0:0:0:
192,192,117999,1,0,0:0:0:0:
64,192,117999,1,0,0:0:0:0:
448,192,118087,1,0,0:0:0:0:
192,192,118176,1,0,0:0:0:0:
320,192,118264,1,0,0:0:0:0:
192,192,118352,1,0,0:0:0:0:
448,192,118352,1,0,0:0:0:0:
64,192,118440,1,0,0:0:0:0:
320,192,118528,128,0,118705:0:0:0:0:
448,192,118528,128,0,118705:0:0:0:0:
64,192,118705,1,0,0:0:0:0:
192,192,118705,1,0,0:0:0:0:
320,192,118793,1,0,0:0:0:0:
192,192,118881,1,0,0:0:0:0:
64,192,118970,1,0,0:0:0:0:
320,192,119058,1,0,0:0:0:0:
448,192,119058,1,0,0:0:0:0:
192,192,119146,1,0,0:0:0:0:
448,192,119234,1,0,0:0:0:0:
64,192,119323,1,0,0:0:0:0:
320,192,119411,1,0,0:0:0:0:
448,192,119411,1,0,0:0:0:0:
192,192,119499,1,0,0:0:0:0:
64,192,119587,1,0,0:0:0:0:
320,192,119676,1,0,0:0:0:0:
192,192,119764,1,0,0:0:0:0:
448,192,119764,1,0,0:0:0:0:
64,192,119852,1,0,0:0:0:0:
192,192,119940,128,0,120117:0:0:0:0:
320,192,119940,128,0,120117:0:0:0:0:
448,192,120117,1,0,0:0:0:0:
64,192,120117,1,0,0:0:0:0:
320,192,120205,1,0,0:0:0:0:
192,192,120293,1,0,0:0:0:0:
448,192,120381,1,0,0:0:0:0:
320,192,120470,1,0,0:0:0:0:
64,192,120470,1,0,0:0:0:0:
192,192,120558,1,0,0:0:0:0:
320,192,120646,1,0,0:0:0:0:
64,192,120734,1,0,0:0:0:0:
192,192,120823,1,0,0:0:0:0:
448,192,120823,1,0,0:0:0:0:
320,192,120911,1,0,0:0:0:0:
64,192,120999,1,0,0:0:0:0:
192,192,121087,1,0,0:0:0:0:
320,192,121176,1,0,0:0:0:0:
448,192,121176,1,0,0:0:0:0:
64,192,121264,1,0,0:0:0:0:
192,192,121352,128,0,121528:0:0:0:0:
320,192,121352,128,0,121440:0:0:0:0:
320,192,121528,1,0,0:0:0:0:
448,192,121528,1,0,0:0:0:0:
64,192,121528,128,0,121705:0:0:0:0:
192,192,121617,1,0,0:0:0:0:
448,192,121705,1,0,0:0:0:0:
320,192,121793,1,0,0:0:0:0:
192,192,121881,1,0,0:0:0:0:
64,192,121881,1,0,0:0:0:0:
448,192,121970,1,0,0:0:0:0:
320,192,122058,1,0,0:0:0:0:
64,192,122146,1,0,0:0:0:0:
192,192,122234,1,0,0:0:0:0:
320,192,122234,1,0,0:0:0:0:
448,192,122234,128,0,122411:0:0:0:0:
64,192,122323,1,0,0:0:0:0:
320,192,122411,1,0,0:0:0:0:
448,192,122499,1,0,0:0:0:0:
192,192,122587,1,0,0:0:0:0:
64,192,122587,1,0,0:0:0:0:
320,192,122676,1,0,0:0:0:0:
448,192,122764,1,0,0:0:0:0:
64,192,122764,1,0,0:0:0:0:
192,192,122852,1,0,0:0:0:0:
64,192,122940,1,0,0:0:0:0:
448,192,122940,1,0,0:0:0:0:
320,192,122940,128,0,123117:0:0:0:0:
192,192,123028,1,0,0:0:0:0:
448,192,123117,1,0,0:0:0:0:
64,192,123205,1,0,0:0:0:0:
192,192,123293,1,0,0:0:0:0:
320,192,123293,1,0,0:0:0:0:
448,192,123381,1,0,0:0:0:0:
64,192,123470,128,0,123558:0:0:0:0:
320,192,123558,1,0,0:0:0:0:
192,192,123646,1,0,0:0:0:0:
448,192,123646,1,0,0:0:0:0:
64,192,123734,1,0,0:0:0:0:
320,192,123823,1,0,0:0:0:0:
192,192,123911,1,0,0:0:0:0:
320,192,123999,1,0,0:0:0:0:
448,192,123999,1,0,0:0:0:0:
64,192,124087,1,0,0:0:0:0:
192,192,124176,128,0,124352:0:0:0:0:
320,192,124176,128,0,124352:0:0:0:0:
64,192,124352,1,0,0:0:0:0:
448,192,124352,1,0,0:0:0:0:
192,192,124440,1,0,0:0:0:0:
320,192,124528,128,0,124617:0:0:0:0:
64,192,124617,1,0,0:0:0:0:
448,192,124705,1,0,0:0:0:0:
192,192,124705,128,0,124793:0:0:0:0:
320,192,124793,1,0,0:0:0:0:
64,192,124881,128,0,124970:0:0:0:0:
448,192,124970,1,0,0:0:0:0:
320,192,125058,128,0,125146:0:0:0:0:
192,192,125058,1,0,0:0:0:0:
64,192,125146,1,0,0:0:0:0:
448,192,125234,128,0,125323:0:0:0:0:
192,192,125323,1,0,0:0:0:0:
64,192,125411,1,0,0:0:0:0:
320,192,125411,1,0,0:0:0:0:
448,192,125499,1,0,0:0:0:0:
192,192,125587,128,0,125676:0:0:0:0:
320,192,125676,128,0,125764:0:0:0:0:
448,192,125764,128,0,125852:0:0:0:0:
64,192,125764,1,0,0:0:0:0:
192,192,125852,1,0,0:0:0:0:
320,192,125940,128,0,126028:0:0:0:0:
64,192,126028,1,0,0:0:0:0:
192,192,126117,1,0,0:0:0:0:
448,192,126117,128,0,126205:0:0:0:0:
320,192,126205,1,0,0:0:0:0:
64,192,126293,128,0,126381:0:0:0:0:
320,192,126381,1,0,0:0:0:0:
192,192,126470,128,0,126558:0:0:0:0:
448,192,126470,1,0,0:0:0:0:
64,192,126558,1,0,0:0:0:0:
320,192,126646,128,0,126734:0:0:0:0:
64,192,126734,1,0,0:0:0:0:
192,192,126823,1,0,0:0:0:0:
448,192,126823,128,0,126911:0:0:0:0:
320,192,126911,1,0,0:0:0:0:
192,192,126999,128,0,127087:0:0:0:0:
320,192,127087,128,0,127176:0:0:0:0:
448,192,127176,128,0,127264:0:0:0:0:
64,192,127176,1,0,0:0:0:0:
192,192,127176,1,0,0:0:0:0:
192,192,127352,128,0,127440:0:0:0:0:
320,192,127440,1,0,0:0:0:0:
448,192,127440,1,0,0:0:0:0:
64,192,127440,1,0,0:0:0:0:
320,192,127705,1,0,0:0:0:0:
192,192,127705,128,0,127881:0:0:0:0:
64,192,127705,128,0,128146:0:0:0:0:
448,192,127793,128,0,127881:0:0:0:0:
320,192,127881,128,0,127970:0:0:0:0:
192,192,127970,128,0,128058:0:0:0:0:
448,192,127970,128,0,128234:0:0:0:0:
320,192,128058,128,0,128146:0:0:0:0:
192,192,128146,128,0,128323:0:0:0:0:
320,192,128234,128,0,128323:0:0:0:0:
64,192,128234,128,0,128411:0:0:0:0:
448,192,128323,128,0,128499:0:0:0:0:
192,192,128411,128,0,128587:0:0:0:0:
320,192,128411,128,0,128587:0:0:0:0:
64,192,128499,128,0,128587:0:0:0:0:
448,192,128587,128,0,132823:0:0:0:0:
64,192,129117,128,0,129205:0:0:0:0:
192,192,129161,128,0,129249:0:0:0:0:
