osu file format v14

[General]
AudioFilename: audio.ogg
AudioLeadIn: 0
PreviewTime: 12823
Countdown: 0
SampleSet: Soft
StackLeniency: 0.7
Mode: 3
LetterboxInBreaks: 0
SpecialStyle: 0
WidescreenStoryboard: 1

[Editor]
DistanceSpacing: 1
BeatDivisor: 4
GridSize: 4
TimelineZoom: 1.2

[Metadata]
Title:Uranium
TitleUnicode:Uranium
Artist:Memme
ArtistUnicode:Memme
Creator:Tailsdk
Version:Hard
Source:O2Jam - Music & Game
Tags:Park Original Soundtrack Vol. 4 Electronic Instrumental Asherz007 park jong cheol U O2JamU 박종철 오투잼 - 뮤직 & 게임 ParkMemme video game 2TMT 2v2 :thonking: Mania Tournament DeltaMax's Key Smasher DMX 3 Speed of Light LN Long Notes
BeatmapID:3151782
BeatmapSetID:872940

[Difficulty]
HPDrainRate:7.5
CircleSize:4
OverallDifficulty:7.5
ApproachRate:5
SliderMultiplier:1.4
SliderTickRate:1

[Events]
//Background and Video events
0,0,"background.jpg",0,0
//Break Periods
//Storyboard Layer 0 (Background)
//Storyboard Layer 1 (Fail)
//Storyboard Layer 2 (Pass)
//Storyboard Layer 3 (Foreground)
//Storyboard Layer 4 (Overlay)
//Storyboard Sound Samples

[TimingPoints]
1529,352.941176470588,4,2,1,70,1,0
12823,-100,4,2,1,70,0,1
35411,-100,4,2,1,70,0,0
94705,-100,4,2,1,70,0,1
117293,-100,4,2,1,70,0,0

[HitObjects]
448,192,1529,5,0,0:0:0:0:
192,192,1529,1,0,0:0:0:0:
320,192,1617,1,0,0:0:0:0:
64,192,1705,1,0,0:0:0:0:
192,192,1793,1,0,0:0:0:0:
448,192,1881,1,0,0:0:0:0:
320,192,1970,1,0,0:0:0:0:
192,192,2058,1,0,0:0:0:0:
64,192,2146,128,0,2323:0:0:0:0:
320,192,2323,128,0,2499:0:0:0:0:
64,192,2499,1,0,0:0:0:0:
192,192,2587,1,0,0:0:0:0:
448,192,2676,1,0,0:0:0:0:
320,192,2764,1,0,0:0:0:0:
192,192,2852,128,0,3028:0:0:0:0:
448,192,3028,128,0,3205:0:0:0:0:
64,192,3205,1,0,0:0:0:0:
192,192,3293,1,0,0:0:0:0:
320,192,3381,1,0,0:0:0:0:
448,192,3470,1,0,0:0:0:0:
192,192,3558,128,0,3734:0:0:0:0:
320,192,3734,128,0,3911:0:0:0:0:
64,192,3911,1,0,0:0:0:0:
192,192,3999,1,0,0:0:0:0:
448,192,4087,1,0,0:0:0:0:
320,192,4176,1,0,0:0:0:0:
192,192,4264,1,0,0:0:0:0:
64,192,4352,128,0,4528:0:0:0:0:
448,192,4528,1,0,0:0:0:0:
320,192,4617,1,0,0:0:0:0:
192,192,4705,1,0,0:0:0:0:
64,192,4793,1,0,0:0:0:0:
320,192,4881,1,0,0:0:0:0:
192,192,4970,128,0,5146:0:0:0:0:
448,192,5146,128,0,5323:0:0:0:0:
64,192,5323,1,0,0:0:0:0:
192,192,5411,1,0,0:0:0:0:
448,192,5499,1,0,0:0:0:0:
320,192,5587,1,0,0:0:0:0:
192,192,5676,128,0,5852:0:0:0:0:
448,192,5852,128,0,6028:0:0:0:0:
192,192,6028,1,0,0:0:0:0:
320,192,6117,1,0,0:0:0:0:
448,192,6205,1,0,0:0:0:0:
192,192,6293,1,0,0:0:0:0:
64,192,6381,128,0,6558:0:0:0:0:
320,192,6558,1,0,0:0:0:0:
192,192,6646,1,0,0:0:0:0:
64,192,6734,1,0,0:0:0:0:
320,192,6823,1,0,0:0:0:0:
192,192,6911,1,0,0:0:0:0:
448,192,6999,1,0,0:0:0:0:
64,192,7087,1,0,0:0:0:0:
320,192,7176,1,0,0:0:0:0:
448,192,7176,1,0,0:0:0:0:
192,192,7264,1,0,0:0:0:0:
64,192,7352,1,0,0:0:0:0:
320,192,7440,1,0,0:0:0:0:
448,192,7528,1,0,0:0:0:0:
64,192,7528,1,0,0:0:0:0:
192,192,7617,1,0,0:0:0:0:
320,192,7705,1,0,0:0:0:0:
448,192,7793,128,0,7970:0:0:0:0:
64,192,7881,1,0,0:0:0:0:
192,192,7970,128,0,8146:0:0:0:0:
320,192,8146,1,0,0:0:0:0:
64,192,8234,1,0,0:0:0:0:
448,192,8234,1,0,0:0:0:0:
192,192,8323,1,0,0:0:0:0:
448,192,8411,1,0,0:0:0:0:
320,192,8499,128,0,8676:0:0:0:0:
64,192,8587,1,0,0:0:0:0:
192,192,8676,128,0,8852:0:0:0:0:
448,192,8852,1,0,0:0:0:0:
320,192,8940,1,0,0:0:0:0:
64,192,8940,1,0,0:0:0:0:
192,192,9028,1,0,0:0:0:0:
448,192,9117,1,0,0:0:0:0:
320,192,9205,128,0,9381:0:0:0:0:
192,192,9293,1,0,0:0:0:0:
64,192,9381,128,0,9558:0:0:0:0:
320,192,9558,1,0,0:0:0:0:
192,192,9646,1,0,0:0:0:0:
448,192,9646,1,0,0:0:0:0:
64,192,9734,1,0,0:0:0:0:
320,192,9823,1,0,0:0:0:0:
192,192,9911,1,0,0:0:0:0:
320,192,9999,1,0,0:0:0:0:
448,192,9999,1,0,0:0:0:0:
448,192,10176,1,0,0:0:0:0:
192,192,10176,1,0,0:0:0:0:
64,192,10352,1,0,0:0:0:0:
320,192,10352,1,0,0:0:0:0:
64,192,10528,1,0,0:0:0:0:
192,192,10528,1,0,0:0:0:0:
320,192,10705,1,0,0:0:0:0:
448,192,10705,1,0,0:0:0:0:
64,192,10881,1,0,0:0:0:0:
448,192,10881,1,0,0:0:0:0:
192,192,11058,1,0,0:0:0:0:
320,192,11058,1,0,0:0:0:0:
192,192,11234,1,0,0:0:0:0:
448,192,11234,1,0,0:0:0:0:
320,192,11411,1,0,0:0:0:0:
64,192,11411,1,0,0:0:0:0:
192,192,11499,1,0,0:0:0:0:
448,192,11587,1,0,0:0:0:0:
320,192,11676,1,0,0:0:0:0:
448,192,11764,1,0,0:0:0:0:
192,192,11852,1,0,0:0:0:0:
320,192,11940,1,0,0:0:0:0:
448,192,12028,1,0,0:0:0:0:
192,192,12117,1,0,0:0:0:0:
64,192,12117,128,0,12293:0:0:0:0:
320,192,12293,128,0,12470:0:0:0:0:
192,192,12470,1,0,0:0:0:0:
64,192,12470,1,0,0:0:0:0:
448,192,12558,1,0,0:0:0:0:
192,192,12646,1,0,0:0:0:0:
320,192,12734,1,0,0:0:0:0:
64,192,12823,1,0,0:0:0:0:
448,192,12823,128,0,12999:0:0:0:0:
192,192,12999,1,0,0:0:0:0:
64,192,13087,1,0,0:0:0:0:
448,192,13176,1,0,0:0:0:0:
320,192,13176,128,0,13352:0:0:0:0:
64,192,13352,1,0,0:0:0:0:
192,192,13440,1,0,0:0:0:0:
320,192,13528,1,0,0:0:0:0:
448,192,13528,1,0,0:0:0:0:
192,192,13705,1,0,0:0:0:0:
64,192,13793,1,0,0:0:0:0:
320,192,13881,1,0,0:0:0:0:
448,192,13881,1,0,0:0:0:0:
64,192,14058,128,0,14234:0:0:0:0:
320,192,14234,1,0,0:0:0:0:
448,192,14234,128,0,14411:0:0:0:0:
192,192,14411,1,0,0:0:0:0:
320,192,14499,1,0,0:0:0:0:
64,192,14587,1,0,0:0:0:0:
192,192,14587,128,0,14764:0:0:0:0:
448,192,14764,1,0,0:0:0:0:
320,192,14852,1,0,0:0:0:0:
192,192,14940,1,0,0:0:0:0:
64,192,14940,1,0,0:0:0:0:
320,192,15028,1,0,0:0:0:0:
448,192,15117,1,0,0:0:0:0:
192,192,15205,1,0,0:0:0:0:
64,192,15293,1,0,0:0:0:0:
448,192,15293,1,0,0:0:0:0:
192,192,15470,128,0,15646:0:0:0:0:
448,192,15646,1,0,0:0:0:0:
64,192,15646,128,0,15823:0:0:0:0:
320,192,15823,1,0,0:0:0:0:
192,192,15911,1,0,0:0:0:0:
320,192,15999,1,0,0:0:0:0:
448,192,15999,128,0,16176:0:0:0:0:
192,192,16176,1,0,0:0:0:0:
320,192,16264,1,0,0:0:0:0:
448,192,16352,1,0,0:0:0:0:
64,192,16352,1,0,0:0:0:0:
192,192,16528,1,0,0:0:0:0:
64,192,16617,1,0,0:0:0:0:
448,192,16705,1,0,0:0:0:0:
320,192,16705,1,0,0:0:0:0:
320,192,16881,128,0,17058:0:0:0:0:
192,192,17058,1,0,0:0:0:0:
64,192,17058,128,0,17234:0:0:0:0:
320,192,17234,1,0,0:0:0:0:
192,192,17323,1,0,0:0:0:0:
64,192,17411,1,0,0:0:0:0:
448,192,17411,128,0,17587:0:0:0:0:
320,192,17587,1,0,0:0:0:0:
192,192,17676,1,0,0:0:0:0:
64,192,17764,1,0,0:0:0:0:
320,192,17764,1,0,0:0:0:0:
448,192,17852,1,0,0:0:0:0:
192,192,17940,1,0,0:0:0:0:
320,192,18028,1,0,0:0:0:0:
448,192,18117,1,0,0:0:0:0:
64,192,18117,1,0,0:0:0:0:
192,192,18205,1,0,0:0:0:0:
320,192,18293,1,0,0:0:0:0:
64,192,18381,1,0,0:0:0:0:
448,192,18470,1,0,0:0:0:0:
320,192,18470,128,0,18646:0:0:0:0:
64,192,18646,1,0,0:0:0:0:
192,192,18734,1,0,0:0:0:0:
320,192,18823,1,0,0:0:0:0:
448,192,18823,128,0,18999:0:0:0:0:
192,192,18999,1,0,0:0:0:0:
320,192,19087,1,0,0:0:0:0:
448,192,19176,1,0,0:0:0:0:
64,192,19176,1,0,0:0:0:0:
320,192,19352,1,0,0:0:0:0:
192,192,19440,1,0,0:0:0:0:
64,192,19528,1,0,0:0:0:0:
448,192,19528,1,0,0:0:0:0:
320,192,19705,128,0,19881:0:0:0:0:
64,192,19881,1,0,0:0:0:0:
192,192,19881,128,0,20058:0:0:0:0:
448,192,20058,1,0,0:0:0:0:
320,192,20146,1,0,0:0:0:0:
192,192,20234,1,0,0:0:0:0:
64,192,20234,128,0,20411:0:0:0:0:
320,192,20411,1,0,0:0:0:0:
192,192,20499,1,0,0:0:0:0:
64,192,20587,1,0,0:0:0:0:
448,192,20587,1,0,0:0:0:0:
320,192,20676,1,0,0:0:0:0:
192,192,20764,1,0,0:0:0:0:
448,192,20852,1,0,0:0:0:0:
64,192,20940,1,0,0:0:0:0:
192,192,20940,1,0,0:0:0:0:
320,192,21117,128,0,21293:0:0:0:0:
64,192,21293,1,0,0:0:0:0:
448,192,21293,1,0,0:0:0:0:
64,192,21470,1,0,0:0:0:0:
320,192,21470,1,0,0:0:0:0:
192,192,21646,1,0,0:0:0:0:
448,192,21646,1,0,0:0:0:0:
448,192,21823,1,0,0:0:0:0:
320,192,21823,1,0,0:0:0:0:
192,192,21999,1,0,0:0:0:0:
64,192,21999,1,0,0:0:0:0:
192,192,22176,1,0,0:0:0:0:
448,192,22176,1,0,0:0:0:0:
320,192,22352,1,0,0:0:0:0:
64,192,22352,1,0,0:0:0:0:
320,192,22528,1,0,0:0:0:0:
192,192,22528,1,0,0:0:0:0:
64,192,22705,1,0,0:0:0:0:
448,192,22705,128,0,22881:0:0:0:0:
320,192,22881,128,0,23058:0:0:0:0:
192,192,23058,128,0,23234:0:0:0:0:
64,192,23058,1,0,0:0:0:0:
320,192,23234,1,0,0:0:0:0:
448,192,23323,1,0,0:0:0:0:
64,192,23411,1,0,0:0:0:0:
192,192,23411,1,0,0:0:0:0:
320,192,23499,128,0,23676:0:0:0:0:
192,192,23676,1,0,0:0:0:0:
64,192,23764,1,0,0:0:0:0:
448,192,23764,1,0,0:0:0:0:
320,192,23852,1,0,0:0:0:0:
192,192,23940,1,0,0:0:0:0:
64,192,24028,1,0,0:0:0:0:
448,192,24117,1,0,0:0:0:0:
320,192,24117,128,0,24293:0:0:0:0:
64,192,24293,1,0,0:0:0:0:
192,192,24381,1,0,0:0:0:0:
320,192,24470,1,0,0:0:0:0:
448,192,24470,128,0,24646:0:0:0:0:
192,192,24646,1,0,0:0:0:0:
64,192,24734,1,0,0:0:0:0:
320,192,24823,1,0,0:0:0:0:
448,192,24823,1,0,0:0:0:0:
192,192,24999,1,0,0:0:0:0:
320,192,25087,1,0,0:0:0:0:
448,192,25176,1,0,0:0:0:0:
64,192,25176,1,0,0:0:0:0:
320,192,25352,128,0,25528:0:0:0:0:
192,192,25528,1,0,0:0:0:0:
64,192,25528,128,0,25705:0:0:0:0:
448,192,25705,1,0,0:0:0:0:
320,192,25793,1,0,0:0:0:0:
64,192,25881,1,0,0:0:0:0:
192,192,25881,128,0,26058:0:0:0:0:
448,192,26058,1,0,0:0:0:0:
320,192,26146,1,0,0:0:0:0:
192,192,26234,1,0,0:0:0:0:
64,192,26234,1,0,0:0:0:0:
320,192,26323,1,0,0:0:0:0:
448,192,26411,1,0,0:0:0:0:
192,192,26499,1,0,0:0:0:0:
320,192,26587,1,0,0:0:0:0:
64,192,26587,1,0,0:0:0:0:
320,192,26764,128,0,26940:0:0:0:0:
192,192,26940,1,0,0:0:0:0:
448,192,26940,128,0,27117:0:0:0:0:
64,192,27117,1,0,0:0:0:0:
192,192,27205,1,0,0:0:0:0:
448,192,27293,1,0,0:0:0:0:
320,192,27293,128,0,27470:0:0:0:0:
192,192,27470,1,0,0:0:0:0:
64,192,27558,1,0,0:0:0:0:
320,192,27646,1,0,0:0:0:0:
448,192,27646,1,0,0:0:0:0:
192,192,27823,1,0,0:0:0:0:
320,192,27911,1,0,0:0:0:0:
64,192,27999,1,0,0:0:0:0:
192,192,27999,1,0,0:0:0:0:
320,192,28176,128,0,28352:0:0:0:0:
448,192,28352,1,0,0:0:0:0:
64,192,28352,128,0,28528:0:0:0:0:
320,192,28528,128,0,28705:0:0:0:0:
448,192,28705,1,0,0:0:0:0:
192,192,28705,128,0,28881:0:0:0:0:
320,192,28881,1,0,0:0:0:0:
448,192,28970,1,0,0:0:0:0:
192,192,29058,1,0,0:0:0:0:
64,192,29058,1,0,0:0:0:0:
320,192,29146,1,0,0:0:0:0:
448,192,29234,1,0,0:0:0:0:
192,192,29323,1,0,0:0:0:0:
320,192,29411,1,0,0:0:0:0:
64,192,29411,1,0,0:0:0:0:
448,192,29499,1,0,0:0:0:0:
192,192,29587,1,0,0:0:0:0:
320,192,29676,1,0,0:0:0:0:
192,192,29764,1,0,0:0:0:0:
64,192,29764,128,0,29940:0:0:0:0:
320,192,29940,1,0,0:0:0:0:
192,192,30028,1,0,0:0:0:0:
64,192,30117,1,0,0:0:0:0:
448,192,30117,128,0,30293:0:0:0:0:
192,192,30293,1,0,0:0:0:0:
320,192,30381,1,0,0:0:0:0:
192,192,30470,1,0,0:0:0:0:
64,192,30470,1,0,0:0:0:0:
320,192,30646,1,0,0:0:0:0:
192,192,30734,1,0,0:0:0:0:
64,192,30823,1,0,0:0:0:0:
448,192,30823,1,0,0:0:0:0:
64,192,30999,128,0,31176:0:0:0:0:
448,192,31176,1,0,0:0:0:0:
192,192,31176,128,0,31352:0:0:0:0:
320,192,31352,128,0,31528:0:0:0:0:
64,192,31528,128,0,31705:0:0:0:0:
192,192,31528,1,0,0:0:0:0:
448,192,31705,1,0,0:0:0:0:
320,192,31793,1,0,0:0:0:0:
64,192,31881,1,0,0:0:0:0:
192,192,31881,1,0,0:0:0:0:
448,192,31970,1,0,0:0:0:0:
192,192,32058,1,0,0:0:0:0:
320,192,32146,1,0,0:0:0:0:
448,192,32234,1,0,0:0:0:0:
64,192,32234,1,0,0:0:0:0:
64,192,32411,128,0,32587:0:0:0:0:
320,192,32587,1,0,0:0:0:0:
448,192,32587,1,0,0:0:0:0:
448,192,32764,1,0,0:0:0:0:
192,192,32764,1,0,0:0:0:0:
64,192,32940,1,0,0:0:0:0:
320,192,32940,1,0,0:0:0:0:
64,192,33117,1,0,0:0:0:0:
448,192,33117,1,0,0:0:0:0:
192,192,33293,1,0,0:0:0:0:
320,192,33293,1,0,0:0:0:0:
320,192,33470,1,0,0:0:0:0:
64,192,33470,1,0,0:0:0:0:
192,192,33646,1,0,0:0:0:0:
448,192,33646,1,0,0:0:0:0:
448,192,33823,1,0,0:0:0:0:
64,192,33823,1,0,0:0:0:0:
320,192,33999,1,0,0:0:0:0:
192,192,33999,128,0,34176:0:0:0:0:
448,192,34176,128,0,34352:0:0:0:0:
64,192,34352,1,0,0:0:0:0:
320,192,34352,128,0,34528:0:0:0:0:
64,192,34528,128,0,34705:0:0:0:0:
192,192,34617,1,0,0:0:0:0:
448,192,34705,128,0,34881:0:0:0:0:
64,192,34881,128,0,35058:0:0:0:0:
320,192,34881,1,0,0:0:0:0:
320,192,35058,128,0,35234:0:0:0:0:
192,192,35146,1,0,0:0:0:0:
64,192,35234,128,0,35411:0:0:0:0:
320,192,35411,1,0,0:0:0:0:
448,192,35411,128,0,35940:0:0:0:0:
64,192,35940,128,0,36646:0:0:0:0:
192,192,35940,1,0,0:0:0:0:
320,192,36646,128,0,36823:0:0:0:0:
448,192,36999,1,0,0:0:0:0:
320,192,36999,128,0,37176:0:0:0:0:
192,192,37176,128,0,37352:0:0:0:0:
64,192,37176,1,0,0:0:0:0:
64,192,37352,128,0,37528:0:0:0:0:
448,192,37352,1,0,0:0:0:0:
320,192,37528,128,0,37793:0:0:0:0:
448,192,37528,1,0,0:0:0:0:
64,192,37793,128,0,38058:0:0:0:0:
192,192,37793,1,0,0:0:0:0:
320,192,38058,128,0,38234:0:0:0:0:
448,192,38058,128,0,38234:0:0:0:0:
64,192,38234,1,0,0:0:0:0:
192,192,38234,128,0,38764:0:0:0:0:
448,192,38764,1,0,0:0:0:0:
320,192,38764,128,0,39293:0:0:0:0:
192,192,39293,1,0,0:0:0:0:
64,192,39293,128,0,39646:0:0:0:0:
320,192,39470,128,0,39646:0:0:0:0:
448,192,39646,128,0,40176:0:0:0:0:
192,192,39646,1,0,0:0:0:0:
192,192,40176,1,0,0:0:0:0:
64,192,40176,128,0,40528:0:0:0:0:
320,192,40528,128,0,40705:0:0:0:0:
448,192,40528,1,0,0:0:0:0:
192,192,40705,128,0,40881:0:0:0:0:
64,192,40705,1,0,0:0:0:0:
448,192,40881,128,0,41058:0:0:0:0:
320,192,40881,1,0,0:0:0:0:
64,192,41058,1,0,0:0:0:0:
192,192,41058,1,0,0:0:0:0:
320,192,41234,1,0,0:0:0:0:
192,192,41323,1,0,0:0:0:0:
320,192,41411,1,0,0:0:0:0:
448,192,41411,1,0,0:0:0:0:
192,192,41587,1,0,0:0:0:0:
320,192,41676,1,0,0:0:0:0:
448,192,41764,1,0,0:0:0:0:
64,192,41764,1,0,0:0:0:0:
192,192,41940,1,0,0:0:0:0:
320,192,42028,1,0,0:0:0:0:
192,192,42117,1,0,0:0:0:0:
64,192,42117,1,0,0:0:0:0:
448,192,42293,128,0,42470:0:0:0:0:
192,192,42470,1,0,0:0:0:0:
64,192,42470,1,0,0:0:0:0:
320,192,42646,1,0,0:0:0:0:
192,192,42734,1,0,0:0:0:0:
64,192,42823,1,0,0:0:0:0:
448,192,42823,1,0,0:0:0:0:
320,192,42999,1,0,0:0:0:0:
192,192,43087,1,0,0:0:0:0:
320,192,43176,1,0,0:0:0:0:
448,192,43176,1,0,0:0:0:0:
192,192,43352,1,0,0:0:0:0:
320,192,43440,1,0,0:0:0:0:
64,192,43528,1,0,0:0:0:0:
448,192,43528,1,0,0:0:0:0:
192,192,43705,128,0,43881:0:0:0:0:
320,192,43881,1,0,0:0:0:0:
448,192,43881,1,0,0:0:0:0:
448,192,44058,1,0,0:0:0:0:
64,192,44058,1,0,0:0:0:0:
320,192,44234,1,0,0:0:0:0:
192,192,44234,1,0,0:0:0:0:
64,192,44411,1,0,0:0:0:0:
320,192,44411,1,0,0:0:0:0:
192,192,44587,1,0,0:0:0:0:
448,192,44587,1,0,0:0:0:0:
192,192,44764,1,0,0:0:0:0:
64,192,44764,1,0,0:0:0:0:
320,192,44940,1,0,0:0:0:0:
448,192,44940,1,0,0:0:0:0:
320,192,45117,1,0,0:0:0:0:
64,192,45117,1,0,0:0:0:0:
192,192,45293,1,0,0:0:0:0:
448,192,45293,1,0,0:0:0:0:
320,192,45381,1,0,0:0:0:0:
64,192,45470,1,0,0:0:0:0:
192,192,45558,1,0,0:0:0:0:
448,192,45558,1,0,0:0:0:0:
320,192,45734,1,0,0:0:0:0:
448,192,45734,1,0,0:0:0:0:
64,192,45823,1,0,0:0:0:0:
192,192,45823,128,0,45999:0:0:0:0:
320,192,45999,128,0,46176:0:0:0:0:
448,192,45999,1,0,0:0:0:0:
448,192,46176,128,0,46528:0:0:0:0:
192,192,46352,128,0,46528:0:0:0:0:
320,192,46528,128,0,46705:0:0:0:0:
64,192,46528,1,0,0:0:0:0:
192,192,46705,1,0,0:0:0:0:
448,192,46705,1,0,0:0:0:0:
64,192,46793,1,0,0:0:0:0:
320,192,46881,1,0,0:0:0:0:
448,192,46970,1,0,0:0:0:0:
64,192,47058,1,0,0:0:0:0:
320,192,47058,1,0,0:0:0:0:
192,192,47234,1,0,0:0:0:0:
320,192,47323,1,0,0:0:0:0:
448,192,47411,1,0,0:0:0:0:
64,192,47411,1,0,0:0:0:0:
192,192,47587,1,0,0:0:0:0:
320,192,47764,1,0,0:0:0:0:
64,192,47764,1,0,0:0:0:0:
448,192,47940,128,0,48117:0:0:0:0:
192,192,48117,1,0,0:0:0:0:
64,192,48117,1,0,0:0:0:0:
320,192,48293,1,0,0:0:0:0:
192,192,48381,1,0,0:0:0:0:
320,192,48470,1,0,0:0:0:0:
448,192,48470,1,0,0:0:0:0:
192,192,48646,1,0,0:0:0:0:
320,192,48734,1,0,0:0:0:0:
448,192,48823,1,0,0:0:0:0:
64,192,48823,1,0,0:0:0:0:
192,192,48911,1,0,0:0:0:0:
448,192,48999,1,0,0:0:0:0:
320,192,49087,1,0,0:0:0:0:
192,192,49176,1,0,0:0:0:0:
64,192,49176,1,0,0:0:0:0:
448,192,49264,1,0,0:0:0:0:
320,192,49352,1,0,0:0:0:0:
192,192,49440,1,0,0:0:0:0:
64,192,49528,1,0,0:0:0:0:
448,192,49528,1,0,0:0:0:0:
320,192,49617,1,0,0:0:0:0:
192,192,49705,1,0,0:0:0:0:
64,192,49793,1,0,0:0:0:0:
320,192,49881,1,0,0:0:0:0:
192,192,49970,1,0,0:0:0:0:
448,192,50058,1,0,0:0:0:0:
320,192,50146,1,0,0:0:0:0:
64,192,50234,1,0,0:0:0:0:
192,192,50323,1,0,0:0:0:0:
320,192,50411,1,0,0:0:0:0:
64,192,50499,1,0,0:0:0:0:
448,192,50587,1,0,0:0:0:0:
192,192,50676,1,0,0:0:0:0:
320,192,50764,1,0,0:0:0:0:
192,192,50852,1,0,0:0:0:0:
64,192,50940,1,0,0:0:0:0:
448,192,50940,1,0,0:0:0:0:
192,192,51117,1,0,0:0:0:0:
192,192,51293,1,0,0:0:0:0:
320,192,51381,1,0,0:0:0:0:
448,192,51470,1,0,0:0:0:0:
192,192,51558,1,0,0:0:0:0:
448,192,51646,1,0,0:0:0:0:
320,192,51646,1,0,0:0:0:0:
64,192,51734,1,0,0:0:0:0:
320,192,51823,1,0,0:0:0:0:
192,192,51911,1,0,0:0:0:0:
64,192,51999,1,0,0:0:0:0:
320,192,52087,1,0,0:0:0:0:
192,192,52176,1,0,0:0:0:0:
448,192,52264,1,0,0:0:0:0:
320,192,52352,1,0,0:0:0:0:
64,192,52352,1,0,0:0:0:0:
64,192,52528,1,0,0:0:0:0:
320,192,52705,1,0,0:0:0:0:
448,192,52705,1,0,0:0:0:0:
192,192,52881,1,0,0:0:0:0:
320,192,52970,1,0,0:0:0:0:
64,192,53058,1,0,0:0:0:0:
448,192,53058,1,0,0:0:0:0:
192,192,53234,1,0,0:0:0:0:
320,192,53411,1,0,0:0:0:0:
448,192,53587,128,0,53764:0:0:0:0:
192,192,53764,1,0,0:0:0:0:
64,192,53764,1,0,0:0:0:0:
320,192,53940,1,0,0:0:0:0:
192,192,54028,1,0,0:0:0:0:
64,192,54117,1,0,0:0:0:0:
448,192,54117,1,0,0:0:0:0:
320,192,54293,1,0,0:0:0:0:
192,192,54381,1,0,0:0:0:0:
320,192,54470,1,0,0:0:0:0:
448,192,54470,1,0,0:0:0:0:
64,192,54558,1,0,0:0:0:0:
192,192,54646,1,0,0:0:0:0:
320,192,54734,1,0,0:0:0:0:
448,192,54823,1,0,0:0:0:0:
64,192,54823,1,0,0:0:0:0:
192,192,54911,1,0,0:0:0:0:
320,192,54999,1,0,0:0:0:0:
64,192,55087,1,0,0:0:0:0:
320,192,55176,1,0,0:0:0:0:
448,192,55176,1,0,0:0:0:0:
192,192,55264,1,0,0:0:0:0:
64,192,55352,1,0,0:0:0:0:
320,192,55440,1,0,0:0:0:0:
192,192,55528,1,0,0:0:0:0:
448,192,55617,1,0,0:0:0:0:
320,192,55705,1,0,0:0:0:0:
64,192,55793,1,0,0:0:0:0:
320,192,55881,1,0,0:0:0:0:
192,192,55970,1,0,0:0:0:0:
448,192,56058,1,0,0:0:0:0:
320,192,56146,1,0,0:0:0:0:
64,192,56234,1,0,0:0:0:0:
192,192,56323,1,0,0:0:0:0:
320,192,56411,1,0,0:0:0:0:
448,192,56499,1,0,0:0:0:0:
192,192,56587,1,0,0:0:0:0:
64,192,56587,1,0,0:0:0:0:
320,192,56676,1,0,0:0:0:0:
192,192,56764,1,0,0:0:0:0:
64,192,56852,1,0,0:0:0:0:
320,192,56940,1,0,0:0:0:0:
192,192,57028,1,0,0:0:0:0:
448,192,57117,1,0,0:0:0:0:
448,192,57293,1,0,0:0:0:0:
192,192,57381,1,0,0:0:0:0:
320,192,57470,1,0,0:0:0:0:
64,192,57558,1,0,0:0:0:0:
192,192,57646,1,0,0:0:0:0:
448,192,57646,1,0,0:0:0:0:
320,192,57734,1,0,0:0:0:0:
64,192,57823,1,0,0:0:0:0:
192,192,57911,1,0,0:0:0:0:
320,192,57999,1,0,0:0:0:0:
448,192,57999,1,0,0:0:0:0:
192,192,58087,1,0,0:0:0:0:
448,192,58176,1,0,0:0:0:0:
320,192,58264,1,0,0:0:0:0:
192,192,58352,1,0,0:0:0:0:
64,192,58352,1,0,0:0:0:0:
448,192,58440,1,0,0:0:0:0:
192,192,58528,1,0,0:0:0:0:
320,192,58617,1,0,0:0:0:0:
448,192,58705,1,0,0:0:0:0:
64,192,58705,1,0,0:0:0:0:
192,192,58793,1,0,0:0:0:0:
320,192,58881,1,0,0:0:0:0:
64,192,58970,1,0,0:0:0:0:
192,192,59058,1,0,0:0:0:0:
448,192,59058,1,0,0:0:0:0:
320,192,59146,1,0,0:0:0:0:
64,192,59234,1,0,0:0:0:0:
448,192,59323,1,0,0:0:0:0:
320,192,59411,1,0,0:0:0:0:
192,192,59411,1,0,0:0:0:0:
64,192,59499,1,0,0:0:0:0:
320,192,59587,1,0,0:0:0:0:
192,192,59676,1,0,0:0:0:0:
64,192,59764,1,0,0:0:0:0:
448,192,59764,1,0,0:0:0:0:
320,192,59852,1,0,0:0:0:0:
192,192,59940,1,0,0:0:0:0:
448,192,60028,1,0,0:0:0:0:
192,192,60117,1,0,0:0:0:0:
64,192,60117,1,0,0:0:0:0:
448,192,60470,128,0,60823:0:0:0:0:
192,192,60646,1,0,0:0:0:0:
320,192,60823,1,0,0:0:0:0:
64,192,60823,1,0,0:0:0:0:
192,192,60911,1,0,0:0:0:0:
448,192,60999,1,0,0:0:0:0:
320,192,61087,1,0,0:0:0:0:
64,192,61176,1,0,0:0:0:0:
192,192,61264,1,0,0:0:0:0:
320,192,61352,1,0,0:0:0:0:
448,192,61440,128,0,61617:0:0:0:0:
192,192,61617,128,0,61793:0:0:0:0:
320,192,61793,1,0,0:0:0:0:
448,192,61881,1,0,0:0:0:0:
192,192,61970,1,0,0:0:0:0:
320,192,62058,1,0,0:0:0:0:
64,192,62146,128,0,62323:0:0:0:0:
448,192,62323,128,0,62499:0:0:0:0:
192,192,62499,1,0,0:0:0:0:
64,192,62587,1,0,0:0:0:0:
320,192,62676,1,0,0:0:0:0:
192,192,62764,1,0,0:0:0:0:
320,192,62852,128,0,63028:0:0:0:0:
64,192,63028,128,0,63205:0:0:0:0:
320,192,63205,1,0,0:0:0:0:
192,192,63293,1,0,0:0:0:0:
64,192,63381,1,0,0:0:0:0:
320,192,63470,1,0,0:0:0:0:
192,192,63558,1,0,0:0:0:0:
448,192,63646,1,0,0:0:0:0:
320,192,63734,1,0,0:0:0:0:
448,192,63823,1,0,0:0:0:0:
192,192,63911,1,0,0:0:0:0:
320,192,63999,1,0,0:0:0:0:
64,192,64087,1,0,0:0:0:0:
192,192,64176,1,0,0:0:0:0:
320,192,64264,128,0,64440:0:0:0:0:
64,192,64440,128,0,64617:0:0:0:0:
448,192,64617,1,0,0:0:0:0:
320,192,64705,1,0,0:0:0:0:
192,192,64793,1,0,0:0:0:0:
320,192,64881,1,0,0:0:0:0:
64,192,64970,128,0,65146:0:0:0:0:
448,192,65146,128,0,65323:0:0:0:0:
192,192,65323,1,0,0:0:0:0:
320,192,65411,1,0,0:0:0:0:
448,192,65499,1,0,0:0:0:0:
192,192,65587,1,0,0:0:0:0:
320,192,65676,128,0,65852:0:0:0:0:
64,192,65852,128,0,66028:0:0:0:0:
320,192,66028,1,0,0:0:0:0:
192,192,66117,1,0,0:0:0:0:
64,192,66205,1,0,0:0:0:0:
320,192,66293,1,0,0:0:0:0:
448,192,66381,1,0,0:0:0:0:
192,192,66470,128,0,66646:0:0:0:0:
64,192,66470,1,0,0:0:0:0:
320,192,66646,1,0,0:0:0:0:
448,192,66734,1,0,0:0:0:0:
192,192,66823,1,0,0:0:0:0:
320,192,66911,1,0,0:0:0:0:
64,192,66999,1,0,0:0:0:0:
448,192,67087,128,0,67264:0:0:0:0:
320,192,67176,1,0,0:0:0:0:
192,192,67264,128,0,67440:0:0:0:0:
448,192,67440,1,0,0:0:0:0:
320,192,67528,1,0,0:0:0:0:
64,192,67528,1,0,0:0:0:0:
192,192,67617,1,0,0:0:0:0:
448,192,67705,1,0,0:0:0:0:
64,192,67793,128,0,67970:0:0:0:0:
192,192,67881,1,0,0:0:0:0:
320,192,67970,128,0,68146:0:0:0:0:
192,192,68146,1,0,0:0:0:0:
64,192,68234,1,0,0:0:0:0:
448,192,68234,1,0,0:0:0:0:
320,192,68323,1,0,0:0:0:0:
192,192,68411,1,0,0:0:0:0:
448,192,68499,128,0,68676:0:0:0:0:
64,192,68587,1,0,0:0:0:0:
192,192,68676,128,0,68852:0:0:0:0:
320,192,68852,1,0,0:0:0:0:
448,192,68940,1,0,0:0:0:0:
64,192,68940,1,0,0:0:0:0:
192,192,69028,1,0,0:0:0:0:
320,192,69117,1,0,0:0:0:0:
64,192,69205,1,0,0:0:0:0:
320,192,69293,1,0,0:0:0:0:
448,192,69293,1,0,0:0:0:0:
64,192,69470,1,0,0:0:0:0:
448,192,69470,1,0,0:0:0:0:
192,192,69646,1,0,0:0:0:0:
320,192,69646,1,0,0:0:0:0:
192,192,69823,1,0,0:0:0:0:
448,192,69823,1,0,0:0:0:0:
320,192,69999,1,0,0:0:0:0:
64,192,69999,1,0,0:0:0:0:
320,192,70176,1,0,0:0:0:0:
192,192,70176,1,0,0:0:0:0:
448,192,70352,1,0,0:0:0:0:
64,192,70352,1,0,0:0:0:0:
64,192,70528,1,0,0:0:0:0:
320,192,70528,1,0,0:0:0:0:
192,192,70705,1,0,0:0:0:0:
448,192,70705,1,0,0:0:0:0:
64,192,70793,1,0,0:0:0:0:
320,192,70881,1,0,0:0:0:0:
192,192,70970,1,0,0:0:0:0:
64,192,71058,1,0,0:0:0:0:
320,192,71058,1,0,0:0:0:0:
448,192,71146,1,0,0:0:0:0:
192,192,71234,1,0,0:0:0:0:
320,192,71323,1,0,0:0:0:0:
64,192,71411,1,0,0:0:0:0:
448,192,71411,1,0,0:0:0:0:
192,192,71587,128,0,71764:0:0:0:0:
320,192,71764,1,0,0:0:0:0:
448,192,71764,128,0,72117:0:0:0:0:
64,192,71940,128,0,72117:0:0:0:0:
192,192,72117,1,0,0:0:0:0:
320,192,72117,1,0,0:0:0:0:
448,192,72293,1,0,0:0:0:0:
192,192,72470,1,0,0:0:0:0:
320,192,72646,1,0,0:0:0:0:
192,192,72734,1,0,0:0:0:0:
64,192,72911,1,0,0:0:0:0:
192,192,73087,1,0,0:0:0:0:
320,192,73176,1,0,0:0:0:0:
448,192,73352,1,0,0:0:0:0:
192,192,73528,1,0,0:0:0:0:
320,192,73705,1,0,0:0:0:0:
64,192,73881,1,0,0:0:0:0:
320,192,74058,1,0,0:0:0:0:
192,192,74146,1,0,0:0:0:0:
448,192,74323,1,0,0:0:0:0:
192,192,74499,1,0,0:0:0:0:
320,192,74587,1,0,0:0:0:0:
448,192,74764,1,0,0:0:0:0:
64,192,74940,1,0,0:0:0:0:
320,192,75117,1,0,0:0:0:0:
192,192,75293,1,0,0:0:0:0:
320,192,75470,1,0,0:0:0:0:
192,192,75558,1,0,0:0:0:0:
64,192,75734,1,0,0:0:0:0:
320,192,75911,1,0,0:0:0:0:
192,192,75999,1,0,0:0:0:0:
64,192,76176,1,0,0:0:0:0:
320,192,76352,1,0,0:0:0:0:
448,192,76528,1,0,0:0:0:0:
192,192,76705,1,0,0:0:0:0:
320,192,76881,1,0,0:0:0:0:
448,192,76970,1,0,0:0:0:0:
64,192,77146,1,0,0:0:0:0:
192,192,77323,1,0,0:0:0:0:
320,192,77411,1,0,0:0:0:0:
64,192,77587,1,0,0:0:0:0:
320,192,77764,1,0,0:0:0:0:
448,192,77764,1,0,0:0:0:0:
192,192,77940,1,0,0:0:0:0:
320,192,78117,1,0,0:0:0:0:
192,192,78293,1,0,0:0:0:0:
64,192,78293,1,0,0:0:0:0:
320,192,78381,1,0,0:0:0:0:
192,192,78558,1,0,0:0:0:0:
320,192,78646,1,0,0:0:0:0:
448,192,78646,1,0,0:0:0:0:
64,192,78734,1,0,0:0:0:0:
192,192,78823,1,0,0:0:0:0:
320,192,78999,1,0,0:0:0:0:
64,192,79176,1,0,0:0:0:0:
192,192,79176,1,0,0:0:0:0:
448,192,79352,1,0,0:0:0:0:
192,192,79440,1,0,0:0:0:0:
64,192,79440,1,0,0:0:0:0:
320,192,79528,1,0,0:0:0:0:
320,192,79705,1,0,0:0:0:0:
448,192,79705,1,0,0:0:0:0:
192,192,79793,1,0,0:0:0:0:
192,192,79970,1,0,0:0:0:0:
320,192,80058,1,0,0:0:0:0:
448,192,80058,1,0,0:0:0:0:
320,192,80234,1,0,0:0:0:0:
192,192,80323,1,0,0:0:0:0:
64,192,80323,1,0,0:0:0:0:
448,192,80411,1,0,0:0:0:0:
192,192,80587,1,0,0:0:0:0:
64,192,80587,1,0,0:0:0:0:
320,192,80764,1,0,0:0:0:0:
192,192,80940,1,0,0:0:0:0:
320,192,81117,1,0,0:0:0:0:
448,192,81117,1,0,0:0:0:0:
64,192,81205,1,0,0:0:0:0:
320,192,81381,1,0,0:0:0:0:
192,192,81470,1,0,0:0:0:0:
64,192,81470,1,0,0:0:0:0:
448,192,81558,1,0,0:0:0:0:
320,192,81646,1,0,0:0:0:0:
192,192,81823,1,0,0:0:0:0:
64,192,81999,1,0,0:0:0:0:
448,192,81999,128,0,82176:0:0:0:0:
192,192,82176,1,0,0:0:0:0:
448,192,82264,1,0,0:0:0:0:
320,192,82264,128,0,82440:0:0:0:0:
64,192,82440,1,0,0:0:0:0:
320,192,82528,1,0,0:0:0:0:
448,192,82528,1,0,0:0:0:0:
448,192,82705,1,0,0:0:0:0:
192,192,82705,1,0,0:0:0:0:
320,192,82793,1,0,0:0:0:0:
64,192,82881,1,0,0:0:0:0:
192,192,82970,1,0,0:0:0:0:
320,192,83058,128,0,83234:0:0:0:0:
192,192,83234,1,0,0:0:0:0:
64,192,83234,1,0,0:0:0:0:
320,192,83411,1,0,0:0:0:0:
448,192,83411,1,0,0:0:0:0:
192,192,83587,1,0,0:0:0:0:
320,192,83676,1,0,0:0:0:0:
64,192,83764,1,0,0:0:0:0:
448,192,83764,1,0,0:0:0:0:
192,192,83852,1,0,0:0:0:0:
320,192,83940,1,0,0:0:0:0:
64,192,84028,1,0,0:0:0:0:
320,192,84117,1,0,0:0:0:0:
448,192,84117,1,0,0:0:0:0:
192,192,84205,1,0,0:0:0:0:
64,192,84293,1,0,0:0:0:0:
320,192,84381,1,0,0:0:0:0:
192,192,84470,1,0,0:0:0:0:
448,192,84470,128,0,84646:0:0:0:0:
64,192,84646,128,0,84823:0:0:0:0:
320,192,84823,1,0,0:0:0:0:
448,192,84823,1,0,0:0:0:0:
192,192,84999,1,0,0:0:0:0:
320,192,85087,1,0,0:0:0:0:
448,192,85176,1,0,0:0:0:0:
192,192,85176,1,0,0:0:0:0:
64,192,85264,1,0,0:0:0:0:
320,192,85352,1,0,0:0:0:0:
192,192,85440,1,0,0:0:0:0:
64,192,85528,1,0,0:0:0:0:
448,192,85528,1,0,0:0:0:0:
320,192,85617,1,0,0:0:0:0:
192,192,85705,1,0,0:0:0:0:
64,192,85793,1,0,0:0:0:0:
320,192,85881,1,0,0:0:0:0:
448,192,85881,128,0,86058:0:0:0:0:
64,192,86058,128,0,86234:0:0:0:0:
320,192,86234,1,0,0:0:0:0:
448,192,86234,1,0,0:0:0:0:
192,192,86411,1,0,0:0:0:0:
320,192,86499,1,0,0:0:0:0:
64,192,86587,1,0,0:0:0:0:
192,192,86587,1,0,0:0:0:0:
448,192,86676,1,0,0:0:0:0:
320,192,86764,1,0,0:0:0:0:
192,192,86852,1,0,0:0:0:0:
64,192,86940,1,0,0:0:0:0:
448,192,86940,1,0,0:0:0:0:
320,192,87028,1,0,0:0:0:0:
192,192,87117,1,0,0:0:0:0:
64,192,87205,1,0,0:0:0:0:
320,192,87293,1,0,0:0:0:0:
448,192,87293,128,0,87470:0:0:0:0:
192,192,87470,128,0,87646:0:0:0:0:
320,192,87646,1,0,0:0:0:0:
448,192,87646,1,0,0:0:0:0:
192,192,87823,1,0,0:0:0:0:
320,192,87911,1,0,0:0:0:0:
64,192,87999,1,0,0:0:0:0:
192,192,87999,1,0,0:0:0:0:
448,192,88087,1,0,0:0:0:0:
320,192,88176,1,0,0:0:0:0:
192,192,88264,1,0,0:0:0:0:
64,192,88352,1,0,0:0:0:0:
320,192,88352,1,0,0:0:0:0:
448,192,88440,1,0,0:0:0:0:
192,192,88528,1,0,0:0:0:0:
320,192,88617,1,0,0:0:0:0:
64,192,88705,1,0,0:0:0:0:
448,192,88705,128,0,88881:0:0:0:0:
192,192,88881,128,0,89058:0:0:0:0:
64,192,88881,1,0,0:0:0:0:
320,192,89058,1,0,0:0:0:0:
448,192,89058,1,0,0:0:0:0:
64,192,89234,1,0,0:0:0:0:
192,192,89323,1,0,0:0:0:0:
320,192,89411,1,0,0:0:0:0:
448,192,89411,1,0,0:0:0:0:
192,192,89499,1,0,0:0:0:0:
64,192,89587,1,0,0:0:0:0:
320,192,89676,1,0,0:0:0:0:
192,192,89764,1,0,0:0:0:0:
448,192,89764,1,0,0:0:0:0:
64,192,89852,1,0,0:0:0:0:
320,192,89940,1,0,0:0:0:0:
192,192,90028,1,0,0:0:0:0:
448,192,90117,1,0,0:0:0:0:
64,192,90117,128,0,90293:0:0:0:0:
320,192,90293,128,0,90470:0:0:0:0:
192,192,90470,1,0,0:0:0:0:
64,192,90470,1,0,0:0:0:0:
448,192,90646,1,0,0:0:0:0:
192,192,90734,1,0,0:0:0:0:
64,192,90823,1,0,0:0:0:0:
320,192,90823,1,0,0:0:0:0:
448,192,90911,1,0,0:0:0:0:
192,192,90999,1,0,0:0:0:0:
320,192,91087,1,0,0:0:0:0:
192,192,91176,1,0,0:0:0:0:
64,192,91176,1,0,0:0:0:0:
448,192,91264,1,0,0:0:0:0:
320,192,91352,1,0,0:0:0:0:
192,192,91440,1,0,0:0:0:0:
448,192,91528,1,0,0:0:0:0:
64,192,91528,128,0,91705:0:0:0:0:
320,192,91705,128,0,91881:0:0:0:0:
192,192,91881,1,0,0:0:0:0:
64,192,91881,1,0,0:0:0:0:
64,192,92058,1,0,0:0:0:0:
320,192,92058,1,0,0:0:0:0:
192,192,92234,1,0,0:0:0:0:
448,192,92234,1,0,0:0:0:0:
448,192,92411,1,0,0:0:0:0:
320,192,92411,1,0,0:0:0:0:
192,192,92587,1,0,0:0:0:0:
64,192,92587,1,0,0:0:0:0:
192,192,92764,1,0,0:0:0:0:
320,192,92764,1,0,0:0:0:0:
64,192,92940,1,0,0:0:0:0:
448,192,92940,1,0,0:0:0:0:
448,192,93117,1,0,0:0:0:0:
320,192,93117,1,0,0:0:0:0:
192,192,93293,1,0,0:0:0:0:
64,192,93293,128,0,93646:0:0:0:0:
320,192,93470,128,0,93646:0:0:0:0:
448,192,93646,128,0,93999:0:0:0:0:
192,192,93823,128,0,93999:0:0:0:0:
64,192,93999,128,0,94352:0:0:0:0:
320,192,94176,128,0,94352:0:0:0:0:
448,192,94352,128,0,94705:0:0:0:0:
192,192,94528,128,0,94705:0:0:0:0:
64,192,94705,128,0,94881:0:0:0:0:
320,192,94705,1,0,0:0:0:0:
320,192,94881,1,0,0:0:0:0:
192,192,94970,1,0,0:0:0:0:
64,192,95058,1,0,0:0:0:0:
448,192,95058,128,0,95234:0:0:0:0:
192,192,95234,1,0,0:0:0:0:
320,192,95323,1,0,0:0:0:0:
64,192,95411,1,0,0:0:0:0:
192,192,95411,128,0,95587:0:0:0:0:
448,192,95587,1,0,0:0:0:0:
320,192,95676,1,0,0:0:0:0:
192,192,95764,1,0,0:0:0:0:
64,192,95764,1,0,0:0:0:0:
448,192,95852,1,0,0:0:0:0:
192,192,95940,128,0,96117:0:0:0:0:
320,192,96117,1,0,0:0:0:0:
448,192,96117,128,0,96293:0:0:0:0:
64,192,96293,1,0,0:0:0:0:
192,192,96381,1,0,0:0:0:0:
448,192,96470,1,0,0:0:0:0:
320,192,96470,128,0,96646:0:0:0:0:
64,192,96646,1,0,0:0:0:0:
192,192,96734,1,0,0:0:0:0:
320,192,96823,1,0,0:0:0:0:
448,192,96823,1,0,0:0:0:0:
192,192,96911,1,0,0:0:0:0:
320,192,96999,128,0,97176:0:0:0:0:
448,192,97176,128,0,97352:0:0:0:0:
64,192,97176,1,0,0:0:0:0:
64,192,97352,128,0,97528:0:0:0:0:
320,192,97528,1,0,0:0:0:0:
448,192,97528,1,0,0:0:0:0:
192,192,97617,1,0,0:0:0:0:
64,192,97705,1,0,0:0:0:0:
320,192,97793,1,0,0:0:0:0:
448,192,97881,1,0,0:0:0:0:
192,192,97881,128,0,98058:0:0:0:0:
320,192,98058,1,0,0:0:0:0:
448,192,98146,1,0,0:0:0:0:
192,192,98234,1,0,0:0:0:0:
64,192,98234,128,0,98411:0:0:0:0:
320,192,98411,1,0,0:0:0:0:
192,192,98499,1,0,0:0:0:0:
64,192,98587,1,0,0:0:0:0:
448,192,98587,128,0,98764:0:0:0:0:
192,192,98764,128,0,98940:0:0:0:0:
448,192,98940,1,0,0:0:0:0:
320,192,98940,128,0,99117:0:0:0:0:
64,192,99117,1,0,0:0:0:0:
192,192,99205,1,0,0:0:0:0:
320,192,99293,1,0,0:0:0:0:
448,192,99293,128,0,99470:0:0:0:0:
192,192,99470,1,0,0:0:0:0:
320,192,99558,1,0,0:0:0:0:
448,192,99646,1,0,0:0:0:0:
64,192,99646,1,0,0:0:0:0:
192,192,99734,1,0,0:0:0:0:
320,192,99823,128,0,99999:0:0:0:0:
448,192,99999,1,0,0:0:0:0:
64,192,99999,128,0,100176:0:0:0:0:
320,192,100176,1,0,0:0:0:0:
192,192,100176,128,0,100352:0:0:0:0:
448,192,100352,128,0,100528:0:0:0:0:
64,192,100352,1,0,0:0:0:0:
192,192,100528,1,0,0:0:0:0:
320,192,100617,1,0,0:0:0:0:
64,192,100705,128,0,100881:0:0:0:0:
448,192,100705,1,0,0:0:0:0:
320,192,100881,1,0,0:0:0:0:
192,192,100970,1,0,0:0:0:0:
64,192,101058,1,0,0:0:0:0:
448,192,101058,128,0,101234:0:0:0:0:
320,192,101234,1,0,0:0:0:0:
192,192,101323,1,0,0:0:0:0:
64,192,101411,1,0,0:0:0:0:
448,192,101411,1,0,0:0:0:0:
320,192,101499,1,0,0:0:0:0:
192,192,101587,128,0,101764:0:0:0:0:
320,192,101764,1,0,0:0:0:0:
448,192,101764,128,0,101940:0:0:0:0:
64,192,101940,1,0,0:0:0:0:
192,192,102028,1,0,0:0:0:0:
320,192,102117,128,0,102293:0:0:0:0:
448,192,102117,1,0,0:0:0:0:
64,192,102293,1,0,0:0:0:0:
192,192,102381,1,0,0:0:0:0:
320,192,102470,1,0,0:0:0:0:
448,192,102470,1,0,0:0:0:0:
64,192,102558,1,0,0:0:0:0:
192,192,102646,128,0,102823:0:0:0:0:
64,192,102823,1,0,0:0:0:0:
448,192,102823,128,0,102999:0:0:0:0:
192,192,102999,128,0,103176:0:0:0:0:
320,192,103176,1,0,0:0:0:0:
64,192,103176,1,0,0:0:0:0:
320,192,103352,1,0,0:0:0:0:
192,192,103352,1,0,0:0:0:0:
192,192,103528,1,0,0:0:0:0:
448,192,103528,1,0,0:0:0:0:
320,192,103705,1,0,0:0:0:0:
64,192,103705,1,0,0:0:0:0:
64,192,103881,1,0,0:0:0:0:
192,192,103881,1,0,0:0:0:0:
320,192,104058,1,0,0:0:0:0:
448,192,104058,1,0,0:0:0:0:
448,192,104234,1,0,0:0:0:0:
192,192,104234,1,0,0:0:0:0:
320,192,104411,1,0,0:0:0:0:
64,192,104411,1,0,0:0:0:0:
192,192,104587,1,0,0:0:0:0:
448,192,104587,128,0,104940:0:0:0:0:
64,192,104764,128,0,104940:0:0:0:0:
192,192,104940,128,0,105293:0:0:0:0:
320,192,104940,1,0,0:0:0:0:
448,192,105117,128,0,105293:0:0:0:0:
320,192,105293,128,0,105646:0:0:0:0:
64,192,105293,1,0,0:0:0:0:
192,192,105470,128,0,105646:0:0:0:0:
64,192,105646,128,0,105999:0:0:0:0:
448,192,105646,1,0,0:0:0:0:
320,192,105823,128,0,105999:0:0:0:0:
192,192,105999,1,0,0:0:0:0:
448,192,105999,128,0,106176:0:0:0:0:
192,192,106176,1,0,0:0:0:0:
320,192,106264,1,0,0:0:0:0:
448,192,106352,1,0,0:0:0:0:
64,192,106352,128,0,106528:0:0:0:0:
192,192,106528,1,0,0:0:0:0:
320,192,106617,1,0,0:0:0:0:
448,192,106705,128,0,106881:0:0:0:0:
192,192,106705,1,0,0:0:0:0:
64,192,106881,1,0,0:0:0:0:
320,192,106970,1,0,0:0:0:0:
192,192,107058,1,0,0:0:0:0:
64,192,107058,1,0,0:0:0:0:
448,192,107146,1,0,0:0:0:0:
192,192,107234,128,0,107411:0:0:0:0:
320,192,107411,128,0,107587:0:0:0:0:
448,192,107411,1,0,0:0:0:0:
64,192,107587,1,0,0:0:0:0:
192,192,107676,1,0,0:0:0:0:
448,192,107764,128,0,107940:0:0:0:0:
320,192,107764,1,0,0:0:0:0:
192,192,107940,1,0,0:0:0:0:
64,192,108028,1,0,0:0:0:0:
320,192,108117,1,0,0:0:0:0:
448,192,108117,1,0,0:0:0:0:
192,192,108205,1,0,0:0:0:0:
64,192,108293,128,0,108470:0:0:0:0:
320,192,108470,128,0,108646:0:0:0:0:
448,192,108470,1,0,0:0:0:0:
192,192,108646,128,0,108823:0:0:0:0:
448,192,108823,1,0,0:0:0:0:
320,192,108823,1,0,0:0:0:0:
64,192,108911,1,0,0:0:0:0:
320,192,108999,1,0,0:0:0:0:
192,192,109087,1,0,0:0:0:0:
64,192,109176,128,0,109352:0:0:0:0:
448,192,109176,1,0,0:0:0:0:
320,192,109352,1,0,0:0:0:0:
192,192,109440,1,0,0:0:0:0:
320,192,109528,128,0,109705:0:0:0:0:
64,192,109528,1,0,0:0:0:0:
192,192,109705,1,0,0:0:0:0:
64,192,109793,1,0,0:0:0:0:
448,192,109881,128,0,110058:0:0:0:0:
320,192,109881,1,0,0:0:0:0:
192,192,110058,128,0,110234:0:0:0:0:
320,192,110234,128,0,110411:0:0:0:0:
448,192,110234,1,0,0:0:0:0:
192,192,110411,1,0,0:0:0:0:
64,192,110499,1,0,0:0:0:0:
448,192,110587,128,0,110764:0:0:0:0:
320,192,110587,1,0,0:0:0:0:
192,192,110764,1,0,0:0:0:0:
320,192,110852,1,0,0:0:0:0:
448,192,110940,1,0,0:0:0:0:
64,192,110940,1,0,0:0:0:0:
192,192,111028,1,0,0:0:0:0:
320,192,111117,128,0,111293:0:0:0:0:
64,192,111293,128,0,111470:0:0:0:0:
192,192,111293,1,0,0:0:0:0:
448,192,111470,128,0,111646:0:0:0:0:
320,192,111470,1,0,0:0:0:0:
192,192,111646,128,0,111823:0:0:0:0:
64,192,111646,1,0,0:0:0:0:
448,192,111823,1,0,0:0:0:0:
320,192,111911,1,0,0:0:0:0:
64,192,111999,128,0,112176:0:0:0:0:
192,192,111999,1,0,0:0:0:0:
448,192,112176,1,0,0:0:0:0:
320,192,112264,1,0,0:0:0:0:
192,192,112352,128,0,112528:0:0:0:0:
64,192,112352,1,0,0:0:0:0:
448,192,112528,1,0,0:0:0:0:
320,192,112617,1,0,0:0:0:0:
192,192,112705,1,0,0:0:0:0:
448,192,112705,1,0,0:0:0:0:
64,192,112793,1,0,0:0:0:0:
320,192,112881,128,0,113058:0:0:0:0:
192,192,113058,128,0,113234:0:0:0:0:
448,192,113058,1,0,0:0:0:0:
64,192,113234,1,0,0:0:0:0:
448,192,113323,1,0,0:0:0:0:
320,192,113411,128,0,113587:0:0:0:0:
192,192,113411,1,0,0:0:0:0:
64,192,113587,1,0,0:0:0:0:
448,192,113676,1,0,0:0:0:0:
192,192,113764,1,0,0:0:0:0:
64,192,113764,1,0,0:0:0:0:
320,192,113852,1,0,0:0:0:0:
192,192,113940,128,0,114117:0:0:0:0:
320,192,114117,128,0,114293:0:0:0:0:
448,192,114117,1,0,0:0:0:0:
64,192,114293,128,0,114470:0:0:0:0:
320,192,114470,1,0,0:0:0:0:
448,192,114470,1,0,0:0:0:0:
448,192,114646,1,0,0:0:0:0:
192,192,114646,1,0,0:0:0:0:
320,192,114823,1,0,0:0:0:0:
64,192,114823,1,0,0:0:0:0:
192,192,114999,1,0,0:0:0:0:
64,192,114999,1,0,0:0:0:0:
192,192,115176,1,0,0:0:0:0:
448,192,115176,1,0,0:0:0:0:
320,192,115352,1,0,0:0:0:0:
64,192,115352,1,0,0:0:0:0:
320,192,115528,1,0,0:0:0:0:
192,192,115528,1,0,0:0:0:0:
448,192,115705,1,0,0:0:0:0:
64,192,115705,1,0,0:0:0:0:
448,192,115881,128,0,116234:0:0:0:0:
192,192,116058,128,0,116234:0:0:0:0:
320,192,116234,128,0,116587:0:0:0:0:
64,192,116234,1,0,0:0:0:0:
64,192,116411,128,0,116587:0:0:0:0:
192,192,116587,128,0,116940:0:0:0:0:
448,192,116587,128,0,116764:0:0:0:0:
320,192,116764,128,0,116940:0:0:0:0:
64,192,116940,128,0,117293:0:0:0:0:
448,192,116940,1,0,0:0:0:0:
320,192,117117,128,0,117293:0:0:0:0:
192,192,117293,1,0,0:0:0:0:
448,192,117293,128,0,117470:0:0:0:0:
320,192,117470,1,0,0:0:0:0:
192,192,117558,1,0,0:0:0:0:
64,192,117646,1,0,0:0:0:0:
448,192,117646,1,0,0:0:0:0:
192,192,117823,1,0,0:0:0:0:
320,192,117911,1,0,0:0:0:0:
448,192,117999,1,0,0:0:0:0:
64,192,117999,1,0,0:0:0:0:
320,192,118176,1,0,0:0:0:0:
192,192,118264,1,0,0:0:0:0:
64,192,118352,1,0,0:0:0:0:
320,192,118352,1,0,0:0:0:0:
448,192,118440,1,0,0:0:0:0:
192,192,118528,128,0,118705:0:0:0:0:
320,192,118705,1,0,0:0:0:0:
448,192,118705,1,0,0:0:0:0:
320,192,118881,1,0,0:0:0:0:
192,192,118970,1,0,0:0:0:0:
320,192,119058,1,0,0:0:0:0:
448,192,119058,1,0,0:0:0:0:
192,192,119234,1,0,0:0:0:0:
320,192,119323,1,0,0:0:0:0:
64,192,119411,1,0,0:0:0:0:
192,192,119411,1,0,0:0:0:0:
64,192,119587,1,0,0:0:0:0:
320,192,119676,1,0,0:0:0:0:
192,192,119764,1,0,0:0:0:0:
448,192,119764,1,0,0:0:0:0:
64,192,119852,1,0,0:0:0:0:
320,192,119940,128,0,120117:0:0:0:0:
192,192,120117,1,0,0:0:0:0:
64,192,120117,1,0,0:0:0:0:
448,192,120293,1,0,0:0:0:0:
320,192,120381,1,0,0:0:0:0:
192,192,120470,1,0,0:0:0:0:
64,192,120470,1,0,0:0:0:0:
64,192,120646,1,0,0:0:0:0:
192,192,120734,1,0,0:0:0:0:
320,192,120823,1,0,0:0:0:0:
448,192,120823,1,0,0:0:0:0:
64,192,120999,1,0,0:0:0:0:
192,192,121087,1,0,0:0:0:0:
320,192,121176,1,0,0:0:0:0:
448,192,121176,1,0,0:0:0:0:
192,192,121264,1,0,0:0:0:0:
448,192,121352,128,0,121528:0:0:0:0:
192,192,121528,1,0,0:0:0:0:
64,192,121528,128,0,121705:0:0:0:0:
320,192,121705,1,0,0:0:0:0:
192,192,121793,1,0,0:0:0:0:
64,192,121881,1,0,0:0:0:0:
320,192,121881,1,0,0:0:0:0:
192,192,122058,1,0,0:0:0:0:
320,192,122146,1,0,0:0:0:0:
192,192,122234,1,0,0:0:0:0:
448,192,122234,128,0,122411:0:0:0:0:
192,192,122411,1,0,0:0:0:0:
320,192,122499,1,0,0:0:0:0:
448,192,122587,1,0,0:0:0:0:
64,192,122587,1,0,0:0:0:0:
192,192,122676,1,0,0:0:0:0:
320,192,122764,128,0,122940:0:0:0:0:
448,192,122764,1,0,0:0:0:0:
192,192,122940,1,0,0:0:0:0:
64,192,122940,1,0,0:0:0:0:
320,192,123117,1,0,0:0:0:0:
64,192,123205,1,0,0:0:0:0:
448,192,123293,1,0,0:0:0:0:
320,192,123293,1,0,0:0:0:0:
192,192,123470,1,0,0:0:0:0:
448,192,123558,1,0,0:0:0:0:
192,192,123646,1,0,0:0:0:0:
64,192,123646,1,0,0:0:0:0:
320,192,123823,1,0,0:0:0:0:
192,192,123911,1,0,0:0:0:0:
64,192,123999,1,0,0:0:0:0:
448,192,123999,1,0,0:0:0:0:
320,192,124087,1,0,0:0:0:0:
192,192,124176,128,0,124352:0:0:0:0:
320,192,124352,1,0,0:0:0:0:
448,192,124352,1,0,0:0:0:0:
64,192,124528,1,0,0:0:0:0:
192,192,124617,1,0,0:0:0:0:
320,192,124705,1,0,0:0:0:0:
448,192,124705,1,0,0:0:0:0:
448,192,124881,1,0,0:0:0:0:
320,192,124970,1,0,0:0:0:0:
192,192,125058,1,0,0:0:0:0:
64,192,125058,1,0,0:0:0:0:
320,192,125234,1,0,0:0:0:0:
192,192,125323,1,0,0:0:0:0:
64,192,125411,1,0,0:0:0:0:
320,192,125411,1,0,0:0:0:0:
448,192,125499,1,0,0:0:0:0:
192,192,125587,1,0,0:0:0:0:
320,192,125676,1,0,0:0:0:0:
64,192,125764,1,0,0:0:0:0:
448,192,125764,128,0,125940:0:0:0:0:
192,192,125940,128,0,126117:0:0:0:0:
320,192,126117,1,0,0:0:0:0:
64,192,126117,128,0,126293:0:0:0:0:
448,192,126293,128,0,126470:0:0:0:0:
64,192,126470,1,0,0:0:0:0:
192,192,126470,128,0,126646:0:0:0:0:
320,192,126646,128,0,126823:0:0:0:0:
192,192,126823,1,0,0:0:0:0:
448,192,126823,128,0,126999:0:0:0:0:
192,192,126999,1,0,0:0:0:0:
320,192,127087,1,0,0:0:0:0:
64,192,127176,1,0,0:0:0:0:
448,192,127176,128,0,127352:0:0:0:0:
192,192,127440,128,0,127617:0:0:0:0:
320,192,127440,1,0,0:0:0:0:
320,192,127705,1,0,0:0:0:0:
448,192,127705,1,0,0:0:0:0:
192,192,127793,1,0,0:0:0:0:
64,192,127881,1,0,0:0:0:0:
448,192,127970,1,0,0:0:0:0:
320,192,127970,1,0,0:0:0:0:
192,192,128058,1,0,0:0:0:0:
320,192,128146,1,0,0:0:0:0:
64,192,128234,1,0,0:0:0:0:
448,192,128234,1,0,0:0:0:0:
320,192,128411,1,0,0:0:0:0:
192,192,128411,1,0,0:0:0:0:
64,192,128587,1,0,0:0:0:0:
448,192,128587,128,0,132823:0:0:0:0:
64,192,129117,128,0,129293:0:0:0:0:
