osu file format v14

[General]
AudioFilename: audio.mp3
AudioLeadIn: 0
PreviewTime: 54593
Countdown: 0
SampleSet: Soft
StackLeniency: 0.5
Mode: 0
LetterboxInBreaks: 0
WidescreenStoryboard: 0

[Editor]
Bookmarks: 22201,44255,54634,65012,75390,107174
DistanceSpacing: 0.9
BeatDivisor: 4
GridSize: 32
TimelineZoom: 2

[Metadata]
Title:Tantanmen
TitleUnicode:탄탄멘
Artist:Memme
ArtistUnicode:맴매
Creator:Down
Version:Normal
Source:PUMP IT UP XX
Tags:instrumental electronic piu andamiro owc2020 qf hr3
BeatmapID:2890432
BeatmapSetID:1296282

[Difficulty]
HPDrainRate:4
CircleSize:3.5
OverallDifficulty:4
ApproachRate:5.5
SliderMultiplier:1.2
SliderTickRate:1

[Events]
//Background and Video events
0,0,"bg.jpg",0,0
//Break Periods
//Storyboard Layer 0 (Background)
//Storyboard Layer 1 (Fail)
//Storyboard Layer 2 (Pass)
//Storyboard Layer 3 (Foreground)
//Storyboard Layer 4 (Overlay)
//Storyboard Sound Samples

[TimingPoints]
1445,324.324324324324,4,2,1,60,1,0
1445,-100,4,2,1,60,0,0
10526,-100,4,2,1,60,0,0
21066,-100,4,2,1,60,0,0
22201,-100,4,2,1,60,0,0
31282,-100,4,2,1,60,0,0
32580,-100,4,2,1,60,0,0
43931,-100,4,2,1,60,0,0
51715,-100,4,2,1,60,0,0
63715,-100,4,2,1,60,0,0
65012,-100,4,2,1,60,0,0
74093,-100,4,2,1,60,0,0
75390,-100,4,2,1,60,0,1
95985,-100,4,2,1,60,0,1
96147,-100,4,2,1,60,0,0

[Colours]
Combo1 : 247,242,159
Combo2 : 252,101,105

[HitObjects]
241,134,1120,6,0,L|224:212,1,60,2|2,0:0|0:0,0:0:0:0:
263,234,1445,6,0,P|322:230|460:215,1,180,6|2,0:0|0:0,0:0:0:0:
475,259,2093,2,0,P|477:294|456:325,2,60,2|2|2,0:0|0:0|0:0,0:0:0:0:
495,152,2742,2,0,P|485:125|445:84,1,60,2|2,0:0|0:0,0:0:0:0:
421,70,3066,2,0,P|392:76|340:89,1,60,2|2,0:0|0:0,0:0:0:0:
328,124,3390,1,2,0:0:0:0:
237,64,3715,1,2,0:0:0:0:
206,167,4039,6,0,P|235:240|244:293,1,120,2|2,0:0|0:0,0:0:0:0:
225,334,4526,1,2,0:0:0:0:
225,334,4688,2,0,P|171:319|91:316,1,120,2|2,0:0|0:0,0:0:0:0:
66,214,5336,2,0,P|49:141|78:93,2,120,2|2|2,0:0|0:0|0:0,0:0:0:0:
151,283,6309,1,0,0:0:0:0:
239,345,6634,6,0,B|357:332|357:332|365:300|395:278,1,180,2|2,0:0|0:0,0:0:0:0:
442,267,7282,2,0,P|480:279|501:307,2,60,2|2|2,0:0|0:0|0:0,0:0:0:0:
347,213,7931,2,0,P|351:177|358:141,1,60,2|2,0:0|0:0,0:0:0:0:
390,112,8255,2,0,P|425:116|462:123,1,60,2|2,0:0|0:0,0:0:0:0:
492,154,8580,1,2,0:0:0:0:
492,46,8904,1,2,0:0:0:0:
386,21,9228,6,0,P|331:32|248:46,1,120,2|2,0:0|0:0,0:0:0:0:
218,21,9715,1,2,0:0:0:0:
218,21,9877,2,0,P|208:86|194:164,1,120,2|2,0:0|0:0,0:0:0:0:
230,183,10363,1,2,0:0:0:0:
230,183,10526,1,2,0:0:0:0:
329,225,10850,1,2,1:0:0:0:
414,159,11174,1,2,1:0:0:0:
321,354,11823,6,0,P|246:352|213:312,1,120,14|10,0:0|0:0,0:0:0:0:
184,280,12309,1,2,0:0:0:0:
184,280,12472,2,0,P|131:274|85:326,1,120,10|10,0:0|0:0,0:0:0:0:
24,230,13120,2,0,P|13:199|20:150,1,60,10|2,0:0|0:0,0:0:0:0:
52,135,13444,2,0,P|95:142|133:147,1,60,10|2,0:0|0:0,0:0:0:0:
147,184,13769,1,10,0:0:0:0:
254,175,14093,1,10,0:0:0:0:
261,67,14417,6,0,L|380:47,2,120,10|8|10,0:0|0:0|0:0,0:0:0:0:
159,46,15390,1,8,0:0:0:0:
159,46,15553,2,0,P|119:111|128:160,1,120,2|2,0:0|0:0,0:0:0:0:
159,193,16039,2,0,P|192:180|241:174,1,60,10|2,0:0|0:0,0:0:0:0:
265,197,16363,1,10,0:0:0:0:
351,261,16688,1,8,0:0:0:0:
450,218,17012,6,0,P|456:171|474:72,1,120,14|10,0:0|0:0,0:0:0:0:
495,52,17499,1,2,0:0:0:0:
495,52,17661,2,0,P|435:71|360:82,1,120,10|10,0:0|0:0,0:0:0:0:
290,142,18309,2,0,P|257:143|207:156,1,60,10|2,0:0|0:0,0:0:0:0:
189,112,18634,2,0,P|176:97|129:75,1,60,10|2,0:0|0:0,0:0:0:0:
131,24,18958,1,10,0:0:0:0:
60,105,19282,1,10,0:0:0:0:
133,185,19607,6,0,P|149:247|157:318,1,120,10|8,0:0|0:0,0:0:0:0:
254,345,20255,2,0,P|317:300|380:314,1,120,10|10,0:0|0:0,0:0:0:0:
398,336,20742,1,10,0:0:0:0:
466,252,21066,2,0,B|440:220|477:159|477:159|442:128|391:172,1,180,2|2,0:0|1:0,0:0:0:0:
300,129,21877,1,2,1:0:0:0:
372,49,22201,6,0,P|451:43|497:7,2,120,14|10|10,0:0|0:0|0:0,0:0:0:0:
269,15,23174,1,10,0:0:0:0:
210,105,23499,2,0,P|223:168|236:225,1,120,10|10,0:0|0:0,0:0:0:0:
213,271,23985,2,0,P|164:272|127:209,1,120,10|10,0:0|0:0,0:0:0:0:
80,189,24472,1,2,1:0:0:0:
114,86,24796,6,0,P|31:74|9:33,2,120,8|10|10,0:0|0:0|0:0,0:0:0:0:
206,29,25769,1,10,0:0:0:0:
275,111,26093,2,0,P|281:160|295:243,1,120,10|10,0:0|0:0,0:0:0:0:
336,261,26580,2,0,B|376:271|376:271|402:238|446:224,1,120,10|10,0:0|0:0,0:0:0:0:
491,240,27066,1,2,1:0:0:0:
447,141,27390,6,0,B|425:121|425:121|458:13,2,120,8|10|10,0:0|0:0|0:0,0:0:0:0:
491,240,28363,1,10,0:0:0:0:
409,310,28688,2,0,P|380:285|286:265,1,120,10|10,0:0|0:0,0:0:0:0:
259,230,29174,1,2,0:0:0:0:
259,230,29336,2,0,P|210:249|167:315,1,120,10|10,0:0|0:0,0:0:0:0:
62,303,29985,6,0,P|75:336|89:382,2,60,8|2|10,0:0|0:0|0:0,0:0:0:0:
103,202,30634,2,0,P|116:169|130:123,2,60,10|2|10,0:0|0:0|0:0,0:0:0:0:
138,242,31120,1,10,0:0:0:0:
226,179,31444,2,0,P|305:144|411:129,1,180,2|2,0:0|1:0,0:0:0:0:
477,56,32255,1,2,1:0:0:0:
506,160,32580,6,0,P|474:220|462:277,2,120,12|10|10,0:0|0:0|0:0,0:0:0:0:
477,56,33553,1,10,0:0:0:0:
396,129,33877,2,0,P|355:110|323:38,1,120,10|10,0:0|0:0,0:0:0:0:
271,28,34363,2,0,P|234:37|171:116,1,120,2|2,0:0|0:0,0:0:0:0:
137,130,34850,1,10,0:0:0:0:
34,97,35174,6,0,P|34:161|22:236,2,120,8|10|10,0:0|0:0|0:0,0:0:0:0:
137,130,36147,1,10,0:0:0:0:
201,43,36472,2,0,P|252:55|324:110,1,120,10|10,0:0|0:0,0:0:0:0:
337,136,36958,2,0,P|388:127|404:47,1,120,2|2,1:0|1:0,0:0:0:0:
453,34,37444,1,10,0:0:0:0:
506,128,37769,6,0,P|492:191|487:266,2,120,10|10|10,0:0|0:0|0:0,0:0:0:0:
453,34,38742,1,10,0:0:0:0:
377,111,39066,2,0,P|363:174|358:249,1,120,10|10,0:0|0:0,0:0:0:0:
387,333,39715,2,0,P|422:321|469:320,2,60,10|2|10,0:0|1:0|0:0,0:0:0:0:
286,295,40363,6,0,P|239:284|155:277,1,120,10|10,0:0|0:0,0:0:0:0:
73,223,41012,2,0,P|59:260|60:292,2,60,10|2|10,0:0|0:0|0:0,0:0:0:0:
114,187,41499,2,0,P|166:178|203:62,1,180,10|10,0:0|0:0,0:0:0:0:
311,43,42309,2,0,P|345:24|378:23,2,60,10|0|10,0:0|0:0|0:0,0:0:0:0:
311,97,42796,6,0,P|346:164|357:287,1,180,10|8,0:0|0:0,0:0:0:0:
442,335,43607,1,8,0:0:0:0:
470,230,43931,2,0,P|463:178|452:148,1,60,2|2,1:0|1:0,1:0:0:0:
427,128,44255,6,0,P|474:81|480:12,1,120,14|10,0:0|0:0,0:0:0:0:
375,27,44904,2,0,P|319:33|251:44,1,120,10|10,0:0|0:0,0:0:0:0:
228,147,45553,2,0,P|199:137|153:131,1,60,10|2,0:0|0:0,0:0:0:0:
121,109,45877,2,0,P|97:129|69:165,1,60,10|2,0:0|0:0,0:0:0:0:
35,183,46201,1,10,0:0:0:0:
125,242,46526,1,10,0:0:0:0:
77,339,46850,6,0,P|141:331|215:324,1,120,10|10,0:0|0:0,0:0:0:0:
302,345,47499,2,0,B|315:313|315:313|266:225,1,120,10|10,0:0|0:0,0:0:0:0:
169,208,48147,1,10,0:0:0:0:
217,111,48472,1,10,0:0:0:0:
323,95,48796,2,0,P|360:100|396:111,1,60,10|0,0:0|1:0,0:0:0:0:
405,154,49120,2,0,P|419:188|427:225,1,60,8|0,0:0|1:0,0:0:0:0:
390,251,49444,6,0,P|338:278|317:343,1,120,14|10,0:0|0:0,0:0:0:0:
208,334,50093,2,0,P|186:279|134:252,1,120,10|10,0:0|0:0,0:0:0:0:
166,148,50742,2,0,P|201:143|233:135,1,60,10|2,0:0|0:0,0:0:0:0:
277,149,51066,2,0,P|290:116|299:84,1,60,10|2,0:0|0:0,0:0:0:0:
341,61,51390,1,10,0:0:0:0:
439,106,51715,1,10,0:0:0:0:
439,106,51877,6,0,B|408:142|416:201|442:177|462:234|424:277,1,180,10|10,0:0|0:0,0:0:0:0:
330,324,52688,2,0,P|304:318|269:289,1,60,10|2,0:0|0:0,0:0:0:0:
227,277,53012,2,0,P|185:281|157:307,1,60,10|2,0:0|0:0,0:0:0:0:
128,324,53336,1,10,0:0:0:0:
31,274,53661,1,10,0:0:0:0:
108,199,53985,2,0,P|99:149|64:84,1,120,10|2,0:0|1:0,0:0:0:0:
155,26,54634,6,0,P|210:38|290:60,1,120,14|10,0:0|0:0,0:0:0:0:
306,95,55120,1,2,0:0:0:0:
306,95,55282,2,0,P|371:78|441:47,1,120,10|10,0:0|0:0,0:0:0:0:
426,165,55931,2,0,P|444:201|450:242,1,60,10|2,0:0|0:0,0:0:0:0:
406,253,56255,2,0,P|378:250|350:226,1,60,10|2,0:0|0:0,0:0:0:0:
300,220,56580,1,10,0:0:0:0:
274,324,56904,1,10,0:0:0:0:
376,360,57228,6,0,P|439:339|501:325,2,120,10|8|10,0:0|0:0|0:0,0:0:0:0:
304,281,58201,1,8,0:0:0:0:
304,281,58363,2,0,P|299:212|286:137,1,120,2|2,0:0|0:0,0:0:0:0:
335,130,58850,2,0,P|375:136|415:150,1,60,10|2,0:0|0:0,0:0:0:0:
434,176,59174,1,10,0:0:0:0:
503,93,59499,1,8,0:0:0:0:
410,37,59823,6,0,P|361:28|274:21,1,120,14|10,0:0|0:0,0:0:0:0:
246,51,60309,1,2,0:0:0:0:
246,51,60472,2,0,P|214:95|150:95,1,120,10|10,0:0|0:0,0:0:0:0:
48,67,61120,2,0,P|25:105|23:144,1,60,10|2,0:0|0:0,0:0:0:0:
44,168,61444,2,0,P|70:207|68:245,1,60,10|2,0:0|0:0,0:0:0:0:
119,244,61769,1,10,0:0:0:0:
185,328,62093,1,10,0:0:0:0:
277,275,62417,6,0,P|350:289|410:321,1,120,10|8,0:0|0:0,0:0:0:0:
463,228,63066,2,0,P|482:178|427:116,1,120,10|10,0:0|0:0,0:0:0:0:
397,137,63553,1,10,0:0:0:0:
301,86,63877,2,0,B|342:81|358:12|358:12|405:15|458:50,1,180,2|2,0:0|1:0,0:0:0:0:
397,137,64688,2,0,P|383:189|385:215,1,60
411,240,65012,6,0,B|361:229|361:229|339:266|298:270|298:270|251:242|273:162,2,240,14|2|2,0:0|1:0|0:0,0:0:0:0:
477,154,66634,1,10,0:0:0:0:
409,70,66958,2,0,P|339:57|288:47,1,120,2|2,1:0|0:0,0:0:0:0:
190,87,67607,6,0,B|153:114|145:168|145:168|129:86|25:67,1,240,10|2,0:0|1:0,0:0:0:0:
40,180,68580,1,2,0:0:0:0:
105,265,68904,2,0,P|38:301|10:341,2,120,2|10|2,0:0|0:0|1:0,0:0:0:0:
314,318,70201,6,0,B|362:277|329:193|329:193|256:167|275:87,2,240,10|2|2,0:0|1:0|0:0,0:0:0:0:
230,249,71823,1,10,0:0:0:0:
130,290,72147,2,0,P|82:255|54:201,1,120,2|2,1:0|0:0,0:0:0:0:
54,94,72796,6,0,B|125:18|217:37|217:37|217:75|261:105,1,240,10|2,0:0|1:0,0:0:0:0:
329,25,73769,2,0,P|370:39|404:54,1,60,2|2,0:0|0:0,0:0:0:0:
418,88,74093,1,2,1:0:0:0:
321,136,74417,1,2,1:0:0:0:
404,205,74742,1,2,1:0:0:0:
404,205,75066,1,8,0:0:0:0:
306,250,75390,6,0,P|233:262|194:300,1,120,12|10,0:0|0:0,0:0:0:0:
163,332,75877,1,2,0:0:0:0:
163,332,76039,2,0,P|137:311|96:304,1,60,10|2,0:0|0:0,0:0:0:0:
72,267,76363,1,10,0:0:0:0:
140,182,76688,2,0,P|136:126|111:59,1,120,10|8,0:0|0:0,0:0:0:0:
153,28,77174,1,2,0:0:0:0:
254,65,77499,2,0,P|283:42|312:26,2,60,2|10|2,0:0|0:0|0:0,0:0:0:0:
242,117,77985,6,0,B|233:170|233:170|270:192|281:235,1,120,10|10,0:0|0:0,0:0:0:0:
274,276,78472,1,2,0:0:0:0:
274,276,78634,2,0,P|313:303|346:304,1,60,10|2,0:0|0:0,0:0:0:0:
378,311,78958,1,10,0:0:0:0:
471,256,79282,2,0,P|470:199|499:117,1,120,10|10,0:0|0:0,0:0:0:0:
473,86,79769,2,0,P|449:47|360:50,1,120,2|2,0:0|0:0,0:0:0:0:
337,70,80255,1,10,0:0:0:0:
259,145,80580,6,0,B|244:173|244:173|262:232|262:232|244:268,2,120,10|10|10,0:0|0:0|0:0,0:0:0:0:
337,70,81553,1,10,0:0:0:0:
440,101,81877,1,10,0:0:0:0:
417,207,82201,2,0,P|407:243|402:283,1,60,10|2,0:0|0:0,0:0:0:0:
440,307,82526,2,0,P|385:321|303:343,1,120,10|10,0:0|0:0,0:0:0:0:
276,310,83012,6,0,B|240:290|240:290|153:323,1,120,2|2,0:0|0:0,0:0:0:0:
116,296,83499,1,10,0:0:0:0:
116,296,83661,2,0,P|109:244|80:155,1,120,2|2,0:0|0:0,0:0:0:0:
47,146,84147,1,10,0:0:0:0:
128,75,84472,2,0,P|162:70|265:34,1,120,8|10,0:0|0:0,0:0:0:0:
328,111,85120,2,0,P|314:150|311:186,1,60,10|2,0:0|0:0,0:0:0:0:
278,211,85444,1,10,0:0:0:0:
339,301,85769,6,0,P|402:275|466:265,1,120,12|10,0:0|0:0,0:0:0:0:
495,233,86255,1,2,0:0:0:0:
495,233,86417,2,0,P|482:195|468:161,1,60,10|2,0:0|0:0,0:0:0:0:
438,136,86742,1,10,0:0:0:0:
450,29,87066,2,0,P|391:43|326:59,1,120,10|10,0:0|0:0,0:0:0:0:
298,98,87553,1,2,0:0:0:0:
198,57,87877,2,0,P|169:42|140:35,2,60,2|10|2,0:0|0:0|0:0,0:0:0:0:
199,110,88363,6,0,P|215:180|221:231,1,120,8|10,0:0|0:0,0:0:0:0:
197,276,88850,1,2,0:0:0:0:
197,276,89012,2,0,P|176:304|158:342,1,60,10|2,0:0|0:0,0:0:0:0:
113,344,89336,1,10,0:0:0:0:
32,273,89661,2,0,B|52:248|52:248|31:138,1,120,10|10,0:0|0:0,0:0:0:0:
69,120,90147,2,0,P|146:142|201:145,1,120,2|2,0:0|0:0,0:0:0:0:
231,116,90634,1,10,0:0:0:0:
284,209,90958,6,0,B|266:255|266:255|275:280|275:280|256:338,2,120,8|10|10,0:0|0:0|0:0,0:0:0:0:
231,116,91931,1,10,0:0:0:0:
324,61,92255,2,0,P|368:71|395:90,1,60,10|2,0:0|0:0,0:0:0:0:
434,74,92580,2,0,P|447:117|444:149,1,60,10|2,0:0|0:0,0:0:0:0:
484,170,92904,2,0,P|448:227|433:291,1,120,10|10,0:0|0:0,0:0:0:0:
406,323,93390,6,0,P|363:342|291:310,1,120,10|2,0:0|0:0,0:0:0:0:
200,271,94039,2,0,P|133:284|62:300,1,120,10|2,0:0|0:0,0:0:0:0:
35,322,94526,1,10,0:0:0:0:
33,214,94850,2,0,P|20:189|15:144,2,60,0|10|2,0:0|0:0|0:0,0:0:0:0:
123,155,95499,2,0,P|159:147|196:124,1,60,10|10,0:0|0:0,0:0:0:0:
195,85,95823,1,2,0:0:0:0:
195,85,95985,6,0,P|297:131|351:186,1,180,14|10,0:0|0:0,0:0:0:0:
401,171,96634,1,2,0:0:0:0:
401,171,96796,2,0,P|422:128|390:47,1,120,10|10,0:0|0:0,0:0:0:0:
306,15,97444,2,0,P|270:17|245:24,1,60,10|2,0:0|0:0,0:0:0:0:
214,66,97769,2,0,P|234:96|238:128,1,60,10|2,0:0|0:0,0:0:0:0:
200,157,98093,1,10,0:0:0:0:
123,80,98417,1,10,0:0:0:0:
51,163,98742,6,0,P|29:238|23:291,1,120,10|10,0:0|0:0,0:0:0:0:
123,321,99390,2,0,P|143:354|149:389,2,60,10|2|10,0:0|0:0|0:0,0:0:0:0:
151,274,99877,2,0,P|203:261|295:243,1,120,2|2,0:0|0:0,0:0:0:0:
315,273,100363,1,10,0:0:0:0:
414,315,100688,2,0,P|420:281|434:196,1,120,10|10,0:0|0:0,0:0:0:0:
327,179,101336,6,0,P|337:124|352:43,1,120,10|10,0:0|0:0,0:0:0:0:
390,26,101823,1,2,0:0:0:0:
390,26,101985,2,0,P|462:66|456:102,1,120,10|10,0:0|0:0,0:0:0:0:
467,199,102634,2,0,P|494:239|491:271,1,60,10|2,0:0|0:0,0:0:0:0:
473,298,102958,2,0,P|441:295|412:278,1,60,10|2,0:0|0:0,0:0:0:0:
378,319,103282,1,10,0:0:0:0:
288,257,103607,1,10,0:0:0:0:
198,318,103931,6,0,P|185:343|172:383,2,60,10|2|10,0:0|0:0|0:0,0:0:0:0:
170,271,104417,1,2,0:0:0:0:
170,271,104580,2,0,P|165:220|127:147,1,120,10|10,0:0|0:0,0:0:0:0:
85,140,105066,1,10,0:0:0:0:
216,44,105553,2,0,L|351:63,2,120,10|10|10,0:0|0:0|0:0,0:0:0:0:
246,147,106526,6,0,P|289:168|305:174,1,60,10|10,0:0|0:0,0:0:0:0:
342,206,106850,2,0,P|374:193|415:181,1,60,10|10,0:0|0:0,0:0:0:0:
433,144,107174,1,14,0:0:0:0:
