osu file format v14

[General]
AudioFilename: audio.mp3
AudioLeadIn: 0
PreviewTime:54593
Countdown: 0
SampleSet: Soft
StackLeniency: 0.5
Mode: 0
LetterboxInBreaks: 0
WidescreenStoryboard: 0

[Editor]
Bookmarks:22201,44255,54634,65012,75390,107174
DistanceSpacing: 1.1
BeatDivisor: 4
GridSize: 32
TimelineZoom: 2

[Metadata]
Title:Tantanmen
TitleUnicode:탄탄멘
Artist:Memme
ArtistUnicode:맴매
Creator:Down
Version:Insane
Source:PUMP IT UP XX
Tags:instrumental electronic piu andamiro owc2020 qf hr3
BeatmapID:2890431
BeatmapSetID:1296282

[Difficulty]
HPDrainRate:6
CircleSize:4
OverallDifficulty:8
ApproachRate:9
SliderMultiplier:1.6
SliderTickRate:1

[Events]
//Background and Video events
0,0,"bg.jpg",0,0
//Break Periods
//Storyboard Layer 0 (Background)
//Storyboard Layer 1 (Fail)
//Storyboard Layer 2 (Pass)
//Storyboard Layer 3 (Foreground)
//Storyboard Layer 4 (Overlay)
//Storyboard Sound Samples

[TimingPoints]
1445,324.324324324324,4,2,1,60,1,0
1445,-133.333333333333,4,2,1,60,0,0
10526,-100,4,2,1,60,0,0
21066,-133.333333333333,4,2,1,60,0,0
22201,-100,4,2,1,60,0,0
31282,-133.333333333333,4,2,1,60,0,0
32580,-100,4,2,1,60,0,0
43931,-133.333333333333,4,2,1,60,0,0
51715,-100,4,2,1,60,0,0
63715,-125,4,2,1,60,0,0
65012,-166.666666666667,4,2,1,60,0,0
74093,-100,4,2,1,60,0,0
75390,-83.3333333333333,4,2,1,60,0,1
96147,-100,4,2,1,60,0,0

[Colours]
Combo1 : 247,242,159
Combo2 : 252,101,105

[HitObjects]
161,147,1120,5,2,0:0:0:0:
161,147,1282,1,2,0:0:0:0:
248,112,1445,6,0,P|242:167|233:246,1,120.000004577637,6|0,0:0|0:0,0:0:0:0:
121,295,1931,2,0,P|124:314|133:344,2,30.0000011444092,2|0|2,0:0|0:0|0:0,0:0:0:0:
204,304,2255,1,2,0:0:0:0:
272,351,2417,2,0,P|314:344|342:341,1,60.0000022888184,2|2,0:0|0:0,0:0:0:0:
465,225,2742,6,0,P|475:265|485:300,1,60.0000022888184,2|2,0:0|0:0,0:0:0:0:
399,274,3066,2,0,P|409:314|419:349,1,60.0000022888184,2|2,0:0|0:0,0:0:0:0:
324,243,3390,2,0,P|326:205|336:132,1,90.0000034332277,2|0,0:0|0:0,0:0:0:0:
342,143,3715,1,2,0:0:0:0:
284,35,3877,1,2,0:0:0:0:
414,33,4039,6,0,P|425:70|428:98,1,60.0000022888184,2|0,0:0|0:0,0:0:0:0:
427,91,4282,1,0,0:0:0:0:
427,91,4363,1,2,0:0:0:0:
422,176,4526,1,2,0:0:0:0:
294,94,4688,2,0,P|291:134|284:173,1,60.0000022888184,2|0,0:0|0:0,0:0:0:0:
422,176,5012,2,0,P|399:209|373:239,1,60.0000022888184,2|2,0:0|0:0,0:0:0:0:
251,250,5336,6,0,P|298:232|332:233,1,60.0000022888184,2|0,0:0|0:0,0:0:0:0:
139,137,5661,2,0,P|92:119|58:120,1,60.0000022888184,2|2,0:0|0:0,0:0:0:0:
200,87,5985,2,0,P|182:162|184:226,1,120.000004577637,2|0,0:0|0:0,0:0:0:0:
50,298,6472,1,0,0:0:0:0:
50,298,6553,1,0,0:0:0:0:
50,298,6634,6,0,P|134:279|189:287,1,120.000004577637,2|0,0:0|0:0,0:0:0:0:
308,335,7120,2,0,P|304:352|299:385,2,30.0000011444092,2|0|2,0:0|0:0|0:0,0:0:0:0:
228,332,7444,1,2,0:0:0:0:
166,281,7607,2,0,P|159:261|129:207,1,60.0000022888184,2|2,0:0|0:0,0:0:0:0:
211,131,7931,5,2,0:0:0:0:
285,259,8093,1,2,0:0:0:0:
285,259,8174,1,0,0:0:0:0:
285,259,8255,1,2,0:0:0:0:
141,226,8417,1,2,0:0:0:0:
313,180,8580,2,0,P|351:190|401:214,1,90.0000034332277,2|0,0:0|0:0,0:0:0:0:
408,224,8904,1,2,0:0:0:0:
375,113,9066,1,2,0:0:0:0:
439,64,9228,6,0,B|459:90|459:90|455:142,1,60.0000022888184,2|0,0:0|0:0,0:0:0:0:
323,50,9553,1,2,0:0:0:0:
198,159,9715,1,2,0:0:0:0:
198,159,9796,1,0,0:0:0:0:
198,159,9877,6,0,B|178:133|178:133|182:81,1,60.0000022888184,2|0,0:0|0:0,0:0:0:0:
264,112,10201,1,2,0:0:0:0:
112,56,10363,1,2,0:0:0:0:
150,223,10526,5,2,0:0:0:0:
106,336,10769,1,0,1:0:0:0:
106,336,10850,1,2,1:0:0:0:
150,223,11012,1,0,1:0:0:0:
150,223,11093,1,0,1:0:0:0:
150,223,11174,6,0,P|191:216|218:212,1,40,2|0,1:0|0:0,0:0:0:0:
67,148,11336,2,0,P|47:144|27:141,1,40
187,91,11499,5,2,0:0:0:0:
120,47,11661,1,2,0:0:0:0:
189,216,11823,6,0,P|170:284|172:351,1,120,14|0,0:0|0:0,0:0:0:0:
244,360,12147,2,0,P|267:342|292:336,1,40,10|0,0:0|0:0,0:0:0:0:
348,266,12309,2,0,P|375:276|392:295,1,40,2|0,0:0|0:0,0:0:0:0:
446,360,12472,6,0,P|428:304|467:247,1,120,10|0,0:0|0:0,0:0:0:0:
441,178,12796,2,0,P|476:181|495:188,1,40,10|0,0:0|0:0,0:0:0:0:
356,92,12958,2,0,P|324:77|304:73,1,40,2|0,0:0|0:0,0:0:0:0:
457,65,13120,5,10,0:0:0:0:
357,179,13282,1,2,0:0:0:0:
357,179,13363,1,0,0:0:0:0:
357,179,13444,1,10,0:0:0:0:
243,105,13607,1,2,0:0:0:0:
141,162,13769,6,0,P|135:205|129:253,1,80,10|0,0:0|0:0,0:0:0:0:
50,190,14093,1,10,0:0:0:0:
206,272,14255,2,0,P|213:298|221:328,1,40
286,366,14417,6,0,P|294:315|311:213,1,120,10|0,0:0|0:0,0:0:0:0:
295,233,14742,1,8,0:0:0:0:
427,273,14904,1,0,0:0:0:0:
453,185,15066,2,0,P|423:193|360:204,1,80,10|0,0:0|0:0,0:0:0:0:
257,123,15390,1,8,0:0:0:0:
352,27,15553,6,0,P|421:40|500:61,1,120,2|0,0:0|0:0,0:0:0:0:
488,44,15877,1,2,0:0:0:0:
374,202,16039,1,10,0:0:0:0:
493,128,16201,1,2,0:0:0:0:
462,283,16363,2,0,B|476:254|476:254|454:184,1,80,10|0,0:0|1:0,0:0:0:0:
461,208,16607,1,0,1:0:0:0:
461,208,16688,1,8,0:0:0:0:
350,113,16850,1,0,1:0:0:0:
350,113,16931,1,0,1:0:0:0:
350,113,17012,6,0,P|287:128|234:148,1,120,14|0,0:0|0:0,0:0:0:0:
167,108,17336,2,0,P|148:95|130:67,1,40,10|0,0:0|0:0,0:0:0:0:
46,183,17499,2,0,P|53:159|69:129,1,40,2|0,0:0|0:0,0:0:0:0:
130,179,17661,6,0,P|113:243|123:315,1,120,10|0,0:0|0:0,0:0:0:0:
44,357,17985,2,0,P|39:337|42:317,1,40,10|0,0:0|0:0,0:0:0:0:
193,318,18147,2,0,P|195:335|187:365,1,40,2|0,0:0|0:0,0:0:0:0:
281,250,18309,5,10,0:0:0:0:
130,179,18472,1,2,0:0:0:0:
130,179,18553,1,0,0:0:0:0:
130,179,18634,1,10,0:0:0:0:
251,108,18796,1,2,0:0:0:0:
178,24,18958,6,0,P|171:71|167:114,1,80,10|0,0:0|0:0,0:0:0:0:
88,62,19282,1,10,0:0:0:0:
251,108,19444,2,0,P|276:98|297:93,1,40,2|0,0:0|0:0,0:0:0:0:
376,42,19607,6,0,P|364:124|361:171,1,120,10|0,0:0|0:0,0:0:0:0:
345,171,19931,1,8,0:0:0:0:
490,126,20093,1,2,0:0:0:0:
418,219,20255,2,0,P|478:227|515:232,1,80,10|0,0:0|0:0,0:0:0:0:
348,262,20580,2,0,P|344:298|340:329,1,40,10|0,0:0|0:0,0:0:0:0:
427,297,20742,1,10,0:0:0:0:
199,330,21066,6,0,L|191:297,5,30.0000011444092,2|0|2|0|2|0,0:0|0:0|0:0|0:0|0:0|0:0,0:0:0:0:
114,317,21553,1,2,1:0:0:0:
99,313,21634,1,0,0:0:0:0:
84,310,21715,1,2,1:0:0:0:
70,307,21796,1,0,1:0:0:0:
55,304,21877,2,0,P|45:334|40:351,3,30.0000011444092,2|0|2|0,1:0|0:0|0:0|0:0,0:0:0:0:
91,232,22201,5,14,0:0:0:0:
40,125,22363,1,2,0:0:0:0:
192,211,22526,5,10,0:0:0:0:
205,94,22688,2,0,P|201:123|197:162,1,40,2|0,0:0|0:0,0:0:0:0:
323,254,22850,5,10,0:0:0:0:
310,137,23012,2,0,P|314:166|318:205,1,40,2|0,0:0|0:0,0:0:0:0:
431,216,23174,5,10,0:0:0:0:
444,99,23336,2,0,P|440:128|436:167,1,40,2|0,0:0|0:0,0:0:0:0:
367,25,23499,5,10,0:0:0:0:
367,25,23580,1,2,0:0:0:0:
367,25,23661,1,2,0:0:0:0:
367,25,23742,1,2,0:0:0:0:
367,25,23823,1,10,0:0:0:0:
206,55,23985,2,0,L|140:36,2,40,10|2|2,0:0|0:0|1:0,0:0:0:0:
358,108,24309,1,10,0:0:0:0:
265,127,24472,1,2,1:0:0:0:
265,127,24553,1,2,0:0:0:0:
265,127,24634,1,2,1:0:0:0:
328,183,24796,5,8,0:0:0:0:
374,293,24958,1,2,0:0:0:0:
242,205,25120,5,10,0:0:0:0:
228,322,25282,2,0,P|231:295|237:261,1,40,2|0,0:0|0:0,0:0:0:0:
110,185,25444,5,10,0:0:0:0:
124,302,25606,2,0,P|121:275|115:241,1,40,2|0,0:0|0:0,0:0:0:0:
15,208,25769,5,10,0:0:0:0:
2,326,25931,2,0,P|5:299|11:265,1,40,2|0,0:0|0:0,0:0:0:0:
91,379,26093,5,10,0:0:0:0:
91,379,26174,1,2,0:0:0:0:
91,379,26255,1,2,0:0:0:0:
91,379,26336,1,2,0:0:0:0:
91,379,26417,1,10,0:0:0:0:
227,255,26580,1,10,0:0:0:0:
227,255,26661,1,2,0:0:0:0:
227,255,26742,6,0,P|189:259|165:261,1,40,2|2,1:0|0:0,0:0:0:0:
50,178,26904,2,0,P|88:182|112:184,1,40,10|2,0:0|0:0,0:0:0:0:
195,132,27066,1,2,1:0:0:0:
105,262,27228,1,2,1:0:0:0:
35,103,27390,5,8,0:0:0:0:
5,245,27553,1,2,0:0:0:0:
129,96,27715,5,10,0:0:0:0:
163,211,27877,2,0,P|153:179|144:148,1,40,2|0,0:0|0:0,0:0:0:0:
272,139,28039,5,10,0:0:0:0:
243,255,28201,2,0,P|250:222|258:190,1,40,2|0,0:0|0:0,0:0:0:0:
378,237,28363,5,10,0:0:0:0:
294,322,28525,2,0,P|316:297|339:274,1,40,2|0,0:0|0:0,0:0:0:0:
481,335,28688,5,10,0:0:0:0:
383,361,28850,1,2,0:0:0:0:
383,361,28931,1,2,0:0:0:0:
383,361,29012,1,10,0:0:0:0:
476,257,29174,1,2,0:0:0:0:
378,237,29336,2,0,P|384:193|394:136,1,80,10|0,0:0|1:0,0:0:0:0:
329,94,29661,1,10,0:0:0:0:
443,57,29823,6,0,P|392:76|329:93,1,120,2|0,0:0|0:0,0:0:0:0:
311,86,30147,1,2,0:0:0:0:
254,144,30309,1,10,0:0:0:0:
172,135,30472,1,2,0:0:0:0:
102,66,30634,5,10,0:0:0:0:
114,190,30796,1,2,0:0:0:0:
0,146,30958,1,10,0:0:0:0:
69,255,31120,5,10,0:0:0:0:
69,255,31444,6,0,L|5:264,2,60.0000022888184,2|2|2,0:0|1:0|1:0,0:0:0:0:
223,278,31931,2,0,L|246:322,3,30.0000011444092,2|2|0|0,1:0|1:0|1:0|0:0,0:0:0:0:
217,202,32255,2,0,L|233:158,2,30.0000011444092,2|2|0,1:0|1:0|1:0,0:0:0:0:
149,243,32580,5,12,0:0:0:0:
298,245,32742,1,2,0:0:0:0:
282,111,32904,5,10,0:0:0:0:
180,89,33066,2,0,P|180:117|178:143,1,40,2|0,0:0|0:0,0:0:0:0:
291,120,33228,5,10,0:0:0:0:
361,42,33390,2,0,P|336:27|315:13,1,40,2|0,0:0|0:0,0:0:0:0:
298,127,33553,5,10,0:0:0:0:
330,226,33715,2,0,P|354:211|377:200,1,40,2|0,0:0|0:0,0:0:0:0:
464,119,33877,5,10,0:0:0:0:
464,119,33958,1,2,0:0:0:0:
464,119,34039,1,2,0:0:0:0:
464,119,34120,1,2,0:0:0:0:
464,119,34201,1,10,0:0:0:0:
497,265,34363,2,0,P|492:284|486:316,2,40,2|0|10,0:0|0:0|0:0,0:0:0:0:
364,206,34688,1,2,0:0:0:0:
412,330,34850,1,10,0:0:0:0:
412,330,34931,1,2,0:0:0:0:
412,330,35012,1,2,0:0:0:0:
328,272,35174,5,8,0:0:0:0:
448,204,35336,1,2,0:0:0:0:
305,146,35499,5,10,0:0:0:0:
258,36,35661,2,0,P|266:62|273:82,1,40,2|0,0:0|0:0,0:0:0:0:
313,156,35823,5,10,0:0:0:0:
241,251,35985,2,0,P|259:231|273:215,1,40,2|0,0:0|0:0,0:0:0:0:
320,163,36147,5,10,0:0:0:0:
438,177,36309,2,0,P|411:170|390:166,1,40,2|0,0:0|0:0,0:0:0:0:
448,90,36472,5,10,0:0:0:0:
448,90,36553,1,2,0:0:0:0:
448,90,36634,1,2,0:0:0:0:
448,90,36715,1,2,0:0:0:0:
448,90,36796,1,10,0:0:0:0:
320,30,36958,1,2,1:0:0:0:
320,30,37039,1,0,1:0:0:0:
320,30,37120,6,0,P|328:70|334:95,1,40,10|0,0:0|0:0,0:0:0:0:
367,172,37282,2,0,P|371:152|374:132,1,40,2|0,1:0|1:0,0:0:0:0:
243,69,37444,1,10,0:0:0:0:
184,178,37607,1,2,1:0:0:0:
285,187,37769,5,10,0:0:0:0:
168,101,37931,1,2,0:0:0:0:
148,252,38093,5,10,0:0:0:0:
43,209,38255,2,0,P|60:198|78:191,1,40,2|0,0:0|0:0,0:0:0:0:
160,248,38417,5,10,0:0:0:0:
144,135,38579,2,0,P|161:144|177:157,1,40,2|0,0:0|0:0,0:0:0:0:
173,248,38742,5,10,0:0:0:0:
262,177,38904,2,0,P|262:196|259:216,1,40,2|0,0:0|0:0,0:0:0:0:
310,315,39066,5,10,0:0:0:0:
412,233,39228,1,2,0:0:0:0:
412,233,39309,1,2,0:0:0:0:
412,233,39390,2,0,P|424:257|425:279,1,40,10|2,0:0|0:0,0:0:0:0:
479,327,39553,2,0,P|464:349|445:361,1,40,2|2,0:0|0:0,0:0:0:0:
371,362,39715,6,0,P|346:333|277:311,1,80,10|2,0:0|1:0,0:0:0:0:
239,165,40039,1,10,0:0:0:0:
332,239,40201,1,2,0:0:0:0:
383,116,40363,6,0,P|389:74|403:19,1,80,10|0,0:0|0:0,0:0:0:0:
397,37,40607,1,0,0:0:0:0:
397,37,40688,1,10,0:0:0:0:
304,72,40850,1,2,0:0:0:0:
225,115,41012,6,0,P|219:73|205:18,1,80,10|2,0:0|0:0,0:0:0:0:
210,36,41256,1,0,0:0:0:0:
210,36,41337,1,10,0:0:0:0:
304,72,41499,6,0,B|332:108|326:158|305:142|296:187|320:223,1,160,10|2,0:0|0:0,0:0:0:0:
395,186,41985,1,10,0:0:0:0:
395,186,42147,1,2,0:0:0:0:
324,301,42309,6,0,P|288:294|245:246,1,80,10|0,0:0|0:0,0:0:0:0:
255,266,42553,1,0,0:0:0:0:
255,266,42634,1,10,0:0:0:0:
162,247,42796,6,0,P|259:233|330:222,1,160,10|0,0:0|0:0,0:0:0:0:
189,165,43282,2,0,P|238:158|286:152,1,80,8|0,0:0|0:0,0:0:0:0:
216,80,43607,1,8,0:0:0:0:
224,81,43688,1,0,0:0:0:0:
232,82,43769,1,8,0:0:0:0:
120,14,43931,6,0,L|137:61,2,30.0000011444092,2|0|2,1:0|1:0|1:0,1:0:0:0:
31,95,44255,6,0,L|22:168,1,60.0000022888184,14|0,0:0|0:0,0:0:0:0:
108,120,44580,2,0,L|99:193,1,60.0000022888184,10|0,0:0|0:0,0:0:0:0:
178,278,44904,2,0,L|169:205,1,60.0000022888184,10|0,0:0|0:0,0:0:0:0:
255,253,45229,2,0,L|246:180,1,60.0000022888184,10|0,0:0|0:0,0:0:0:0:
391,170,45553,5,10,0:0:0:0:
313,144,45715,1,2,0:0:0:0:
313,63,45877,1,10,0:0:0:0:
391,38,46039,1,2,0:0:0:0:
438,104,46201,1,10,0:0:0:0:
393,321,46526,5,10,0:0:0:0:
470,290,46689,1,2,0:0:0:0:
405,246,46850,6,0,P|410:207|415:158,1,60.0000022888184,10|0,0:0|0:0,0:0:0:0:
324,265,47174,2,0,P|329:226|334:177,1,60.0000022888184,10|0,0:0|0:0,0:0:0:0:
232,128,47499,2,0,P|271:133|320:138,1,60.0000022888184,10|0,0:0|0:0,0:0:0:0:
213,47,47823,2,0,P|252:52|301:57,1,60.0000022888184,10|0,0:0|0:0,0:0:0:0:
461,34,48147,5,10,0:0:0:0:
461,34,48228,1,0,0:0:0:0:
461,34,48309,2,0,P|473:63|477:84,1,30.0000011444092,2|0,0:0|0:0,0:0:0:0:
410,114,48472,2,0,P|401:132|398:161,3,30.0000011444092,10|0|2|0,0:0|0:0|0:0|0:0,0:0:0:0:
478,156,48796,2,0,P|492:152|507:152,3,30.0000011444092,10|0|0|0,0:0|0:0|1:0|1:0,0:0:0:0:
425,215,49120,1,8,0:0:0:0:
499,334,49282,1,0,1:0:0:0:
401,286,49444,6,0,P|373:282|332:274,1,60.0000022888184,14|0,0:0|0:0,0:0:0:0:
187,237,49769,2,0,P|215:233|256:225,1,60.0000022888184,10|0,0:0|0:0,0:0:0:0:
313,142,50093,2,0,P|317:170|325:211,1,60.0000022888184,10|0,0:0|0:0,0:0:0:0:
258,361,50417,2,0,P|262:333|270:292,1,60.0000022888184,10|0,0:0|0:0,0:0:0:0:
109,231,50742,5,10,0:0:0:0:
31,205,50904,1,2,0:0:0:0:
31,124,51066,1,10,0:0:0:0:
109,99,51228,1,2,0:0:0:0:
156,165,51390,1,10,0:0:0:0:
355,134,51715,5,10,0:0:0:0:
434,117,51877,6,0,P|374:114|321:19,1,160,10|2,0:0|0:0,0:0:0:0:
320,37,52282,1,2,0:0:0:0:
320,37,52363,1,10,0:0:0:0:
170,43,52526,2,0,P|162:70|160:100,2,40,0|0|10,0:0|0:0|0:0,0:0:0:0:
245,76,52850,1,2,0:0:0:0:
78,96,53012,1,10,0:0:0:0:
209,147,53174,1,2,0:0:0:0:
20,45,53336,5,10,0:0:0:0:
72,177,53499,1,10,0:0:0:0:
20,45,53661,1,10,0:0:0:0:
72,177,53824,1,10,0:0:0:0:
209,147,53985,6,0,P|205:194|200:261,1,80,10|0,0:0|1:0,0:0:0:0:
202,226,54228,1,0,1:0:0:0:
202,226,54309,1,2,1:0:0:0:
288,191,54472,1,2,0:0:0:0:
441,269,54634,6,0,P|384:294|326:335,1,120,14|0,0:0|0:0,0:0:0:0:
257,332,54958,2,0,P|261:303|276:270,1,40,10|0,0:0|0:0,0:0:0:0:
371,176,55120,2,0,P|361:156|340:121,1,40,2|0,0:0|0:0,0:0:0:0:
242,218,55282,6,0,P|181:216|130:162,1,120,10|0,0:0|0:0,0:0:0:0:
68,144,55607,2,0,P|60:173|59:198,1,40,10|0,0:0|0:0,0:0:0:0:
98,295,55769,2,0,P|125:282|160:279,1,40,2|0,0:0|0:0,0:0:0:0:
1,239,55931,5,10,0:0:0:0:
61,371,56093,1,2,0:0:0:0:
61,371,56174,1,0,0:0:0:0:
61,371,56255,1,10,0:0:0:0:
205,317,56417,1,2,0:0:0:0:
354,371,56580,6,0,P|339:319|332:278,1,80,10|0,0:0|0:0,0:0:0:0:
205,317,56904,1,10,0:0:0:0:
298,193,57066,2,0,P|291:221|288:253,1,40
334,293,57228,6,0,P|408:276|451:270,1,120,10|0,0:0|0:0,0:0:0:0:
465,258,57553,1,8,0:0:0:0:
352,133,57715,1,0,0:0:0:0:
465,58,57877,2,0,P|472:87|488:159,1,80,10|0,0:0|0:0,0:0:0:0:
394,200,58201,1,8,0:0:0:0:
290,81,58363,6,0,L|158:111,1,120,2|0,0:0|0:0,0:0:0:0:
157,101,58688,1,2,0:0:0:0:
323,154,58850,1,10,0:0:0:0:
344,21,59012,1,2,0:0:0:0:
243,173,59174,2,0,L|266:267,1,80,10|0,0:0|1:0,0:0:0:0:
262,250,59417,1,0,1:0:0:0:
262,250,59499,1,8,0:0:0:0:
407,190,59661,1,0,1:0:0:0:
407,190,59742,1,0,1:0:0:0:
407,190,59823,6,0,P|361:263|349:312,1,120,14|0,0:0|0:0,0:0:0:0:
284,335,60147,2,0,P|256:346|225:357,1,40,10|0,0:0|0:0,0:0:0:0:
162,285,60309,2,0,P|149:274|116:261,1,40,2|0,0:0|0:0,0:0:0:0:
240,267,60472,6,0,P|241:209|204:146,1,120,10|0,0:0|0:0,0:0:0:0:
133,155,60796,2,0,P|113:184|96:199,1,40,10|0,0:0|0:0,0:0:0:0:
245,85,60958,2,0,P|270:99|302:108,1,40,2|0,0:0|0:0,0:0:0:0:
128,17,61120,5,10,0:0:0:0:
58,127,61282,1,2,0:0:0:0:
58,127,61363,1,0,0:0:0:0:
58,127,61444,1,10,0:0:0:0:
212,155,61607,1,2,0:0:0:0:
102,192,61769,6,0,P|117:237|125:286,1,80,10|0,0:0|0:0,0:0:0:0:
224,321,62093,1,10,0:0:0:0:
109,345,62255,2,0,P|82:333|54:310,1,40,2|0,0:0|0:0,0:0:0:0:
123,268,62417,6,0,P|203:246|264:222,1,120,10|0,0:0|0:0,0:0:0:0:
249,219,62742,1,8,0:0:0:0:
370,290,62904,1,2,0:0:0:0:
410,153,63066,2,0,P|421:103|434:68,1,80,10|0,0:0|0:0,0:0:0:0:
271,132,63390,2,0,P|292:152|309:174,1,40,10|0,0:0|0:0,0:0:0:0:
359,213,63553,1,10,0:0:0:0:
473,313,63877,6,0,L|462:357,5,32,2|0|2|0|2|0,0:0|0:0|0:0|0:0|0:0|0:0,0:0:0:0:
393,298,64363,1,2,1:0:0:0:
378,302,64444,1,0,1:0:0:0:
363,305,64525,1,2,1:0:0:0:
349,308,64606,1,0,1:0:0:0:
334,311,64688,2,0,P|324:281|319:262,1,32
268,353,64850,2,0,P|258:323|254:303,1,32
187,291,65012,6,0,P|199:222|203:139,1,143.999995605469,14|2,0:0|0:0,0:0:0:0:
210,70,65661,2,0,P|182:75|154:86,2,47.9999985351563,2|2|2,1:0|0:0|0:0,0:0:0:0:
276,117,66147,1,10,0:0:0:0:
367,34,66309,6,0,P|361:85|358:129,2,95.9999970703126,2|10|2,0:0|0:0|1:0,0:0:0:0:
498,91,67282,1,2,0:0:0:0:
498,91,67444,1,2,0:0:0:0:
438,147,67607,6,0,P|448:200|456:263,1,95.9999970703126,10|2,0:0|0:0,0:0:0:0:
398,298,68093,1,2,0:0:0:0:
333,251,68255,2,0,P|326:203|317:156,1,95.9999970703126,2|2,1:0|0:0,0:0:0:0:
374,97,68742,1,10,0:0:0:0:
250,114,68904,6,0,P|190:97|155:80,2,95.9999970703126,2|10|2,0:0|0:0|1:0,0:0:0:0:
250,114,69877,1,0,0:0:0:0:
250,114,70201,6,0,P|230:204|216:276,1,143.999995605469,10|2,0:0|0:0,0:0:0:0:
162,308,70850,2,0,P|147:285|139:253,2,47.9999985351563,2|2|2,1:0|0:0|0:0,0:0:0:0:
231,349,71336,1,10,0:0:0:0:
355,298,71499,6,0,P|403:313|463:322,2,95.9999970703126,2|10|2,0:0|0:0|1:0,0:0:0:0:
231,349,72472,1,2,0:0:0:0:
231,349,72634,1,2,0:0:0:0:
278,287,72796,6,0,P|253:240|220:196,1,95.9999970703126,10|2,0:0|0:0,0:0:0:0:
172,148,73282,1,2,0:0:0:0:
249,131,73444,2,0,P|274:84|307:40,1,95.9999970703126,2|2,1:0|0:0,0:0:0:0:
374,18,73931,1,2,0:0:0:0:
198,51,74093,5,2,1:0:0:0:
352,124,74336,1,0,1:0:0:0:
352,124,74417,1,2,1:0:0:0:
198,51,74580,1,0,0:0:0:0:
198,51,74661,1,0,0:0:0:0:
198,51,74742,6,0,L|189:117,1,40,2|0,1:0|0:0,0:0:0:0:
110,149,74904,2,0,L|118:199,1,40,0|0,1:0|0:0,0:0:0:0:
200,253,75066,1,8,0:0:0:0:
200,253,75390,5,12,0:0:0:0:
80,310,75553,1,2,0:0:0:0:
269,294,75715,2,0,P|326:302|389:314,1,95.9999970703126,10|2,0:0|0:0,0:0:0:0:
434,272,75958,1,0,0:0:0:0:
434,272,76039,2,0,P|442:215|454:152,1,95.9999970703126,10|2,0:0|0:0,0:0:0:0:
400,114,76282,1,0,0:0:0:0:
400,114,76363,2,0,P|343:106|280:94,1,95.9999970703126,10|2,0:0|0:0,0:0:0:0:
240,144,76607,1,0,0:0:0:0:
240,144,76688,6,0,L|254:203,3,47.9999985351563,10|2|2|2,0:0|0:0|0:0|0:0,0:0:0:0:
331,180,77012,1,8,0:0:0:0:
195,254,77174,1,2,0:0:0:0:
195,254,77255,1,2,0:0:0:0:
195,254,77336,5,10,0:0:0:0:
284,324,77499,1,2,0:0:0:0:
151,317,77661,2,0,P|155:340|158:364,1,47.9999985351563,10|0,0:0|0:0,0:0:0:0:
77,240,77823,2,0,P|54:233|32:224,1,47.9999985351563,2|0,0:0|0:0,0:0:0:0:
72,317,77985,5,10,0:0:0:0:
228,251,78147,1,2,0:0:0:0:
77,240,78309,2,0,P|71:200|53:145,1,95.9999970703126,10|2,0:0|0:0,0:0:0:0:
67,71,78553,1,0,0:0:0:0:
67,71,78634,2,0,P|107:65|162:47,1,95.9999970703126,10|2,0:0|0:0,0:0:0:0:
235,87,78877,1,0,0:0:0:0:
235,87,78958,2,0,P|241:127|259:182,1,95.9999970703126,10|2,0:0|0:0,0:0:0:0:
223,249,79201,1,0,0:0:0:0:
223,249,79282,6,0,P|221:277|209:329,3,47.9999985351563,10|2|2|2,0:0|0:0|0:0|0:0,0:0:0:0:
302,254,79607,1,10,0:0:0:0:
313,251,79688,1,2,0:0:0:0:
325,248,79769,1,2,0:0:0:0:
337,246,79850,1,2,0:0:0:0:
348,243,79931,6,0,P|394:250|416:255,3,47.9999985351563,10|2|2|2,0:0|0:0|0:0|0:0,0:0:0:0:
447,193,80255,2,0,P|439:171|428:128,1,47.9999985351563,10|0,0:0|0:0,0:0:0:0:
453,305,80417,2,0,P|446:328|438:350,1,47.9999985351563,2|0,0:0|0:0,0:0:0:0:
508,247,80580,5,10,0:0:0:0:
349,320,80742,1,2,0:0:0:0:
447,193,80904,2,0,P|449:144|462:68,1,95.9999970703126,10|2,0:0|0:0,0:0:0:0:
373,144,81147,1,0,0:0:0:0:
373,144,81228,2,0,P|375:95|388:19,1,95.9999970703126,10|2,0:0|0:0,0:0:0:0:
289,169,81472,1,0,0:0:0:0:
289,169,81553,2,0,P|291:120|304:44,1,95.9999970703126,10|2,0:0|0:0,0:0:0:0:
208,143,81796,1,0,0:0:0:0:
208,143,81877,6,0,L|90:121,1,95.9999970703126,10|2,0:0|0:0,0:0:0:0:
48,170,82120,1,2,0:0:0:0:
48,170,82201,2,0,P|72:211|76:239,1,47.9999985351563,10|2,0:0|0:0,0:0:0:0:
113,279,82363,1,2,0:0:0:0:
304,204,82526,5,10,0:0:0:0:
232,317,82688,2,0,P|253:347|264:359,1,47.9999985351563,2|0,0:0|0:0,0:0:0:0:
378,300,82850,2,0,P|373:276|367:253,1,47.9999985351563,10|0,0:0|0:0,0:0:0:0:
234,239,83012,6,0,P|184:224|128:130,1,143.999995605469,2|0,0:0|0:0,0:0:0:0:
116,141,83336,1,2,0:0:0:0:
244,52,83499,2,0,P|276:64|311:74,1,47.9999985351563,10|0,0:0|0:0,0:0:0:0:
269,165,83661,2,0,P|322:139|371:120,1,95.9999970703126,2|8,0:0|0:0,0:0:0:0:
494,29,83985,1,2,0:0:0:0:
487,39,84066,1,2,0:0:0:0:
482,50,84147,1,10,0:0:0:0:
478,61,84228,1,2,0:0:0:0:
475,73,84309,6,0,B|470:141|470:141|512:173|512:221,1,143.999995605469,2|0,0:0|0:0,0:0:0:0:
431,211,84634,2,0,P|407:205|357:188,1,47.9999985351563,2|0,0:0|0:0,0:0:0:0:
386,281,84796,1,10,0:0:0:0:
375,286,84877,1,2,0:0:0:0:
365,292,84958,1,2,0:0:0:0:
355,299,85039,1,2,0:0:0:0:
346,308,85120,5,10,0:0:0:0:
468,280,85282,1,2,0:0:0:0:
312,232,85444,1,10,0:0:0:0:
418,355,85607,1,2,0:0:0:0:
384,198,85769,5,12,0:0:0:0:
239,267,85931,1,2,0:0:0:0:
352,127,86093,2,0,B|330:114|330:114|301:45,1,95.9999970703126,10|2,0:0|0:0,0:0:0:0:
225,26,86336,1,0,0:0:0:0:
225,26,86417,2,0,B|212:47|212:47|143:76,1,95.9999970703126,10|2,0:0|0:0,0:0:0:0:
120,149,86661,1,0,0:0:0:0:
120,149,86742,2,0,B|141:161|141:161|170:230,1,95.9999970703126,10|2,0:0|0:0,0:0:0:0:
239,267,86985,1,0,0:0:0:0:
239,267,87066,6,0,L|236:328,3,47.9999985351563,10|2|2|2,0:0|0:0|0:0|0:0,0:0:0:0:
158,299,87390,1,10,0:0:0:0:
319,233,87553,1,2,0:0:0:0:
319,233,87634,1,2,0:0:0:0:
319,233,87715,5,10,0:0:0:0:
223,149,87877,1,2,0:0:0:0:
312,92,88039,2,0,P|307:120|304:148,1,47.9999985351563,10|0,0:0|0:0,0:0:0:0:
150,46,88201,2,0,P|163:73|176:106,1,47.9999985351563,2|0,0:0|0:0,0:0:0:0:
267,28,88363,5,8,0:0:0:0:
87,99,88526,1,2,0:0:0:0:
254,104,88688,2,0,B|266:130|266:130|260:174|260:174|231:193,1,95.9999970703126,10|2,0:0|0:0,0:0:0:0:
182,239,88931,1,0,0:0:0:0:
182,239,89012,2,0,B|156:251|156:251|112:245|112:245|93:216,1,95.9999970703126,10|2,0:0|0:0,0:0:0:0:
57,158,89255,1,0,0:0:0:0:
57,158,89336,2,0,B|45:132|45:132|51:88|51:88|80:69,1,95.9999970703126,10|2,0:0|0:0,0:0:0:0:
137,31,89580,1,0,0:0:0:0:
137,31,89661,6,0,P|165:22|191:12,3,47.9999985351563,10|2|2|2,0:0|0:0|0:0|0:0,0:0:0:0:
145,111,89985,1,10,0:0:0:0:
148,122,90066,1,2,0:0:0:0:
151,134,90147,1,2,0:0:0:0:
153,146,90228,1,2,0:0:0:0:
156,157,90309,6,0,P|139:195|128:215,3,47.9999985351563,10|2|2|2,0:0|0:0|0:0|0:0,0:0:0:0:
215,217,90634,2,0,P|240:224|276:232,1,47.9999985351563,10|0,0:0|0:0,0:0:0:0:
119,278,90796,2,0,P|99:289|56:305,1,47.9999985351563,2|0,0:0|0:0,0:0:0:0:
197,291,90958,5,8,0:0:0:0:
62,174,91120,1,2,0:0:0:0:
261,229,91282,2,0,B|248:166|248:166|219:147,1,95.9999970703126,10|2,0:0|0:0,0:0:0:0:
332,184,91526,1,0,0:0:0:0:
332,184,91607,2,0,B|319:121|319:121|290:102,1,95.9999970703126,10|2,0:0|0:0,0:0:0:0:
402,135,91850,1,0,0:0:0:0:
402,135,91931,2,0,B|389:72|389:72|360:53,1,95.9999970703126,10|2,0:0|0:0,0:0:0:0:
477,101,92174,1,0,0:0:0:0:
477,101,92255,6,0,L|502:223,1,95.9999970703126,10|2,0:0|0:0,0:0:0:0:
452,261,92499,1,2,0:0:0:0:
452,261,92580,2,0,P|428:297|421:322,1,47.9999985351563,10|2,0:0|0:0,0:0:0:0:
474,364,92742,1,2,0:0:0:0:
319,275,92904,5,10,0:0:0:0:
248,350,93066,2,0,P|224:340|171:322,1,47.9999985351563,2|0,0:0|0:0,0:0:0:0:
229,193,93228,2,0,P|247:227|253:243,1,47.9999985351563,10|0,0:0|0:0,0:0:0:0:
175,261,93390,6,0,P|108:250|22:185,1,143.999995605469,10|0,0:0|0:0,0:0:0:0:
6,140,93715,1,2,0:0:0:0:
10,128,93796,1,2,0:0:0:0:
16,118,93877,1,2,0:0:0:0:
23,108,93958,1,2,0:0:0:0:
31,100,94039,2,0,P|106:68|107:13,1,143.999995605469,10|0,0:0|0:0,0:0:0:0:
188,15,94363,2,0,P|192:43|205:91,1,47.9999985351563,2|2,0:0|0:0,0:0:0:0:
312,25,94526,1,10,0:0:0:0:
312,25,94607,1,2,0:0:0:0:
312,25,94688,6,0,P|298:108|289:200,1,143.999995605469,2|0,0:0|0:0,0:0:0:0:
214,176,95012,2,0,P|198:152|166:120,1,47.9999985351563,10|0,0:0|0:0,0:0:0:0:
92,182,95174,1,2,0:0:0:0:
103,184,95255,1,2,0:0:0:0:
115,187,95336,1,2,0:0:0:0:
125,193,95417,1,0,0:0:0:0:
135,200,95498,5,10,0:0:0:0:
265,238,95661,2,0,L|260:295,1,47.9999985351563,10|0,0:0|0:0,0:0:0:0:
195,333,95823,5,2,0:0:0:0:
387,286,95985,2,0,P|363:279|343:268,1,47.9999985351563,14|0,0:0|0:0,0:0:0:0:
328,194,96147,6,0,P|321:135|288:81,1,120
244,21,96472,2,0,P|228:38|212:62,1,40,10|0,0:0|0:0,0:0:0:0:
159,179,96634,2,0,P|137:168|100:137,1,40,2|0,0:0|0:0,0:0:0:0:
33,51,96796,6,0,P|115:71|168:100,1,120,10|0,0:0|0:0,0:0:0:0:
124,159,97120,2,0,P|95:180|71:212,1,40,10|0,0:0|0:0,0:0:0:0:
236,204,97282,2,0,P|259:233|264:255,1,40,2|0,0:0|0:0,0:0:0:0:
104,261,97444,5,10,0:0:0:0:
245,320,97607,1,2,0:0:0:0:
245,320,97688,1,2,0:0:0:0:
245,320,97769,1,10,0:0:0:0:
138,372,97931,1,2,0:0:0:0:
259,235,98093,6,0,L|372:256,1,80,10|0,0:0|0:0,0:0:0:0:
440,310,98417,1,10,0:0:0:0:
449,307,98498,1,2,0:0:0:0:
459,305,98579,1,2,0:0:0:0:
469,303,98660,1,2,0:0:0:0:
478,301,98742,5,10,0:0:0:0:
375,180,98904,1,2,0:0:0:0:
322,325,99066,1,10,0:0:0:0:
325,334,99147,1,2,0:0:0:0:
329,343,99228,1,2,0:0:0:0:
333,352,99309,1,2,0:0:0:0:
337,361,99390,2,0,P|368:346|380:339,3,40,10|2|2|2,0:0|0:0|0:0|0:0,0:0:0:0:
239,342,99715,2,0,P|222:331|196:325,1,40,10|2,0:0|0:0,0:0:0:0:
108,287,99877,6,0,P|161:260|203:217,1,120,2|0,0:0|0:0,0:0:0:0:
205,142,100201,2,0,P|233:148|268:171,1,40,2|2,0:0|0:0,0:0:0:0:
349,191,100363,1,10,0:0:0:0:
358,187,100444,1,2,0:0:0:0:
367,183,100525,1,2,0:0:0:0:
376,178,100606,1,2,0:0:0:0:
385,174,100688,2,0,P|393:199|382:227,3,40,10|0|2|0,0:0|1:0|1:0|1:0,0:0:0:0:
418,62,101012,2,0,P|409:36|421:9,3,40,10|0|2|0,0:0|1:0|1:0|1:0,0:0:0:0:
357,106,101336,6,0,P|293:92|237:48,1,120,10|0,0:0|0:0,0:0:0:0:
176,34,101661,2,0,P|149:43|121:57,1,40,10|0,0:0|0:0,0:0:0:0:
63,131,101823,2,0,P|98:146|114:163,1,40,2|0,0:0|0:0,0:0:0:0:
170,228,101985,6,0,P|179:163|190:106,1,120,10|0,0:0|0:0,0:0:0:0:
248,61,102309,2,0,P|267:42|280:25,1,40,10|0,0:0|0:0,0:0:0:0:
116,14,102472,2,0,P|135:41|146:69,1,40,2|0,0:0|0:0,0:0:0:0:
189,109,102634,5,10,0:0:0:0:
41,51,102796,1,2,0:0:0:0:
41,51,102877,1,0,0:0:0:0:
41,51,102958,1,10,0:0:0:0:
94,164,103120,1,2,0:0:0:0:
5,125,103282,6,0,P|18:174|28:221,1,80,10|0,0:0|0:0,0:0:0:0:
143,291,103607,1,10,0:0:0:0:
151,285,103688,1,2,0:0:0:0:
160,280,103769,1,2,0:0:0:0:
168,275,103850,1,2,0:0:0:0:
177,270,103931,6,0,L|203:315,3,40,10|2|2|2,0:0|0:0|0:0|0:0,0:0:0:0:
241,219,104255,1,10,0:0:0:0:
250,221,104336,1,2,0:0:0:0:
260,224,104417,1,2,0:0:0:0:
269,226,104498,1,2,0:0:0:0:
279,229,104580,6,0,P|291:205|304:177,3,40,10|2|2|2,0:0|0:0|0:0|0:0,0:0:0:0:
335,286,104904,2,0,P|360:300|378:317,1,40,10|2,0:0|0:0,0:0:0:0:
264,354,105066,1,10,0:0:0:0:
263,353,105553,6,0,L|253:315,3,40,10|2|2|2,0:0|0:0|0:0|0:0,0:0:0:0:
184,260,105877,1,10,0:0:0:0:
184,260,105958,1,2,0:0:0:0:
184,260,106039,2,0,L|191:191,1,40,2|0,0:0|0:0,0:0:0:0:
289,245,106201,1,10,0:0:0:0:
289,245,106282,1,2,0:0:0:0:
289,245,106363,2,0,L|296:176,1,40,2|0,0:0|0:0,0:0:0:0:
230,157,106526,5,10,0:0:0:0:
136,82,106688,2,0,L|80:98,1,40,10|2,0:0|0:0,0:0:0:0:
215,77,106850,2,0,L|205:39,1,40,10|2,0:0|0:0,0:0:0:0:
289,36,107012,2,0,L|327:25,1,40,10|2,0:0|0:0,0:0:0:0:
230,157,107174,5,14,0:0:0:0:
