osu file format v14

[General]
AudioFilename: audio.mp3
AudioLeadIn: 0
PreviewTime: 54593
Countdown: 0
SampleSet: Soft
StackLeniency: 0.5
Mode: 0
LetterboxInBreaks: 0
WidescreenStoryboard: 0

[Editor]
Bookmarks: 22201,44255,54634,65012,75390,107174
DistanceSpacing: 1.1
BeatDivisor: 4
GridSize: 32
TimelineZoom: 2

[Metadata]
Title:Tantanmen
TitleUnicode:탄탄멘
Artist:Memme
ArtistUnicode:맴매
Creator:Down
Version:Hard
Source:PUMP IT UP XX
Tags:instrumental electronic piu andamiro owc2020 qf hr3
BeatmapID:2890430
BeatmapSetID:1296282

[Difficulty]
HPDrainRate:5
CircleSize:4
OverallDifficulty:6
ApproachRate:8
SliderMultiplier:1.5
SliderTickRate:1

[Events]
//Background and Video events
0,0,"bg.jpg",0,0
//Break Periods
//Storyboard Layer 0 (Background)
//Storyboard Layer 1 (Fail)
//Storyboard Layer 2 (Pass)
//Storyboard Layer 3 (Foreground)
//Storyboard Layer 4 (Overlay)
//Storyboard Sound Samples

[TimingPoints]
1445,324.324324324324,4,2,1,60,1,0
1445,-125,4,2,1,60,0,0
10526,-100,4,2,1,60,0,0
21066,-100,4,2,1,60,0,0
22201,-100,4,2,1,60,0,0
31282,-100,4,2,1,60,0,0
32580,-100,4,2,1,60,0,0
43931,-100,4,2,1,60,0,0
51715,-100,4,2,1,60,0,0
63715,-100,4,2,1,60,0,0
65012,-125,4,2,1,60,0,0
74093,-100,4,2,1,60,0,0
75390,-90.9090909090909,4,2,1,60,0,1
95985,-100,4,2,1,60,0,1
96147,-100,4,2,1,60,0,0

[Colours]
Combo1 : 247,242,159
Combo2 : 252,101,105

[HitObjects]
247,108,1120,5,2,0:0:0:0:
247,108,1282,1,2,0:0:0:0:
180,146,1445,6,0,P|176:197|170:283,1,120,6|0,0:0|0:0,0:0:0:0:
227,323,1931,1,2,0:0:0:0:
296,281,2093,2,0,P|332:271|368:268,1,60,2|2,0:0|0:0,0:0:0:0:
413,323,2417,2,0,P|449:333|485:336,1,60,2|2,0:0|0:0,0:0:0:0:
489,256,2742,6,0,P|482:216|456:180,1,60,2|2,0:0|0:0,0:0:0:0:
412,145,3066,2,0,P|374:131|329:135,1,60,2|2,0:0|0:0,0:0:0:0:
292,78,3390,2,0,P|360:46|418:21,1,120,2|2,0:0|0:0,0:0:0:0:
460,83,3877,1,2,0:0:0:0:
412,145,4039,6,0,P|395:186|396:275,1,120,2|2,0:0|0:0,0:0:0:0:
344,326,4526,1,2,0:0:0:0:
267,299,4688,2,0,P|207:291|122:283,1,120,2|2,0:0|0:0,0:0:0:0:
77,325,5174,1,2,0:0:0:0:
72,244,5336,6,0,P|51:205|27:170,1,60,2|0,0:0|0:0,0:0:0:0:
115,156,5661,2,0,P|130:181|144:208,1,60,2|2,0:0|0:0,0:0:0:0:
224,218,5985,2,0,P|235:161|259:78,1,120,2|0,0:0|0:0,0:0:0:0:
251,101,6634,6,0,B|312:93|312:93|344:29,1,120,2|0,0:0|0:0,0:0:0:0:
415,18,7120,1,2,0:0:0:0:
464,81,7282,2,0,B|485:102|485:102|483:157,1,60,2|2,0:0|0:0,0:0:0:0:
424,187,7607,2,0,L|355:200,1,60,2|2,0:0|0:0,0:0:0:0:
290,167,7931,6,0,P|285:197|278:233,1,60,2|2,0:0|0:0,0:0:0:0:
224,285,8255,2,0,P|195:296|160:307,1,60,2|2,0:0|0:0,0:0:0:0:
103,255,8580,2,0,P|116:194|131:117,1,120,2|2,0:0|0:0,0:0:0:0:
84,68,9066,1,2,0:0:0:0:
156,31,9228,6,0,B|189:46|189:46|289:15,1,120,2|2,0:0|0:0,0:0:0:0:
343,55,9715,1,2,0:0:0:0:
415,18,9877,2,0,B|430:53|430:53|395:151,1,120,2|2,0:0|0:0,0:0:0:0:
354,195,10363,1,2,0:0:0:0:
425,237,10526,5,2,0:0:0:0:
311,279,10769,1,0,1:0:0:0:
311,279,10850,1,2,1:0:0:0:
386,311,11012,1,0,1:0:0:0:
322,363,11174,2,0,P|281:351|237:342,1,75,2|0,1:0|0:0,0:0:0:0:
183,294,11499,1,2,0:0:0:0:
107,327,11661,1,2,0:0:0:0:
43,187,11823,6,0,P|35:242|30:302,1,112.5,14|0,0:0|0:0,0:0:0:0:
22,312,12147,1,10,0:0:0:0:
107,327,12309,1,2,0:0:0:0:
161,264,12472,2,0,P|213:230|286:233,1,112.5,10|0,0:0|0:0,0:0:0:0:
276,234,12796,1,10,0:0:0:0:
345,278,12958,1,2,0:0:0:0:
407,224,13120,5,10,0:0:0:0:
429,303,13282,1,2,0:0:0:0:
498,259,13444,1,10,0:0:0:0:
473,180,13607,1,2,0:0:0:0:
407,224,13769,2,0,P|353:218|271:149,1,150,10|10,0:0|0:0,0:0:0:0:
311,86,14255,1,0,0:0:0:0:
244,36,14417,6,0,P|160:49|90:62,1,150,10|8,0:0|0:0,0:0:0:0:
13,63,14904,1,0,0:0:0:0:
59,130,15066,2,0,P|80:165|93:214,1,75,10|0,0:0|0:0,0:0:0:0:
77,278,15390,1,8,0:0:0:0:
150,315,15553,6,0,P|195:297|242:287,1,75,2|8,0:0|0:0,0:0:0:0:
270,225,15877,1,2,0:0:0:0:
334,276,16039,2,0,P|323:325|317:361,1,75,10|2,0:0|0:0,0:0:0:0:
398,370,16363,2,0,P|404:333|413:296,1,75,10|0,0:0|1:0,0:0:0:0:
413,296,16607,1,0,1:0:0:0:
413,296,16688,1,8,0:0:0:0:
495,272,16850,1,0,1:0:0:0:
390,223,17012,6,0,P|368:176|317:117,1,112.5,14|0,0:0|0:0,0:0:0:0:
314,128,17336,1,10,0:0:0:0:
355,56,17499,1,2,0:0:0:0:
272,48,17661,2,0,B|245:69|245:69|139:52,1,112.5,10|0,0:0|0:0,0:0:0:0:
152,49,17985,1,10,0:0:0:0:
81,92,18147,1,2,0:0:0:0:
126,160,18309,5,10,0:0:0:0:
46,184,18472,1,2,0:0:0:0:
134,241,18634,1,10,0:0:0:0:
56,265,18796,1,2,0:0:0:0:
126,160,18958,2,0,P|177:166|280:189,1,150,10|10,0:0|0:0,0:0:0:0:
353,169,19444,1,2,0:0:0:0:
331,249,19607,6,0,P|359:314|291:347,1,150,10|8,0:0|0:0,0:0:0:0:
241,294,20093,1,2,0:0:0:0:
173,340,20255,2,0,P|128:360|88:377,1,75,10|0,0:0|0:0,0:0:0:0:
30,332,20580,1,10,0:0:0:0:
30,332,20742,1,10,0:0:0:0:
56,169,21066,6,0,P|51:154|36:130,5,37.5,2|0|2|0|2|0,0:0|0:0|0:0|0:0|0:0|0:0,0:0:0:0:
12,103,21553,6,0,P|21:86|35:74,3,37.5,2|0|2|0,1:0|0:0|1:0|1:0,0:0:0:0:
63,45,21877,2,0,P|81:45|99:50,3,37.5,2|0|2|0,1:0|0:0|0:0|0:0,0:0:0:0:
140,45,22201,6,0,P|165:106|172:196,1,150,14|10,0:0|0:0,0:0:0:0:
128,259,22688,1,2,0:0:0:0:
190,313,22850,2,0,P|234:299|277:291,1,75,10|2,0:0|0:0,0:0:0:0:
272,211,23174,2,0,P|318:221|351:235,1,75,10|2,0:0|0:0,0:0:0:0:
425,247,23499,6,0,P|438:262|446:296,4,37.5,10|2|2|2|10,0:0|0:0|0:0|0:0|0:0,0:0:0:0:
462,177,23985,1,10,0:0:0:0:
462,177,24066,1,2,0:0:0:0:
462,177,24147,2,0,P|468:123|477:80,1,75,2|10,1:0|0:0,0:0:0:0:
430,30,24472,2,0,P|386:25|340:16,1,75,2|2,1:0|1:0,0:0:0:0:
359,133,24796,6,0,B|310:145|310:145|287:183|287:183|217:204,1,150,8|10,0:0|0:0,0:0:0:0:
161,159,25282,1,2,0:0:0:0:
159,241,25444,2,0,B|137:269|137:269|147:342,1,75,10|2,0:0|0:0,0:0:0:0:
221,333,25769,2,0,L|315:365,1,75,10|2,0:0|0:0,0:0:0:0:
374,353,26093,6,0,P|384:334|394:305,4,37.5,10|2|2|2|10,0:0|0:0|0:0|0:0|0:0,0:0:0:0:
319,284,26580,1,10,0:0:0:0:
319,284,26661,1,2,0:0:0:0:
319,284,26742,2,0,P|304:264|293:194,1,75,2|10,1:0|0:0,0:0:0:0:
365,180,27066,2,0,P|419:196|459:211,1,75,2|2,1:0|1:0,0:0:0:0:
501,253,27390,6,0,P|455:209|468:123,1,150,8|10,0:0|0:0,0:0:0:0:
398,77,27877,1,2,0:0:0:0:
317,96,28039,2,0,P|288:126|291:171,1,75,10|2,0:0|0:0,0:0:0:0:
303,238,28363,2,0,P|347:229|365:185,1,75,10|2,0:0|0:0,0:0:0:0:
443,225,28688,6,0,P|430:259|416:325,1,75,10|2,0:0|0:0,0:0:0:0:
420,296,28931,1,2,0:0:0:0:
420,296,29012,1,10,0:0:0:0:
379,367,29174,1,2,0:0:0:0:
305,328,29336,2,0,P|293:292|277:243,1,75,10|0,0:0|1:0,0:0:0:0:
219,311,29661,1,10,0:0:0:0:
142,280,29823,6,0,P|141:249|190:127,1,150,2|2,0:0|0:0,0:0:0:0:
229,72,30309,1,10,0:0:0:0:
229,72,30472,1,2,0:0:0:0:
153,38,30634,2,0,P|117:45|53:57,1,75,10|2,0:0|0:0,0:0:0:0:
16,106,30958,1,10,0:0:0:0:
77,160,31120,1,10,0:0:0:0:
58,323,31444,6,0,B|35:293|35:293|45:231,2,75,2|2|2,0:0|1:0|1:0,0:0:0:0:
124,272,31931,2,0,P|164:281|209:296,1,75,2|0,1:0|1:0,0:0:0:0:
258,345,32255,2,0,P|298:324|338:307,1,75,2|0,1:0|1:0,0:0:0:0:
397,352,32580,6,0,P|407:308|436:187,1,150,12|10,0:0|0:0,0:0:0:0:
487,145,33066,1,2,0:0:0:0:
487,145,33147,1,0,0:0:0:0:
487,145,33228,2,0,P|481:105|465:60,1,75,10|2,0:0|0:0,0:0:0:0:
391,46,33553,2,0,P|358:54|296:67,1,75,10|2,0:0|0:0,0:0:0:0:
235,67,33877,6,0,P|216:45|196:35,4,37.5,10|2|2|2|10,0:0|0:0|0:0|0:0|0:0,0:0:0:0:
206,144,34363,1,2,0:0:0:0:
206,144,34444,1,0,0:0:0:0:
206,144,34526,2,0,P|194:183|184:226,1,75,10|2,0:0|0:0,0:0:0:0:
112,252,34850,2,0,P|72:235|31:225,1,75,10|2,0:0|0:0,0:0:0:0:
19,147,35174,6,0,P|112:121|146:63,1,150,8|10,0:0|0:0,0:0:0:0:
199,22,35661,1,2,0:0:0:0:
199,22,35742,1,0,0:0:0:0:
199,22,35823,2,0,P|251:40|289:60,1,75,10|2,0:0|0:0,0:0:0:0:
307,121,36147,2,0,P|268:151|261:192,1,75,10|2,0:0|0:0,0:0:0:0:
275,255,36472,6,0,P|289:279|320:297,4,37.5,10|2|2|2|10,0:0|0:0|0:0|0:0|0:0,0:0:0:0:
196,231,36958,1,2,1:0:0:0:
196,231,37039,1,0,1:0:0:0:
196,231,37120,2,0,P|175:216|166:154,1,75,10|2,0:0|1:0,0:0:0:0:
80,187,37444,2,0,P|40:220|30:271,1,75,10|2,0:0|1:0,0:0:0:0:
39,323,37769,6,0,P|143:336|196:357,1,150,10|10,0:0|0:0,0:0:0:0:
246,296,38255,1,2,0:0:0:0:
246,296,38336,1,0,0:0:0:0:
246,296,38417,2,0,P|296:301|325:314,1,75,10|2,0:0|0:0,0:0:0:0:
392,272,38742,2,0,P|407:229|442:187,1,75,10|2,0:0|0:0,0:0:0:0:
373,139,39066,5,10,0:0:0:0:
454,109,39228,1,2,0:0:0:0:
454,109,39309,1,2,0:0:0:0:
454,109,39390,2,0,P|489:98|505:43,1,75,10|2,0:0|0:0,0:0:0:0:
448,7,39715,2,0,P|412:15|351:24,1,75,10|2,0:0|1:0,0:0:0:0:
334,93,40039,2,0,B|298:116|298:116|291:165,1,75,10|2,0:0|0:0,0:0:0:0:
225,204,40363,6,0,L|184:78,1,112.5,10|0,0:0|0:0,0:0:0:0:
176,91,40688,1,10,0:0:0:0:
118,150,40850,1,2,0:0:0:0:
45,110,41012,2,0,L|54:30,1,75,10|2,0:0|0:0,0:0:0:0:
53,35,41255,1,0,0:0:0:0:
53,35,41336,1,10,0:0:0:0:
118,150,41499,6,0,P|106:233|98:318,1,150,10|2,0:0|0:0,0:0:0:0:
161,352,41985,2,0,P|200:346|264:339,1,75,10|2,0:0|0:0,0:0:0:0:
293,283,42309,1,10,0:0:0:0:
365,323,42472,2,0,P|380:339|402:365,2,37.5,0|0|10,0:0|0:0|0:0,0:0:0:0:
327,211,42796,6,0,P|403:186|481:154,1,150,10|0,0:0|0:0,0:0:0:0:
452,78,43282,2,0,P|411:73|349:55,1,75,8|0,0:0|0:0,0:0:0:0:
320,124,43607,2,0,P|309:105|286:79,2,37.5,8|0|8,0:0|0:0|0:0,0:0:0:0:
242,151,43931,1,2,1:0:0:0:
242,151,44093,1,2,1:0:0:0:
186,90,44255,6,0,P|151:87|90:81,1,75,14|0,0:0|0:0,0:0:0:0:
31,107,44580,2,0,P|28:142|22:203,1,75,10|0,0:0|0:0,0:0:0:0:
85,236,44904,2,0,P|120:233|181:227,1,75,10|0,0:0|0:0,0:0:0:0:
240,253,45229,2,0,P|243:288|249:349,1,75,10|0,0:0|0:0,0:0:0:0:
324,353,45553,5,10,0:0:0:0:
382,294,45715,1,2,0:0:0:0:
463,308,45877,2,0,P|467:266|476:217,1,75,10|2,0:0|0:0,0:0:0:0:
421,169,46201,2,0,P|395:177|323:192,1,75,10|0,0:0|0:0,0:0:0:0:
286,133,46526,1,10,0:0:0:0:
286,133,46688,1,2,0:0:0:0:
327,61,46850,6,0,P|382:66|423:72,1,75,10|0,0:0|0:0,0:0:0:0:
467,118,47174,2,0,P|462:173|456:214,1,75,10|0,0:0|0:0,0:0:0:0:
383,225,47499,2,0,P|328:230|287:236,1,75,10|0,0:0|0:0,0:0:0:0:
243,282,47823,2,0,P|248:337|254:378,1,75,10|0,0:0|0:0,0:0:0:0:
331,370,48147,6,0,P|328:341|326:317,2,37.5,10|0|2,0:0|0:0|0:0,0:0:0:0:
408,339,48472,2,0,P|405:310|403:286,2,37.5,10|0|2,0:0|0:0|0:0,0:0:0:0:
484,320,48796,2,0,P|485:339|488:358,2,37.5,10|0|0,0:0|0:0|1:0,0:0:0:0:
499,239,49120,1,8,0:0:0:0:
499,239,49282,1,0,1:0:0:0:
422,207,49444,6,0,P|397:198|331:185,1,75,14|0,0:0|0:0,0:0:0:0:
277,146,49769,2,0,P|256:163|212:213,1,75,10|0,0:0|0:0,0:0:0:0:
218,281,50093,2,0,P|193:289|127:303,1,75,10|0,0:0|0:0,0:0:0:0:
73,342,50418,2,0,P|52:324|8:274,1,75,10|0,0:0|0:0,0:0:0:0:
72,225,50742,5,10,0:0:0:0:
22,159,50904,1,2,0:0:0:0:
92,117,51066,2,0,P|145:129|192:145,1,75,10|2,0:0|0:0,0:0:0:0:
237,95,51390,2,0,P|238:64|195:15,1,75,10|0,0:0|0:0,0:0:0:0:
136,48,51715,1,10,0:0:0:0:
236,175,51877,6,0,P|312:156|401:141,1,150,10|2,0:0|0:0,0:0:0:0:
382,143,52282,1,2,0:0:0:0:
382,143,52363,1,10,0:0:0:0:
438,82,52526,2,0,P|440:62|454:37,2,37.5,0|0|10,0:0|0:0|0:0,0:0:0:0:
511,119,52850,1,2,0:0:0:0:
467,189,53012,2,0,P|455:220|437:293,1,75,10|2,0:0|0:0,0:0:0:0:
483,337,53336,5,10,0:0:0:0:
483,337,53499,1,10,0:0:0:0:
401,327,53661,2,0,P|370:337|302:366,1,75,10|10,0:0|0:0,0:0:0:0:
251,330,53985,2,0,B|237:306|237:306|265:212|265:212|235:171,1,150,10|2,0:0|1:0,0:0:0:0:
174,224,54472,1,2,0:0:0:0:
246,114,54634,6,0,P|314:129|381:140,1,112.5,14|0,0:0|0:0,0:0:0:0:
369,129,54958,1,10,0:0:0:0:
443,164,55120,1,2,0:0:0:0:
499,104,55282,2,0,P|488:66|413:35,1,112.5,10|0,0:0|0:0,0:0:0:0:
412,39,55607,1,10,0:0:0:0:
335,7,55769,1,2,0:0:0:0:
293,77,55931,5,10,0:0:0:0:
360,123,56093,1,2,0:0:0:0:
284,157,56255,1,10,0:0:0:0:
351,205,56417,1,2,0:0:0:0:
293,77,56580,2,0,B|256:74|256:74|217:100|217:100|188:61|132:64,1,150,10|10,0:0|0:0,0:0:0:0:
83,91,57066,1,0,0:0:0:0:
145,144,57228,6,0,P|162:211|177:306,1,150,10|8,0:0|0:0,0:0:0:0:
122,354,57715,1,0,0:0:0:0:
203,366,57877,2,0,P|245:341|291:327,1,75,10|0,0:0|0:0,0:0:0:0:
309,260,58201,1,8,0:0:0:0:
387,284,58363,6,0,B|397:263|397:263|370:196,1,75,2|8,0:0|0:0,0:0:0:0:
306,172,58688,1,2,0:0:0:0:
360,110,58850,2,0,P|402:118|447:134,1,75,10|2,0:0|0:0,0:0:0:0:
460,50,59174,2,0,P|424:38|387:32,1,75,10|0,0:0|1:0,0:0:0:0:
387,32,59417,1,0,1:0:0:0:
387,32,59499,1,8,0:0:0:0:
306,14,59661,1,0,1:0:0:0:
360,110,59823,6,0,P|277:135|230:163,1,112.5,14|0,0:0|0:0,0:0:0:0:
237,150,60147,1,10,0:0:0:0:
164,110,60309,1,2,0:0:0:0:
112,174,60472,2,0,P|103:219|149:290,1,112.5,10|0,0:0|0:0,0:0:0:0:
147,283,60796,1,10,0:0:0:0:
210,230,60958,1,2,0:0:0:0:
255,298,61120,5,10,0:0:0:0:
333,272,61282,1,2,0:0:0:0:
341,190,61444,1,10,0:0:0:0:
261,165,61607,1,2,0:0:0:0:
210,230,61769,2,0,P|145:215|45:176,1,150,10|10,0:0|0:0,0:0:0:0:
18,119,62255,1,2,0:0:0:0:
97,96,62417,6,0,B|146:94|169:62|155:58|182:26|228:32,1,150,10|8,0:0|0:0,0:0:0:0:
294,76,62904,1,2,0:0:0:0:
366,37,63066,2,0,P|381:77|398:122,1,75,10|0,0:0|0:0,0:0:0:0:
460,153,63390,1,10,0:0:0:0:
460,153,63553,1,10,0:0:0:0:
319,239,63877,6,0,P|314:254|299:278,5,37.5,2|0|2|0|2|0,0:0|0:0|0:0|0:0|0:0|0:0,0:0:0:0:
275,305,64364,6,0,P|284:322|298:334,3,37.5,2|0|2|0,1:0|1:0|1:0|1:0,0:0:0:0:
326,363,64688,2,0,P|344:363|388:322,1,75
466,329,65012,6,0,P|471:229|477:143,1,180,14|2,0:0|0:0,0:0:0:0:
416,94,65661,2,0,P|408:68|385:39,2,60,2|2|2,1:0|0:0|0:0,0:0:0:0:
359,151,66147,1,10,0:0:0:0:
359,151,66309,6,0,P|324:166|294:191,1,60,2|2,0:0|0:0,0:0:0:0:
227,159,66634,2,0,P|202:142|174:131,1,60,10|2,0:0|0:0,0:0:0:0:
167,211,66958,2,0,P|180:273|188:347,1,120,2|2,1:0|0:0,0:0:0:0:
262,356,67444,1,2,0:0:0:0:
317,296,67607,6,0,P|397:264|446:254,1,120,10|2,0:0|0:0,0:0:0:0:
480,193,68093,1,2,0:0:0:0:
409,154,68255,2,0,P|351:138|348:79,1,120,2|2,1:0|0:0,0:0:0:0:
391,19,68742,1,10,0:0:0:0:
310,15,68904,6,0,P|254:34|188:62,2,120,2|10|2,0:0|0:0|1:0,0:0:0:0:
279,174,69877,1,0,0:0:0:0:
279,174,70201,6,0,B|209:152|165:216|165:216|176:250|162:270,1,180,10|2,0:0|0:0,0:0:0:0:
86,243,70850,2,0,P|57:221|14:212,2,60,2|2|2,1:0|0:0|0:0,0:0:0:0:
105,321,71336,1,10,0:0:0:0:
184,337,71499,6,0,P|226:314|253:304,1,60,2|2,0:0|0:0,0:0:0:0:
300,259,71823,2,0,P|337:269|362:280,1,60,10|2,0:0|0:0,0:0:0:0:
413,335,72147,1,2,1:0:0:0:
473,184,72472,2,0,P|465:153|459:108,1,60,2|2,0:0|0:0,0:0:0:0:
405,65,72796,6,0,P|367:94|288:151,1,120,10|2,0:0|0:0,0:0:0:0:
230,115,73282,1,2,0:0:0:0:
177,176,73444,2,0,B|216:208|220:234|220:234|196:246|185:271,1,120,2|2,1:0|0:0,0:0:0:0:
257,307,73931,1,2,0:0:0:0:
320,254,74093,5,2,1:0:0:0:
437,292,74336,1,0,1:0:0:0:
437,292,74417,1,2,1:0:0:0:
393,221,74580,1,0,0:0:0:0:
454,166,74742,2,0,P|443:125|432:84,1,75,2|0,1:0|1:0,0:0:0:0:
369,42,75066,1,8,0:0:0:0:
202,113,75390,6,0,P|162:100|116:79,1,82.5000025177003,12|2,0:0|0:0,0:0:0:0:
45,106,75715,1,10,0:0:0:0:
101,165,75877,2,0,P|109:191|112:218,2,41.2500012588501,2|0|10,0:0|0:0|0:0,0:0:0:0:
35,235,76201,2,0,P|31:215|25:196,2,41.2500012588501,2|0|10,0:0|0:0|0:0,0:0:0:0:
109,292,76526,1,2,0:0:0:0:
109,292,76607,1,0,0:0:0:0:
109,292,76688,6,0,P|66:307|19:321,1,82.5000025177003,10|2,0:0|0:0,0:0:0:0:
149,360,77012,2,0,P|192:344|242:344,1,82.5000025177003,8|2,0:0|0:0,0:0:0:0:
228,342,77255,1,2,0:0:0:0:
228,342,77336,1,10,0:0:0:0:
270,275,77499,1,2,0:0:0:0:
332,327,77661,2,0,P|380:341|422:355,1,82.5000025177003,10|2,0:0|0:0,0:0:0:0:
495,245,77985,6,0,P|456:257|416:268,1,82.5000025177003,10|2,0:0|0:0,0:0:0:0:
346,224,78309,1,10,0:0:0:0:
397,158,78472,2,0,P|424:146|435:143,2,41.2500012588501,2|0|10,0:0|0:0|0:0,0:0:0:0:
336,102,78796,2,0,P|339:72|343:61,2,41.2500012588501,2|0|10,0:0|0:0|0:0,0:0:0:0:
261,137,79120,1,2,0:0:0:0:
261,137,79201,1,0,0:0:0:0:
261,137,79282,6,0,P|238:156|215:164,3,41.2500012588501,10|2|2|2,0:0|0:0|0:0|0:0,0:0:0:0:
195,186,79607,2,0,P|167:175|148:159,3,41.2500012588501,10|2|2|2,0:0|0:0|0:0|0:0,0:0:0:0:
117,159,79931,2,0,P|112:129|116:105,3,41.2500012588501,10|2|2|2,0:0|0:0|0:0|0:0,0:0:0:0:
133,82,80255,2,0,P|114:57|59:19,1,82.5000025177003,10|2,0:0|0:0,0:0:0:0:
203,41,80580,6,0,P|243:33|289:26,1,82.5000025177003,10|2,0:0|0:0,0:0:0:0:
350,75,80904,1,10,0:0:0:0:
428,50,81066,2,0,P|435:31|441:5,2,41.2500012588501,2|0|10,0:0|0:0|0:0,0:0:0:0:
411,130,81390,2,0,P|418:148|424:175,2,41.2500012588501,2|0|10,0:0|0:0|0:0,0:0:0:0:
338,170,81715,5,2,0:0:0:0:
338,170,81796,1,0,0:0:0:0:
338,170,81877,1,10,0:0:0:0:
320,250,82039,2,0,P|347:258|383:270,4,41.2500012588501,2|2|10|2|2,0:0|0:0|0:0|0:0|0:0,0:0:0:0:
250,294,82526,1,10,0:0:0:0:
189,237,82688,2,0,P|154:245|96:267,1,82.5000025177003,2|10,0:0|0:0,0:0:0:0:
64,329,83012,6,0,B|80:231|79:221|79:221|47:209|34:164,1,165.000005035401,2|2,0:0|0:0,0:0:0:0:
116,148,83499,1,10,0:0:0:0:
68,80,83661,2,0,P|109:70|152:56,1,82.5000025177003,2|8,0:0|0:0,0:0:0:0:
219,17,83985,1,2,0:0:0:0:
277,72,84147,2,0,P|303:112|313:152,1,82.5000025177003,10|2,0:0|0:0,0:0:0:0:
257,215,84472,6,0,P|303:222|361:229,1,82.5000025177003,8|2,0:0|0:0,0:0:0:0:
338,227,84715,1,0,0:0:0:0:
338,227,84796,1,10,0:0:0:0:
398,173,84958,1,2,0:0:0:0:
490,119,85120,2,0,P|483:153|473:219,1,82.5000025177003,10|2,0:0|0:0,0:0:0:0:
420,261,85444,2,0,P|447:302|470:350,1,82.5000025177003,10|2,0:0|0:0,0:0:0:0:
341,277,85769,6,0,P|313:287|243:302,1,82.5000025177003,12|2,0:0|0:0,0:0:0:0:
194,347,86093,1,10,0:0:0:0:
127,297,86255,2,0,P|109:301|69:320,2,41.2500012588501,2|0|10,0:0|0:0|0:0,0:0:0:0:
169,225,86580,2,0,P|186:229|230:234,2,41.2500012588501,2|0|10,0:0|0:0|0:0,0:0:0:0:
97,191,86904,1,2,0:0:0:0:
97,191,86985,1,0,0:0:0:0:
97,191,87066,6,0,P|58:227|21:249,1,82.5000025177003,10|2,0:0|0:0,0:0:0:0:
27,137,87390,2,0,P|17:85|4:38,1,82.5000025177003,10|2,0:0|0:0,0:0:0:0:
9,56,87634,1,2,0:0:0:0:
9,56,87715,1,10,0:0:0:0:
79,15,87877,1,2,0:0:0:0:
147,61,88039,2,0,P|192:70|241:80,1,82.5000025177003,10|2,0:0|0:0,0:0:0:0:
329,123,88363,6,0,P|287:136|252:154,1,82.5000025177003,8|2,0:0|0:0,0:0:0:0:
215,227,88688,1,10,0:0:0:0:
136,201,88850,2,0,P|112:205|82:222,2,41.2500012588501,2|0|10,0:0|0:0|0:0,0:0:0:0:
134,283,89174,2,0,P|120:307|109:341,2,41.2500012588501,2|0|10,0:0|0:0|0:0,0:0:0:0:
217,323,89499,1,2,0:0:0:0:
217,323,89580,1,0,0:0:0:0:
217,323,89661,6,0,P|251:336|270:358,3,41.2500012588501,10|2|2|2,0:0|0:0|0:0|0:0,0:0:0:0:
294,329,89985,2,0,P|328:316|347:294,3,41.2500012588501,10|2|2|2,0:0|0:0|0:0|0:0,0:0:0:0:
371,321,90309,2,0,P|405:334|424:356,3,41.2500012588501,10|2|2|2,0:0|0:0|0:0|0:0,0:0:0:0:
442,312,90634,2,0,P|430:268|410:218,1,82.5000025177003,10|2,0:0|0:0,0:0:0:0:
439,139,90958,6,0,P|402:159|363:170,1,82.5000025177003,8|2,0:0|0:0,0:0:0:0:
285,141,91282,1,10,0:0:0:0:
328,70,91444,2,0,L|345:16,2,41.2500012588501,2|0|10,0:0|0:0|0:0,0:0:0:0:
245,64,91769,2,0,L|262:10,2,41.2500012588501,2|0|10,0:0|0:0|0:0,0:0:0:0:
165,85,92093,1,2,0:0:0:0:
165,85,92174,1,0,0:0:0:0:
165,85,92255,5,10,0:0:0:0:
204,157,92417,2,0,P|218:177|226:206,4,41.2500012588501,2|2|10|2|2,0:0|0:0|0:0|0:0|0:0,0:0:0:0:
140,210,92904,1,10,0:0:0:0:
69,166,93066,2,0,P|55:125|34:80,1,82.5000025177003,2|10,0:0|0:0,0:0:0:0:
91,26,93390,6,0,P|175:39|282:51,1,165.000005035401,10|2,0:0|0:0,0:0:0:0:
321,113,93877,1,2,0:0:0:0:
321,113,93958,1,2,0:0:0:0:
321,113,94039,2,0,B|299:150|299:150|332:270,1,165.000005035401,10|2,0:0|0:0,0:0:0:0:
280,332,94526,1,10,0:0:0:0:
280,332,94607,1,2,0:0:0:0:
280,332,94688,6,0,B|241:282|199:280|199:280|181:319|139:323,1,165.000005035401,2|10,0:0|0:0,0:0:0:0:
75,287,95174,2,0,P|56:249|35:185,1,82.5000025177003,2|2,0:0|0:0,0:0:0:0:
95,147,95499,1,10,0:0:0:0:
170,180,95661,2,0,P|189:176|249:127,1,82.5000025177003,10|2,0:0|0:0,0:0:0:0:
275,66,95985,6,0,P|194:54|103:13,1,150,14|0,0:0|0:0,0:0:0:0:
60,73,96472,1,10,0:0:0:0:
95,147,96634,1,2,0:0:0:0:
26,192,96796,2,0,P|36:248|44:311,1,112.5,10|0,0:0|0:0,0:0:0:0:
35,315,97120,1,10,0:0:0:0:
111,346,97282,1,2,0:0:0:0:
150,273,97444,5,10,0:0:0:0:
205,334,97607,1,2,0:0:0:0:
281,303,97769,1,10,0:0:0:0:
227,241,97931,1,2,0:0:0:0:
150,273,98093,2,0,P|139:233|109:180,1,75,10|0,0:0|0:0,0:0:0:0:
168,133,98417,2,0,P|178:109|194:91,3,37.5,10|2|2|2,0:0|0:0|0:0|0:0,0:0:0:0:
223,84,98742,6,0,P|261:103|308:113,1,75,10|2,0:0|0:0,0:0:0:0:
366,76,99066,2,0,P|387:92|404:111,3,37.5,10|2|2|2,0:0|0:0|0:0|0:0,0:0:0:0:
426,126,99390,2,0,P|422:152|414:176,3,37.5,10|2|2|2,0:0|0:0|0:0|0:0,0:0:0:0:
389,191,99715,1,10,0:0:0:0:
412,270,99877,6,0,P|373:284|315:311,1,75,2|8,0:0|0:0,0:0:0:0:
278,349,100201,1,2,0:0:0:0:
278,349,100282,1,2,0:0:0:0:
278,349,100363,2,0,P|245:330|218:327,3,37.5,10|2|2|2,0:0|0:0|0:0|0:0,0:0:0:0:
208,311,100688,2,0,P|175:330|158:351,3,37.5,10|0|2|0,0:0|1:0|1:0|1:0,0:0:0:0:
134,332,101012,2,0,P|101:312|84:291,3,37.5,10|0|2|0,0:0|1:0|1:0|1:0,0:0:0:0:
60,314,101336,6,0,P|49:272|12:189,1,112.5,10|0,0:0|0:0,0:0:0:0:
9,202,101661,1,10,0:0:0:0:
74,152,101823,1,2,0:0:0:0:
145,192,101985,2,0,B|184:207|184:207|259:166,1,112.5,10|0,0:0|0:0,0:0:0:0:
261,179,102309,1,10,0:0:0:0:
331,221,102472,1,2,0:0:0:0:
393,167,102634,5,10,0:0:0:0:
346,98,102796,2,0,P|328:78|313:62,2,37.5,2|0|10,0:0|0:0|0:0,0:0:0:0:
428,91,103120,1,2,0:0:0:0:
393,167,103282,2,0,P|413:214|425:252,1,75,10|0,0:0|0:0,0:0:0:0:
367,300,103607,2,0,P|346:288|325:286,3,37.5,10|2|2|2,0:0|0:0|0:0|0:0,0:0:0:0:
300,260,103931,6,0,P|284:271|238:293,3,37.5,10|2|2|2,0:0|0:0|0:0|0:0,0:0:0:0:
232,300,104255,2,0,P|214:291|172:262,3,37.5,10|2|2|2,0:0|0:0|0:0|0:0,0:0:0:0:
166,256,104580,2,0,P|131:247|75:236,1,75,10|2,0:0|0:0,0:0:0:0:
31,184,104904,1,10,0:0:0:0:
31,184,104985,1,2,0:0:0:0:
31,184,105066,1,10,0:0:0:0:
31,184,105553,6,0,P|26:142|19:92,1,75,10|2,0:0|0:0,0:0:0:0:
97,77,105877,2,0,P|102:114|106:151,1,75,10|2,0:0|0:0,0:0:0:0:
150,220,106201,1,10,0:0:0:0:
232,227,106363,1,2,0:0:0:0:
251,146,106526,5,10,0:0:0:0:
323,186,106688,2,0,P|331:203|341:231,2,37.5,10|2|10,0:0|0:0|0:0,0:0:0:0:
370,121,107012,1,10,0:0:0:0:
370,121,107093,1,2,0:0:0:0:
370,121,107174,1,14,0:0:0:0:
