osu file format v14

[General]
AudioFilename: audio.mp3
AudioLeadIn: 0
PreviewTime: 54593
Countdown: 0
SampleSet: Soft
StackLeniency: 0.5
Mode: 0
LetterboxInBreaks: 0
WidescreenStoryboard: 0

[Editor]
Bookmarks: 22201,44255,54634,65012,75390,107174
DistanceSpacing: 1.1
BeatDivisor: 4
GridSize: 32
TimelineZoom: 2

[Metadata]
Title:Tantanmen
TitleUnicode:탄탄멘
Artist:Memme
ArtistUnicode:맴매
Creator:Down
Version:Extra
Source:PUMP IT UP XX
Tags:instrumental electronic piu andamiro owc2020 qf hr3
BeatmapID:2689525
BeatmapSetID:1296282

[Difficulty]
HPDrainRate:6.5
CircleSize:4.4
OverallDifficulty:8.5
ApproachRate:9.4
SliderMultiplier:2.5
SliderTickRate:1

[Events]
//Background and Video events
0,0,"bg.jpg",0,0
//Break Periods
//Storyboard Layer 0 (Background)
//Storyboard Layer 1 (Fail)
//Storyboard Layer 2 (Pass)
//Storyboard Layer 3 (Foreground)
//Storyboard Layer 4 (Overlay)
//Storyboard Sound Samples

[TimingPoints]
1445,324.324324324324,4,2,1,60,1,0
1445,-166.666666666667,4,2,1,60,0,0
10526,-100,4,2,1,60,0,0
22363,-133.333333333333,4,2,1,60,0,0
22526,-66.6666666666667,4,2,1,60,0,0
22688,-133.333333333333,4,2,1,60,0,0
22850,-66.6666666666667,4,2,1,60,0,0
23012,-133.333333333333,4,2,1,60,0,0
23174,-66.6666666666667,4,2,1,60,0,0
23336,-133.333333333333,4,2,1,60,0,0
23499,-100,4,2,1,60,0,0
24958,-133.333333333333,4,2,1,60,0,0
25120,-66.6666666666667,4,2,1,60,0,0
25282,-133.333333333333,4,2,1,60,0,0
25444,-66.6666666666667,4,2,1,60,0,0
25607,-133.333333333333,4,2,1,60,0,0
25769,-66.6666666666667,4,2,1,60,0,0
25931,-133.333333333333,4,2,1,60,0,0
26093,-100,4,2,1,60,0,0
27553,-133.333333333333,4,2,1,60,0,0
27715,-66.6666666666667,4,2,1,60,0,0
27877,-133.333333333333,4,2,1,60,0,0
28039,-66.6666666666667,4,2,1,60,0,0
28201,-133.333333333333,4,2,1,60,0,0
28363,-66.6666666666667,4,2,1,60,0,0
28526,-133.333333333333,4,2,1,60,0,0
28850,-100,4,2,1,60,0,0
31444,-200,4,2,1,60,0,0
31931,-100,4,2,1,60,0,0
32742,-133.333333333333,4,2,1,60,0,0
32904,-66.6666666666667,4,2,1,60,0,0
33066,-133.333333333333,4,2,1,60,0,0
33228,-66.6666666666667,4,2,1,60,0,0
33390,-133.333333333333,4,2,1,60,0,0
33553,-66.6666666666667,4,2,1,60,0,0
33715,-133.333333333333,4,2,1,60,0,0
33877,-100,4,2,1,60,0,0
35336,-133.333333333333,4,2,1,60,0,0
35499,-66.6666666666667,4,2,1,60,0,0
35661,-133.333333333333,4,2,1,60,0,0
35823,-66.6666666666667,4,2,1,60,0,0
35985,-133.333333333333,4,2,1,60,0,0
36147,-66.6666666666667,4,2,1,60,0,0
36309,-133.333333333333,4,2,1,60,0,0
36472,-100,4,2,1,60,0,0
37931,-133.333333333333,4,2,1,60,0,0
38093,-66.6666666666667,4,2,1,60,0,0
38255,-133.333333333333,4,2,1,60,0,0
38417,-66.6666666666667,4,2,1,60,0,0
38580,-133.333333333333,4,2,1,60,0,0
38742,-66.6666666666667,4,2,1,60,0,0
38904,-133.333333333333,4,2,1,60,0,0
39066,-100,4,2,1,60,0,0
43607,-166.666666666667,4,2,1,60,0,0
48147,-66.6666666666667,4,2,1,60,0,0
48472,-76.9230769230769,4,2,1,60,0,0
48796,-90.9090909090909,4,2,1,60,0,0
49120,-100,4,2,1,60,0,0
65012,-250,4,2,1,60,0,0
74742,-100,4,2,1,60,0,0
75390,-100,4,2,1,60,0,1
75715,-66.6666666666667,4,2,1,60,0,1
76688,-100,4,2,1,60,0,1
78309,-66.6666666666667,4,2,1,60,0,1
79282,-100,4,2,1,60,0,1
80904,-66.6666666666667,4,2,1,60,0,1
81877,-100,4,2,1,60,0,1
86093,-66.6666666666667,4,2,1,60,0,1
87066,-100,4,2,1,60,0,1
88688,-66.6666666666667,4,2,1,60,0,1
89661,-100,4,2,1,60,0,1
91282,-66.6666666666667,4,2,1,60,0,1
92255,-100,4,2,1,60,0,1
96147,-100,4,2,1,60,0,0

[Colours]
Combo1 : 247,242,159
Combo2 : 252,101,105

[HitObjects]
166,55,1120,5,2,0:0:0:0:
166,55,1282,1,2,0:0:0:0:
219,111,1445,6,0,P|191:191|190:277,1,149.999995422363,6|0,0:0|0:0,0:0:0:0:
316,344,1931,2,0,L|306:403,2,37.4999988555909,2|0|2,0:0|0:0|0:0,0:0:0:0:
253,300,2255,1,2,0:0:0:0:
393,231,2417,2,0,P|388:191|365:142,1,74.9999977111817,2|2,0:0|0:0,0:0:0:0:
450,36,2742,6,0,L|427:139,1,74.9999977111817,2|2,0:0|0:0,0:0:0:0:
325,47,3066,2,0,L|302:150,1,74.9999977111817,2|2,0:0|0:0,0:0:0:0:
378,262,3390,2,0,B|356:226|356:226|377:149,1,112.499996566773,2|0,0:0|0:0,0:0:0:0:
390,149,3715,1,2,0:0:0:0:
280,243,3877,1,2,0:0:0:0:
205,95,4039,6,0,P|231:149|233:184,1,74.9999977111817,2|0,0:0|0:0,0:0:0:0:
232,176,4282,1,0,0:0:0:0:
225,187,4363,1,2,0:0:0:0:
280,243,4526,1,2,0:0:0:0:
177,351,4688,2,0,P|161:288|183:220,1,112.499996566773,2|0,0:0|0:0,0:0:0:0:
159,230,5012,2,0,L|66:247,1,74.9999977111817,2|2,0:0|0:0,0:0:0:0:
227,98,5336,6,0,P|197:147|194:185,1,74.9999977111817,2|0,0:0|0:0,0:0:0:0:
310,293,5661,2,0,P|254:279|225:254,1,74.9999977111817,2|2,0:0|0:0,0:0:0:0:
52,308,5985,2,0,P|106:234|164:231,1,149.999995422363,2|0,0:0|0:0,0:0:0:0:
50,175,6472,1,0,0:0:0:0:
39,168,6553,1,0,0:0:0:0:
30,160,6634,6,0,P|30:108|134:84,1,149.999995422363,2|0,0:0|0:0,0:0:0:0:
158,229,7120,2,0,L|141:291,2,37.4999988555909,2|0|2,0:0|0:0|0:0,0:0:0:0:
181,154,7444,1,2,0:0:0:0:
220,8,7607,2,0,L|199:95,1,74.9999977111817,2|2,0:0|0:0,0:0:0:0:
105,171,7931,5,2,0:0:0:0:
181,154,8093,1,2,0:0:0:0:
193,156,8174,1,0,0:0:0:0:
203,163,8255,1,2,0:0:0:0:
244,229,8417,1,2,0:0:0:0:
159,335,8580,6,0,P|143:280|174:208,1,112.499996566773,2|0,0:0|0:0,0:0:0:0:
147,216,8904,2,0,L|50:229,1,74.9999977111817,2|2,0:0|0:0,0:0:0:0:
174,342,9228,6,0,L|305:323,1,112.499996566773,2|0,0:0|0:0,0:0:0:0:
302,332,9553,1,2,0:0:0:0:
400,226,9715,1,2,0:0:0:0:
391,234,9796,1,0,0:0:0:0:
382,242,9877,2,0,B|376:304|376:304|415:360,1,112.499996566773,2|0,0:0|0:0,0:0:0:0:
422,351,10201,1,2,0:0:0:0:
304,251,10363,1,2,0:0:0:0:
456,172,10526,5,2,0:0:0:0:
341,60,10769,1,0,1:0:0:0:
341,60,10850,1,2,1:0:0:0:
456,172,11012,1,0,1:0:0:0:
456,172,11093,1,0,1:0:0:0:
456,172,11174,2,0,P|438:214|437:271,1,62.5,2|0,1:0|0:0,0:0:0:0:
404,345,11336,2,0,P|397:314|383:286,1,62.5
286,213,11499,5,2,0:0:0:0:
474,298,11661,1,2,0:0:0:0:
261,286,11823,6,0,P|254:219|346:111,1,187.5,14|0,0:0|0:0,0:0:0:0:
396,121,12147,2,0,P|386:89|340:48,1,62.5,10|0,0:0|0:0,0:0:0:0:
205,41,12309,2,0,P|186:65|177:95,1,62.5,2|0,0:0|0:0,0:0:0:0:
318,123,12472,6,0,B|216:111|253:186|139:168,1,187.5,10|0,0:0|0:0,0:0:0:0:
74,144,12796,2,0,P|68:174|77:204,1,62.5,10|0,0:0|0:0,0:0:0:0:
177,95,12958,2,0,P|169:64|149:41,1,62.5,2|0,0:0|0:0,0:0:0:0:
73,18,13120,5,10,0:0:0:0:
18,72,13282,1,2,0:0:0:0:
11,84,13363,1,0,0:0:0:0:
11,99,13444,1,10,0:0:0:0:
77,204,13607,1,2,0:0:0:0:
245,131,13769,5,10,0:0:0:0:
166,33,13931,2,0,P|177:73|181:118,1,62.5
298,185,14093,5,10,0:0:0:0:
377,87,14255,2,0,P|366:127|362:172,1,62.5
251,244,14417,5,10,0:0:0:0:
177,218,14580,1,0,0:0:0:0:
170,230,14661,1,0,0:0:0:0:
170,245,14742,1,8,0:0:0:0:
79,280,14904,2,0,P|112:308|159:301,1,62.5
251,244,15066,5,10,0:0:0:0:
129,310,15228,2,0,P|72:314|31:379,1,125,0|8,0:0|0:0,0:0:0:0:
234,367,15553,6,0,L|250:244,1,125,2|8,0:0|0:0,0:0:0:0:
242,234,15796,1,0,0:0:0:0:
233,226,15877,1,2,0:0:0:0:
374,345,16039,2,0,L|345:259,1,62.5,10|0,0:0|0:0,0:0:0:0:
325,214,16201,1,2,0:0:0:0:
428,81,16363,5,10,0:0:0:0:
274,34,16526,2,0,L|211:14,2,62.5,0|0|8,1:0|1:0|0:0,1:0:0:0:
356,49,16850,1,0,1:0:0:0:
349,61,16931,1,0,1:0:0:0:
349,76,17012,6,0,B|318:184|393:148|355:271,1,187.5,14|0,0:0|0:0,0:0:0:0:
373,332,17336,2,0,P|328:326|287:289,1,62.5,10|0,0:0|0:0,0:0:0:0:
143,163,17499,2,0,P|131:191|130:223,1,62.5,2|0,0:0|0:0,0:0:0:0:
358,257,17661,6,0,P|305:197|191:221,1,187.5,10|0,0:0|0:0,0:0:0:0:
129,222,17985,2,0,P|142:249|165:270,1,62.5,10|0,0:0|0:0,0:0:0:0:
289,374,18147,2,0,P|295:343|313:317,1,62.5,2|0,0:0|0:0,0:0:0:0:
358,257,18309,5,10,0:0:0:0:
413,202,18472,1,2,0:0:0:0:
413,187,18553,1,0,0:0:0:0:
406,175,18634,1,10,0:0:0:0:
287,105,18796,1,2,0:0:0:0:
129,222,18958,5,10,0:0:0:0:
80,109,19120,2,0,P|75:155|71:197,1,62.5
186,273,19282,5,10,0:0:0:0:
235,160,19444,2,0,P|240:206|244:248,1,62.5,2|0,0:0|0:0,0:0:0:0:
136,331,19607,5,10,0:0:0:0:
57,329,19769,1,0,0:0:0:0:
57,314,19850,1,0,0:0:0:0:
64,302,19931,1,8,0:0:0:0:
0,244,20093,2,0,P|44:227|84:233,1,62.5,2|0,0:0|0:0,0:0:0:0:
136,331,20255,5,10,0:0:0:0:
58,227,20417,2,0,P|66:181|84:147,1,62.5
127,113,20580,5,10,0:0:0:0:
0,45,20742,1,10,0:0:0:0:
0,45,21066,5,2,0:0:0:0:
1,51,21147,1,0,0:0:0:0:
3,58,21228,1,2,0:0:0:0:
4,65,21309,1,0,0:0:0:0:
6,72,21390,1,2,0:0:0:0:
7,78,21471,1,0,0:0:0:0:
9,85,21553,5,2,1:0:0:0:
46,58,21634,1,0,0:0:0:0:
92,54,21715,1,2,1:0:0:0:
134,73,21796,1,0,1:0:0:0:
160,112,21877,1,2,1:0:0:0:
183,152,21958,1,0,0:0:0:0:
223,176,22039,1,2,0:0:0:0:
269,178,22120,1,0,0:0:0:0:
311,158,22201,5,14,0:0:0:0:
425,255,22363,2,0,L|413:331,1,46.8750017881394,2|0,0:0|0:0,0:0:0:0:
342,311,22526,6,0,L|358:212,1,93.7500035762788,10|0,0:0|0:0,0:0:0:0:
351,56,22688,6,0,L|365:119,1,46.8750017881394,2|0,0:0|0:0,0:0:0:0:
311,158,22850,6,0,L|164:128,1,93.7500035762788,10|0,0:0|0:0,0:0:0:0:
47,72,23012,6,0,L|113:52,1,46.8750017881394,2|0,0:0|0:0,0:0:0:0:
164,83,23174,6,0,B|141:128|141:128|149:184,1,93.7500035762788,10|0,0:0|0:0,0:0:0:0:
256,278,23336,6,0,L|244:217,1,46.8750017881394,2|0,0:0|0:0,0:0:0:0:
230,155,23499,5,10,0:0:0:0:
248,149,23580,1,2,0:0:0:0:
248,130,23661,1,2,0:0:0:0:
230,124,23742,1,2,0:0:0:0:
219,139,23823,1,10,0:0:0:0:
326,178,23985,5,10,0:0:0:0:
338,171,24066,1,2,0:0:0:0:
345,158,24147,1,2,1:0:0:0:
337,33,24309,1,10,0:0:0:0:
326,178,24472,6,0,L|346:267,1,62.5,2|2,1:0|0:0,0:0:0:0:
361,311,24634,2,0,L|381:400,1,62.5,2|0,1:0|0:0,0:0:0:0:
414,253,24796,5,8,0:0:0:0:
284,291,24958,2,0,L|217:278,1,46.8750017881394,2|0,0:0|0:0,0:0:0:0:
189,223,25120,6,0,P|199:178|232:145,1,93.7500035762788,10|0,0:0|0:0,0:0:0:0:
350,104,25282,6,0,L|283:91,1,46.8750017881394,2|0,0:0|0:0,0:0:0:0:
197,61,25444,6,0,P|225:99|232:145,1,93.7500035762788,10|0,0:0|0:0,0:0:0:0:
71,201,25607,6,0,L|126:192,1,46.8750017881394,2|0,0:0|0:0,0:0:0:0:
189,223,25769,6,0,L|219:320,1,93.7500035762788,10|0,0:0|0:0,0:0:0:0:
312,370,25931,6,0,L|293:318,1,46.8750017881394,2|0,0:0|0:0,0:0:0:0:
362,271,26093,5,10,0:0:0:0:
348,266,26174,1,2,0:0:0:0:
348,252,26255,1,2,0:0:0:0:
362,248,26336,1,2,0:0:0:0:
370,259,26417,1,10,0:0:0:0:
442,297,26580,5,10,0:0:0:0:
448,284,26661,1,2,0:0:0:0:
448,270,26742,5,2,1:0:0:0:
423,289,26823,1,2,0:0:0:0:
421,320,26904,1,10,0:0:0:0:
436,348,26985,1,2,0:0:0:0:
462,365,27066,6,0,L|374:352,1,62.5,2|0,1:0|0:0,0:0:0:0:
324,347,27228,2,0,L|236:334,1,62.5,2|0,1:0|0:0,0:0:0:0:
208,284,27390,5,8,0:0:0:0:
359,241,27553,2,0,L|378:316,1,46.8750017881394,2|0,0:0|0:0,0:0:0:0:
449,291,27715,6,0,L|424:190,1,93.7500035762788,10|0,0:0|0:0,0:0:0:0:
340,72,27877,6,0,L|266:61,1,46.8750017881394,2|0,0:0|0:0,0:0:0:0:
266,225,28039,6,0,L|376:243,1,93.7500035762788,10|0,0:0|0:0,0:0:0:0:
426,121,28201,6,0,L|414:61,1,46.8750017881394,2|0,0:0|0:0,0:0:0:0:
340,72,28363,6,0,L|359:177,1,93.7500035762788,10|0,0:0|0:0,0:0:0:0:
359,314,28526,6,0,L|345:379,1,46.8750017881394,2|0,0:0|0:0,0:0:0:0:
266,225,28688,5,10,0:0:0:0:
193,254,28850,5,2,0:0:0:0:
187,241,28931,1,2,0:0:0:0:
187,227,29012,1,10,0:0:0:0:
136,104,29174,2,0,P|145:137|138:173,1,62.5,2|0,0:0|0:0,0:0:0:0:
59,91,29336,6,0,P|102:33|193:46,1,125,10|0,0:0|1:0,0:0:0:0:
164,29,29580,1,0,1:0:0:0:
176,36,29661,1,10,0:0:0:0:
359,180,29823,6,0,L|527:146,1,125,2|8,0:0|0:0,0:0:0:0:
290,138,30147,1,2,0:0:0:0:
213,121,30309,1,10,0:0:0:0:
136,104,30472,1,2,0:0:0:0:
336,76,30634,5,10,0:0:0:0:
155,180,30796,1,2,0:0:0:0:
136,104,30958,1,10,0:0:0:0:
117,28,31120,1,10,0:0:0:0:
117,28,31444,6,0,L|34:13,2,62.5,2|2|2,0:0|1:0|1:0,0:0:0:0:
196,46,31931,5,2,1:0:0:0:
206,40,32012,1,2,1:0:0:0:
217,37,32093,2,0,P|212:87|178:131,1,62.5,0|0,1:0|0:0,0:0:0:0:
319,274,32255,1,2,1:0:0:0:
309,280,32336,1,2,1:0:0:0:
298,283,32417,2,0,P|302:232|336:188,1,62.5,0|0,1:0|0:0,0:0:0:0:
257,161,32580,5,12,0:0:0:0:
364,339,32742,2,0,L|425:327,1,46.8750017881394,2|0,0:0|0:0,0:0:0:0:
470,285,32904,6,0,L|487:192,1,93.7500035762788,10|0,0:0|0:0,0:0:0:0:
487,85,33066,6,0,L|426:97,1,46.8750017881394,2|0,0:0|0:0,0:0:0:0:
371,129,33228,6,0,L|352:27,1,93.7500035762788,10|0,0:0|0:0,0:0:0:0:
184,16,33390,6,0,L|170:85,1,46.8750017881394,2|0,0:0|0:0,0:0:0:0:
152,139,33553,6,0,L|293:112,1,93.7500035762788,10|0,0:0|0:0,0:0:0:0:
305,168,33715,6,0,L|291:237,1,46.8750017881394,2|0,0:0|0:0,0:0:0:0:
188,286,33877,5,10,0:0:0:0:
174,254,33958,1,2,0:0:0:0:
148,231,34039,1,2,0:0:0:0:
115,220,34120,1,2,0:0:0:0:
80,225,34201,2,0,P|60:196|57:151,1,62.5,10|0,0:0|0:0,0:0:0:0:
72,352,34363,2,0,P|87:320|124:295,1,62.5,2|0,0:0|0:0,0:0:0:0:
255,260,34526,6,0,P|289:266|323:296,1,62.5,10|0,0:0|0:0,0:0:0:0:
357,345,34688,1,2,0:0:0:0:
174,254,34850,1,10,0:0:0:0:
174,239,34931,1,2,0:0:0:0:
181,227,35012,1,2,0:0:0:0:
333,67,35174,5,8,0:0:0:0:
446,224,35336,6,0,L|460:143,1,46.8750017881394,2|0,0:0|0:0,0:0:0:0:
487,92,35499,6,0,L|350:129,1,93.7500035762788,10|0,0:0|0:0,0:0:0:0:
282,10,35661,6,0,L|296:91,1,46.8750017881394,2|0,0:0|0:0,0:0:0:0:
324,143,35823,6,0,L|187:106,1,93.7500035762788,10|0,0:0|0:0,0:0:0:0:
118,234,35985,6,0,L|132:153,1,46.8750017881394,2|0,0:0|0:0,0:0:0:0:
159,100,36147,6,0,L|22:137,1,93.7500035762788,10|0,0:0|0:0,0:0:0:0:
111,314,36309,6,0,L|170:296,1,46.8750017881394,2|0,0:0|0:0,0:0:0:0:
258,335,36472,5,10,0:0:0:0:
272,303,36553,1,2,0:0:0:0:
298,280,36634,1,2,0:0:0:0:
331,269,36715,1,2,0:0:0:0:
366,274,36796,2,0,P|386:245|389:200,1,62.5,10|0,0:0|0:0,0:0:0:0:
338,41,36958,5,2,1:0:0:0:
315,67,37039,1,0,1:0:0:0:
306,101,37120,1,10,0:0:0:0:
313,135,37201,1,0,0:0:0:0:
338,160,37282,2,0,P|378:144|433:136,1,62.5,2|0,1:0|1:0,0:0:0:0:
489,336,37444,6,0,P|449:320|394:312,1,62.5,10|0,0:0|0:0,0:0:0:0:
338,160,37607,2,0,P|351:198|347:249,1,62.5,2|0,1:0|0:0,0:0:0:0:
354,296,37769,5,10,0:0:0:0:
199,353,37931,2,0,P|207:325|207:290,1,46.8750017881394,2|0,0:0|0:0,0:0:0:0:
131,142,38093,6,0,P|101:177|96:223,1,93.7500035762788,10|0,0:0|0:0,0:0:0:0:
129,317,38255,6,0,P|111:331|88:336,1,46.8750017881394,2|0,0:0|0:0,0:0:0:0:
23,266,38417,6,0,P|50:229|96:223,1,93.7500035762788,10|0,0:0|0:0,0:0:0:0:
214,230,38580,6,0,P|191:223|175:206,1,46.8750017881394,2|0,0:0|0:0,0:0:0:0:
207,131,38742,6,0,P|260:149|272:213,1,93.7500035762788,10|0,0:0|0:0,0:0:0:0:
282,334,38904,6,0,P|317:324|347:317,1,46.8750017881394,2|0,0:0|0:0,0:0:0:0:
390,275,39066,5,10,0:0:0:0:
362,120,39228,1,2,0:0:0:0:
362,105,39309,1,2,0:0:0:0:
369,93,39390,5,10,0:0:0:0:
391,114,39471,1,2,0:0:0:0:
403,143,39552,1,2,0:0:0:0:
402,173,39633,1,2,0:0:0:0:
389,202,39714,1,10,0:0:0:0:
331,24,39877,5,2,1:0:0:0:
343,16,39958,1,0,1:0:0:0:
357,16,40039,1,10,0:0:0:0:
286,86,40201,1,2,0:0:0:0:
146,16,40363,6,0,P|160:73|103:129,1,125,10|0,0:0|0:0,0:0:0:0:
47,105,40607,1,0,0:0:0:0:
47,105,40688,2,0,P|48:145|75:186,1,62.5,10|0,0:0|0:0,0:0:0:0:
178,228,40850,2,0,P|166:266|129:298,1,62.5,2|0,0:0|0:0,0:0:0:0:
37,246,41012,6,0,P|83:234|124:220,1,62.5,10|0,0:0|0:0,0:0:0:0:
226,169,41174,1,2,0:0:0:0:
238,175,41255,1,0,0:0:0:0:
245,187,41336,1,10,0:0:0:0:
209,361,41499,6,0,P|246:305|310:306,1,125,10|0,0:0|0:0,0:0:0:0:
393,287,41823,1,2,0:0:0:0:
402,118,41985,2,0,P|378:161|395:209,1,62.5,10|0,0:0|0:0,0:0:0:0:
300,188,42147,2,0,P|325:230|375:239,1,62.5,2|0,0:0|0:0,0:0:0:0:
499,326,42309,6,0,P|456:285|375:301,1,125,10|0,0:0|0:0,0:0:0:0:
382,296,42553,1,0,0:0:0:0:
373,307,42634,1,10,0:0:0:0:
499,326,42796,6,0,B|485:262|485:262|448:226|448:226|433:140,1,187.5,10|0,0:0|0:0,0:0:0:0:
443,142,43120,1,0,0:0:0:0:
416,304,43282,1,8,0:0:0:0:
287,203,43444,1,0,0:0:0:0:
389,223,43607,5,8,0:0:0:0:
389,223,43688,1,0,0:0:0:0:
389,223,43769,1,8,0:0:0:0:
202,152,43931,2,0,L|191:86,2,37.4999988555909,2|0|2,1:0|1:0|1:0,1:0:0:0:
69,323,44255,5,14,0:0:0:0:
121,144,44417,1,0,0:0:0:0:
139,284,44580,5,10,0:0:0:0:
56,187,44742,1,0,0:0:0:0:
208,325,44904,5,10,0:0:0:0:
185,222,45066,1,0,0:0:0:0:
275,126,45228,5,10,0:0:0:0:
261,199,45390,1,0,0:0:0:0:
464,237,45553,5,10,0:0:0:0:
326,313,45715,1,2,0:0:0:0:
204,268,45877,1,10,0:0:0:0:
165,190,46039,1,2,0:0:0:0:
189,118,46201,1,10,0:0:0:0:
139,12,46363,5,0,0:0:0:0:
139,12,46444,1,0,0:0:0:0:
139,12,46526,1,10,0:0:0:0:
189,118,46688,1,2,0:0:0:0:
28,75,46850,5,10,0:0:0:0:
227,50,47012,1,0,0:0:0:0:
68,266,47174,5,10,0:0:0:0:
92,120,47336,1,0,0:0:0:0:
137,302,47499,5,10,0:0:0:0:
35,196,47661,1,0,0:0:0:0:
162,87,47823,5,10,0:0:0:0:
92,120,47985,1,0,0:0:0:0:
331,125,48147,5,10,0:0:0:0:
331,125,48228,1,0,0:0:0:0:
331,125,48309,2,0,P|330:80|271:18,1,93.7500035762788,2|0,0:0|0:0,0:0:0:0:
267,178,48472,5,10,0:0:0:0:
267,178,48553,1,0,0:0:0:0:
267,178,48634,2,0,P|227:156|161:169,1,81.2499962806703,2|0,0:0|0:0,0:0:0:0:
300,255,48796,5,10,0:0:0:0:
300,255,48877,1,0,0:0:0:0:
300,255,48958,2,0,P|261:278|238:324,1,68.7500020980836,0|0,1:0|1:0,1:0:0:0:
383,274,49120,6,0,P|381:307|410:350,1,62.5,8|0,0:0|0:0,0:0:0:0:
502,245,49282,2,0,P|471:240|445:223,1,62.5,0|0,1:0|0:0,0:0:0:0:
392,164,49444,5,14,0:0:0:0:
471,352,49607,1,0,0:0:0:0:
318,195,49769,5,10,0:0:0:0:
276,339,49931,1,0,0:0:0:0:
168,206,50093,5,10,0:0:0:0:
202,316,50255,1,0,0:0:0:0:
93,175,50417,5,10,0:0:0:0:
160,132,50580,1,0,0:0:0:0:
130,292,50742,5,10,0:0:0:0:
268,368,50904,1,2,0:0:0:0:
390,323,51066,1,10,0:0:0:0:
429,245,51228,1,2,0:0:0:0:
405,173,51390,1,10,0:0:0:0:
336,53,51553,5,0,0:0:0:0:
336,53,51634,1,0,0:0:0:0:
336,53,51715,1,10,0:0:0:0:
405,173,51877,6,0,P|390:125|448:69,1,125,10|0,0:0|0:0,0:0:0:0:
405,173,52201,2,0,P|385:198|327:208,1,62.5,2|2,0:0|0:0,0:0:0:0:
288,175,52363,2,0,P|248:122|166:123,1,125,10|0,0:0|0:0,0:0:0:0:
138,65,52607,1,0,0:0:0:0:
138,65,52688,6,0,P|116:107|140:157,1,62.5,10|0,0:0|0:0,0:0:0:0:
183,253,52850,1,2,0:0:0:0:
59,174,53012,1,10,0:0:0:0:
193,112,53174,1,2,0:0:0:0:
48,253,53336,6,0,P|87:245|128:222,1,62.5,10|0,0:0|0:0,0:0:0:0:
168,313,53499,2,0,P|180:275|181:228,1,62.5,10|0,0:0|0:0,0:0:0:0:
52,139,53661,6,0,P|91:147|132:170,1,62.5,10|0,0:0|0:0,0:0:0:0:
172,79,53824,2,0,P|184:116|185:163,1,62.5,10|0,0:0|0:0,0:0:0:0:
243,197,53985,5,10,0:0:0:0:
283,266,54147,1,0,1:0:0:0:
290,278,54228,1,0,1:0:0:0:
302,285,54309,1,2,1:0:0:0:
447,241,54472,1,2,0:0:0:0:
492,68,54634,6,0,P|416:89|416:216,1,187.5,14|0,0:0|0:0,0:0:0:0:
447,241,54958,2,0,P|416:258|359:251,1,62.5,10|0,0:0|0:0,0:0:0:0:
222,54,55120,2,0,P|246:72|262:99,1,62.5,2|0,0:0|0:0,0:0:0:0:
394,185,55282,6,0,B|406:122|337:90|337:90|342:133|307:161,1,187.5,10|0,0:0|0:0,0:0:0:0:
247,173,55607,2,0,P|231:210|242:258,1,62.5,10|0,0:0|0:0,0:0:0:0:
347,347,55769,2,0,P|306:342|270:308,1,62.5,2|0,0:0|0:0,0:0:0:0:
215,307,55931,5,10,0:0:0:0:
152,354,56093,1,2,0:0:0:0:
138,357,56174,1,0,0:0:0:0:
123,353,56255,1,10,0:0:0:0:
48,254,56417,1,2,0:0:0:0:
247,173,56580,5,10,0:0:0:0:
164,71,56742,2,0,P|185:108|182:160,1,62.5
305,224,56904,5,10,0:0:0:0:
388,122,57066,2,0,P|367:159|370:211,1,62.5
255,283,57228,5,10,0:0:0:0:
182,256,57390,1,0,0:0:0:0:
175,268,57471,1,0,0:0:0:0:
175,283,57552,1,8,0:0:0:0:
286,166,57715,2,0,P|302:193|305:224,1,62.5
255,283,57877,5,10,0:0:0:0:
286,166,58039,2,0,P|260:122|310:40,1,125,0|8,0:0|0:0,0:0:0:0:
420,220,58363,6,0,L|395:346,1,125,2|8,0:0|0:0,0:0:0:0:
385,348,58607,1,0,0:0:0:0:
375,354,58688,1,2,0:0:0:0:
286,166,58850,2,0,L|370:152,1,62.5,10|0,0:0|0:0,0:0:0:0:
426,143,59012,1,2,0:0:0:0:
227,12,59174,5,10,0:0:0:0:
208,177,59336,2,0,L|194:270,2,62.5,0|0|8,1:0|1:0|0:0,0:0:0:0:
233,93,59661,1,0,1:0:0:0:
219,96,59742,1,0,1:0:0:0:
205,92,59823,6,0,P|128:118|85:25,1,187.5,14|0,0:0|0:0,0:0:0:0:
16,1,60147,2,0,P|5:44|21:85,1,62.5,10|0,0:0|0:0,0:0:0:0:
15,230,60309,2,0,P|4:187|20:146,1,62.5,2|0,0:0|0:0,0:0:0:0:
80,39,60472,6,0,P|115:160|74:196,1,187.5,10|0,0:0|0:0,0:0:0:0:
15,230,60796,2,0,P|36:252|64:264,1,62.5,10|0,0:0|0:0,0:0:0:0:
256,235,60958,2,0,P|234:257|206:269,1,62.5,2|0,0:0|0:0,0:0:0:0:
135,305,61120,5,10,0:0:0:0:
141,227,61282,1,2,0:0:0:0:
147,213,61363,1,0,0:0:0:0:
158,206,61444,1,10,0:0:0:0:
95,93,61607,1,2,0:0:0:0:
205,269,61769,5,10,0:0:0:0:
127,366,61931,2,0,P|130:331|147:290,1,62.5
251,208,62093,5,10,0:0:0:0:
329,305,62255,2,0,P|326:270|309:229,1,62.5,2|0,0:0|0:0,0:0:0:0:
202,149,62417,5,10,0:0:0:0:
124,149,62580,1,0,0:0:0:0:
124,134,62661,1,0,0:0:0:0:
131,122,62742,1,8,0:0:0:0:
307,70,62904,6,0,P|276:74|250:91,1,62.5,2|0,0:0|0:0,0:0:0:0:
202,149,63066,5,10,0:0:0:0:
307,70,63228,2,0,P|350:77|386:102,1,62.5
434,126,63390,5,10,0:0:0:0:
361,269,63553,1,10,0:0:0:0:
361,269,63877,5,2,0:0:0:0:
360,263,63958,1,0,0:0:0:0:
358,256,64039,1,2,0:0:0:0:
357,249,64120,1,0,0:0:0:0:
355,242,64201,1,2,0:0:0:0:
354,236,64282,1,0,0:0:0:0:
352,229,64364,5,2,1:0:0:0:
315,256,64445,1,0,1:0:0:0:
269,260,64526,1,2,1:0:0:0:
227,241,64607,1,0,1:0:0:0:
201,202,64688,1,0,0:0:0:0:
178,162,64769,1,0,0:0:0:0:
138,138,64850,1,0,0:0:0:0:
92,136,64931,1,0,0:0:0:0:
50,156,65012,6,0,P|63:249|68:311,1,150,14|2,0:0|0:0,0:0:0:0:
132,350,65661,2,0,P|143:321|143:289,1,50,2|2,1:0|0:0,0:0:0:0:
67,304,65985,1,2,0:0:0:0:
214,349,66147,1,10,0:0:0:0:
339,228,66309,6,0,P|339:198|331:175,1,50,2|2,0:0|0:0,0:0:0:0:
190,184,66634,2,0,P|183:207|184:232,1,50,10|2,0:0|0:0,0:0:0:0:
262,208,66958,2,0,P|265:154|255:89,1,100,2|2,1:0|0:0,0:0:0:0:
208,51,67444,1,2,0:0:0:0:
373,77,67607,6,0,P|423:39|479:47,1,100,10|2,0:0|0:0,0:0:0:0:
442,115,68093,1,2,0:0:0:0:
373,77,68255,6,0,P|323:39|267:47,1,100,2|2,1:0|0:0,0:0:0:0:
305,115,68742,1,10,0:0:0:0:
350,281,68904,6,0,P|401:256|408:217,1,100,2|10,0:0|0:0,0:0:0:0:
374,151,69390,1,2,0:0:0:0:
277,186,69553,6,0,P|206:172|191:90,1,150,2|0,1:0|0:0,0:0:0:0:
412,63,70201,6,0,P|387:155|382:226,1,150,10|2,0:0|0:0,0:0:0:0:
413,277,70850,2,0,P|434:264|449:244,1,50,2|2,1:0|0:0,0:0:0:0:
382,209,71174,1,2,0:0:0:0:
486,323,71336,1,10,0:0:0:0:
288,268,71499,5,2,0:0:0:0:
346,317,71661,2,0,L|338:353,2,25,2|0|10,0:0|0:0|0:0,0:0:0:0:
413,277,71985,1,2,0:0:0:0:
338,126,72147,2,0,L|355:229,1,100,2|2,1:0|0:0,0:0:0:0:
288,268,72634,1,2,0:0:0:0:
415,122,72796,5,10,0:0:0:0:
338,126,72958,2,0,L|344:90,2,25,0|0|2,0:0|0:0|0:0,0:0:0:0:
262,104,73282,1,2,0:0:0:0:
58,263,73444,5,2,1:0:0:0:
135,267,73607,1,0,0:0:0:0:
133,256,73688,1,0,0:0:0:0:
131,245,73769,1,2,0:0:0:0:
211,245,73931,1,2,0:0:0:0:
240,176,74093,5,2,1:0:0:0:
361,316,74336,1,0,1:0:0:0:
361,316,74417,1,2,1:0:0:0:
240,176,74580,1,0,0:0:0:0:
240,176,74661,1,0,0:0:0:0:
240,176,74742,2,0,P|240:137|258:100,1,62.5,2|0,1:0|0:0,0:0:0:0:
172,13,74904,2,0,P|181:42|179:73,1,62.5,0|0,1:0|0:0,0:0:0:0:
318,156,75066,1,8,0:0:0:0:
318,156,75390,5,12,0:0:0:0:
149,201,75553,2,0,P|125:228|142:282,1,62.5,2|0,0:0|0:0,0:0:0:0:
195,346,75715,6,0,P|210:302|190:247,1,93.7500035762788,10|0,0:0|0:0,0:0:0:0:
66,183,75877,1,2,0:0:0:0:
66,183,75958,1,0,0:0:0:0:
51,198,76039,6,0,P|36:154|56:99,1,93.7500035762788,10|0,0:0|0:0,0:0:0:0:
229,120,76201,1,2,0:0:0:0:
229,120,76282,1,0,0:0:0:0:
244,135,76363,6,0,P|259:91|239:36,1,93.7500035762788,10|0,0:0|0:0,0:0:0:0:
72,22,76526,1,2,0:0:0:0:
72,22,76607,1,0,0:0:0:0:
56,35,76688,5,10,0:0:0:0:
86,43,76769,1,2,0:0:0:0:
117,43,76850,1,2,0:0:0:0:
147,34,76931,1,2,0:0:0:0:
173,17,77012,2,0,P|131:98|141:149,1,125,8|2,0:0|0:0,0:0:0:0:
132,209,77255,1,2,0:0:0:0:
132,209,77336,2,0,P|145:235|121:314,1,62.5,10|0,0:0|0:0,0:0:0:0:
6,221,77499,6,0,P|58:181|86:184,1,62.5,2|0,0:0|0:0,0:0:0:0:
77,108,77661,2,0,P|137:133|149:158,1,62.5,10|0,0:0|0:0,0:0:0:0:
211,129,77823,2,0,P|219:194|203:216,1,62.5,2|0,0:0|0:0,0:0:0:0:
146,267,77985,5,10,0:0:0:0:
364,356,78147,2,0,P|359:307|320:273,1,62.5,2|0,0:0|0:0,0:0:0:0:
197,324,78309,6,0,L|323:346,1,93.7500035762788,10|0,0:0|0:0,0:0:0:0:
479,207,78472,1,2,0:0:0:0:
479,207,78553,1,0,0:0:0:0:
496,221,78634,6,0,L|370:243,1,93.7500035762788,10|0,0:0|0:0,0:0:0:0:
224,96,78796,1,2,0:0:0:0:
224,96,78877,1,0,0:0:0:0:
207,110,78958,6,0,L|333:132,1,93.7500035762788,10|0,0:0|0:0,0:0:0:0:
475,22,79120,1,2,0:0:0:0:
475,22,79201,1,0,0:0:0:0:
495,34,79282,5,10,0:0:0:0:
468,72,79363,1,2,0:0:0:0:
426,91,79444,1,2,0:0:0:0:
380,86,79526,1,2,0:0:0:0:
343,58,79607,5,10,0:0:0:0:
346,51,79688,1,2,0:0:0:0:
350,44,79769,1,2,0:0:0:0:
354,37,79850,1,2,0:0:0:0:
357,30,79931,5,10,0:0:0:0:
385,66,80012,1,2,0:0:0:0:
396,111,80093,1,2,0:0:0:0:
387,157,80174,1,2,0:0:0:0:
360,195,80255,2,0,P|346:238|370:282,1,62.5,10|0,0:0|0:0,0:0:0:0:
467,351,80417,1,2,0:0:0:0:
425,240,80580,5,10,0:0:0:0:
285,360,80742,2,0,P|291:325|276:271,1,62.5,2|0,0:0|0:0,0:0:0:0:
89,189,80904,1,10,0:0:0:0:
89,189,81066,6,0,P|131:184|196:117,1,93.7500035762788,2|0,0:0|0:0,0:0:0:0:
311,0,81228,1,10,0:0:0:0:
311,0,81390,6,0,P|293:38|319:128,1,93.7500035762788,2|0,0:0|0:0,0:0:0:0:
366,277,81553,1,10,0:0:0:0:
366,277,81715,6,0,P|341:242|250:219,1,93.7500035762788,2|0,0:0|0:0,0:0:0:0:
252,155,81877,5,10,0:0:0:0:
109,80,82039,1,2,0:0:0:0:
125,53,82120,1,2,0:0:0:0:
151,35,82201,1,10,0:0:0:0:
181,27,82282,1,2,0:0:0:0:
211,30,82363,2,0,P|216:74|192:116,1,62.5,2|0,0:0|0:0,0:0:0:0:
294,200,82526,6,0,P|324:182|360:172,1,62.5,10|0,0:0|0:0,0:0:0:0:
135,191,82688,2,0,P|105:173|69:163,1,62.5,2|0,0:0|0:0,0:0:0:0:
209,290,82850,2,0,B|200:316|200:316|212:366,1,62.5,10|0,0:0|0:0,0:0:0:0:
212,213,83012,6,0,B|215:167|215:167|206:148|206:148|212:72,1,125,2|8,0:0|0:0,0:0:0:0:
76,205,83336,2,0,B|110:189|110:189|148:191,1,62.5,2|0,0:0|0:0,0:0:0:0:
346,141,83499,2,0,B|312:125|312:125|274:127,1,62.5,10|0,0:0|0:0,0:0:0:0:
153,38,83661,1,2,0:0:0:0:
212,213,83823,5,8,0:0:0:0:
428,64,83985,1,2,0:0:0:0:
384,46,84066,1,2,0:0:0:0:
339,54,84147,1,10,0:0:0:0:
303,83,84228,1,2,0:0:0:0:
288,127,84309,6,0,P|306:213|268:248,1,125,2|8,0:0|0:0,0:0:0:0:
434,362,84634,2,0,P|425:332|419:302,1,62.5,2|0,0:0|0:0,0:0:0:0:
287,236,84796,1,10,0:0:0:0:
256,230,84877,1,2,0:0:0:0:
225,224,84958,1,2,0:0:0:0:
194,218,85039,1,2,0:0:0:0:
164,212,85120,6,0,P|155:255|131:289,1,62.5,10|0,0:0|0:0,0:0:0:0:
17,326,85282,2,0,P|64:302|100:307,1,62.5,2|0,0:0|0:0,0:0:0:0:
35,187,85444,2,0,P|79:215|92:249,1,62.5,10|0,0:0|0:0,0:0:0:0:
201,373,85607,2,0,P|199:342|217:304,1,62.5,2|0,0:0|0:0,0:0:0:0:
243,197,85769,5,12,0:0:0:0:
476,286,85931,2,0,L|380:303,1,62.5,2|0,0:0|0:0,0:0:0:0:
343,326,86093,6,0,P|346:263|390:227,1,93.7500035762788,10|0,0:0|0:0,0:0:0:0:
227,184,86255,1,2,0:0:0:0:
227,184,86336,1,0,0:0:0:0:
243,197,86417,6,0,P|299:168|352:188,1,93.7500035762788,10|0,0:0|0:0,0:0:0:0:
319,30,86580,1,2,0:0:0:0:
319,30,86661,1,0,0:0:0:0:
315,50,86742,6,0,P|368:83|377:139,1,93.7500035762788,10|0,0:0|0:0,0:0:0:0:
469,19,86904,5,2,0:0:0:0:
469,19,86985,1,0,0:0:0:0:
491,36,87066,5,10,0:0:0:0:
498,66,87147,1,2,0:0:0:0:
493,96,87228,1,2,0:0:0:0:
476,123,87309,1,2,0:0:0:0:
451,141,87390,2,0,P|442:230|486:271,1,125,10|2,0:0|0:0,0:0:0:0:
433,324,87634,1,2,0:0:0:0:
433,324,87715,2,0,L|328:303,1,62.5,10|0,0:0|0:0,0:0:0:0:
310,186,87877,6,0,P|344:154|389:147,1,62.5,2|0,0:0|0:0,0:0:0:0:
236,160,88039,2,0,P|225:114|241:72,1,62.5,10|0,0:0|0:0,0:0:0:0:
174,203,88201,2,0,P|129:189|100:154,1,62.5,2|0,0:0|0:0,0:0:0:0:
249,236,88363,5,8,0:0:0:0:
308,86,88526,2,0,P|315:53|348:22,1,62.5,2|0,0:0|0:0,0:0:0:0:
384,90,88688,6,0,B|404:125|404:125|389:197,1,93.7500035762788,10|0,0:0|0:0,0:0:0:0:
382,321,88850,1,2,0:0:0:0:
382,321,88931,1,0,0:0:0:0:
396,334,89012,6,0,B|361:354|361:354|289:339,1,93.7500035762788,10|0,0:0|0:0,0:0:0:0:
152,308,89174,1,2,0:0:0:0:
152,308,89255,1,0,0:0:0:0:
139,322,89336,6,0,B|119:287|119:287|134:215,1,93.7500035762788,10|0,0:0|0:0,0:0:0:0:
177,62,89499,1,2,0:0:0:0:
177,62,89580,1,0,0:0:0:0:
194,79,89661,5,10,0:0:0:0:
148,89,89742,1,2,0:0:0:0:
102,79,89823,1,2,0:0:0:0:
65,52,89904,1,2,0:0:0:0:
48,10,89985,5,10,0:0:0:0:
45,17,90066,1,2,0:0:0:0:
42,25,90147,1,2,0:0:0:0:
39,32,90228,1,2,0:0:0:0:
36,40,90309,5,10,0:0:0:0:
69,72,90390,1,2,0:0:0:0:
88,115,90471,1,2,0:0:0:0:
90,161,90552,1,2,0:0:0:0:
75,205,90634,2,0,P|112:189|152:187,1,62.5,10|0,0:0|0:0,0:0:0:0:
260,153,90796,1,2,0:0:0:0:
131,266,90958,5,8,0:0:0:0:
216,41,91120,2,0,P|201:84|209:132,1,62.5,2|0,0:0|0:0,0:0:0:0:
331,254,91282,1,10,0:0:0:0:
331,254,91444,6,0,P|351:304|356:354,1,93.7500035762788,2|0,0:0|0:0,0:0:0:0:
205,180,91607,1,10,0:0:0:0:
205,180,91769,6,0,P|151:172|105:151,1,93.7500035762788,2|0,0:0|0:0,0:0:0:0:
334,114,91931,1,10,0:0:0:0:
334,114,92093,6,0,P|367:71|408:42,1,93.7500035762788,2|0,0:0|0:0,0:0:0:0:
287,180,92255,5,10,0:0:0:0:
196,68,92417,1,2,0:0:0:0:
180,41,92498,1,2,0:0:0:0:
154,23,92579,1,10,0:0:0:0:
124,15,92660,1,2,0:0:0:0:
94,18,92741,2,0,P|89:62|113:104,1,62.5,2|0,0:0|0:0,0:0:0:0:
18,286,92904,6,0,P|30:261|35:205,1,62.5,10|0,0:0|0:0,0:0:0:0:
190,262,93066,2,0,P|174:239|128:206,1,62.5,2|0,0:0|0:0,0:0:0:0:
230,99,93228,2,0,P|202:101|151:124,1,62.5,10|0,0:0|0:0,0:0:0:0:
14,74,93390,6,0,P|82:137|84:204,1,125,10|0,0:0|0:0,0:0:0:0:
367,260,93715,1,2,0:0:0:0:
381,254,93796,1,2,0:0:0:0:
396,249,93877,1,2,0:0:0:0:
411,244,93958,1,2,0:0:0:0:
425,239,94039,6,0,P|418:200|459:115,1,125,10|0,0:0|0:0,0:0:0:0:
483,290,94363,2,0,L|471:360,1,62.5,2|2,0:0|0:0,0:0:0:0:
341,186,94526,1,10,0:0:0:0:
330,180,94607,1,2,0:0:0:0:
320,173,94688,6,0,P|311:116|281:26,1,125,2|0,0:0|0:0,0:0:0:0:
254,214,95012,2,0,P|240:241|233:292,1,62.5,10|0,0:0|0:0,0:0:0:0:
114,102,95174,1,2,0:0:0:0:
103,96,95255,1,2,0:0:0:0:
93,89,95336,2,0,P|84:32|65:-12,1,62.5,2|0,0:0|0:0,0:0:0:0:
25,231,95499,6,0,P|61:208|99:212,1,62.5,10|0,0:0|0:0,0:0:0:0:
191,105,95661,2,0,P|228:124|244:159,1,62.5,10|0,0:0|0:0,0:0:0:0:
313,269,95823,1,2,0:0:0:0:
90,341,95985,2,0,P|92:310|82:280,1,62.5,14|0,0:0|0:0,0:0:0:0:
115,120,96147,6,0,P|59:224|94:292,1,187.5
19,321,96472,2,0,P|8:350|11:381,1,62.5,10|0,0:0|0:0,0:0:0:0:
313,269,96634,2,0,P|323:298|320:329,1,62.5,2|0,0:0|0:0,0:0:0:0:
82,280,96796,6,0,P|174:328|254:302,1,187.5,10|0,0:0|0:0,0:0:0:0:
313,269,97120,2,0,P|310:238|320:208,1,62.5,10|0,0:0|0:0,0:0:0:0:
183,82,97282,2,0,P|193:111|190:142,1,62.5,2|0,0:0|0:0,0:0:0:0:
115,120,97444,5,10,0:0:0:0:
44,155,97607,1,2,0:0:0:0:
37,143,97688,1,2,0:0:0:0:
37,128,97769,1,10,0:0:0:0:
82,280,97931,1,2,0:0:0:0:
249,305,98093,5,10,0:0:0:0:
373,166,98255,2,0,P|363:207|343:231,1,62.5
249,305,98417,1,10,0:0:0:0:
233,307,98498,1,2,0:0:0:0:
218,309,98579,1,2,0:0:0:0:
202,312,98660,1,2,0:0:0:0:
187,314,98742,6,0,L|204:241,1,62.5,10|0,0:0|0:0,0:0:0:0:
317,356,98904,2,0,L|334:283,1,62.5,2|0,0:0|0:0,0:0:0:0:
403,169,99066,1,10,0:0:0:0:
400,161,99147,1,2,0:0:0:0:
398,154,99228,1,2,0:0:0:0:
395,146,99309,1,2,0:0:0:0:
409,134,99390,5,10,0:0:0:0:
411,118,99471,1,2,0:0:0:0:
414,103,99552,1,2,0:0:0:0:
417,87,99633,1,2,0:0:0:0:
429,57,99715,5,10,0:0:0:0:
423,33,99796,1,2,0:0:0:0:
406,16,99877,2,0,P|379:55|460:119,1,125,2|8,0:0|0:0,0:0:0:0:
475,169,100120,1,0,0:0:0:0:
475,169,100201,2,0,P|465:211|463:259,1,62.5,2|2,0:0|0:0,0:0:0:0:
433,299,100363,1,10,0:0:0:0:
443,310,100444,1,2,0:0:0:0:
456,316,100525,1,2,0:0:0:0:
471,320,100606,1,2,0:0:0:0:
487,301,100688,5,10,0:0:0:0:
463,280,100769,1,0,1:0:0:0:
437,263,100850,1,2,1:0:0:0:
408,251,100931,1,0,1:0:0:0:
388,281,101012,5,10,0:0:0:0:
365,323,101093,1,0,1:0:0:0:
317,331,101174,1,2,1:0:0:0:
277,305,101255,1,0,1:0:0:0:
256,261,101336,6,0,B|225:153|300:189|262:66,1,187.5,10|0,0:0|0:0,0:0:0:0:
198,49,101661,2,0,P|190:87|217:130,1,62.5,10|0,0:0|0:0,0:0:0:0:
120,211,101823,2,0,P|156:198|175:148,1,62.5,2|0,0:0|0:0,0:0:0:0:
265,79,101985,6,0,P|174:75|106:164,1,187.5,10|0,0:0|0:0,0:0:0:0:
120,211,102309,2,0,P|81:208|50:165,1,62.5,10|0,0:0|0:0,0:0:0:0:
293,148,102472,2,0,P|325:126|330:73,1,62.5,2|0,0:0|0:0,0:0:0:0:
328,32,102634,5,10,0:0:0:0:
246,60,102796,1,2,0:0:0:0:
252,72,102877,1,0,0:0:0:0:
265,79,102958,1,10,0:0:0:0:
395,161,103120,1,2,0:0:0:0:
269,298,103282,5,10,0:0:0:0:
95,197,103444,2,0,P|118:231|153:251,1,62.5
269,298,103607,1,10,0:0:0:0:
290,275,103688,1,2,0:0:0:0:
316,258,103769,1,2,0:0:0:0:
345,248,103850,1,2,0:0:0:0:
377,247,103931,5,10,0:0:0:0:
345,213,104012,1,2,0:0:0:0:
335,168,104093,1,2,0:0:0:0:
351,124,104174,1,2,0:0:0:0:
379,86,104255,5,10,0:0:0:0:
380,70,104336,1,2,0:0:0:0:
377,55,104417,1,2,0:0:0:0:
371,41,104498,1,2,0:0:0:0:
360,29,104580,5,10,0:0:0:0:
354,41,104661,1,2,0:0:0:0:
338,61,104742,1,2,0:0:0:0:
309,95,104823,1,2,0:0:0:0:
266,119,104904,1,10,0:0:0:0:
201,124,104985,1,2,0:0:0:0:
132,96,105066,1,10,0:0:0:0:
132,96,105553,6,0,P|127:68|146:28,3,62.5,10|2|2|2,0:0|0:0|0:0|0:0,0:0:0:0:
3,132,105877,1,10,0:0:0:0:
12,139,105958,1,2,0:0:0:0:
21,146,106039,2,0,P|65:151|100:159,1,62.5,2|0,0:0|0:0,0:0:0:0:
265,130,106201,1,10,0:0:0:0:
256,137,106282,1,2,0:0:0:0:
247,144,106363,2,0,P|203:149|168:157,1,62.5,2|0,0:0|0:0,0:0:0:0:
137,212,106526,6,0,L|124:314,1,62.5,10|0,0:0|0:0,0:0:0:0:
185,330,106688,1,10,0:0:0:0:
196,337,106769,1,2,0:0:0:0:
220,346,106850,1,10,0:0:0:0:
262,361,106931,1,2,0:0:0:0:
311,360,107012,1,10,0:0:0:0:
370,332,107093,1,2,0:0:0:0:
415,274,107174,1,14,0:0:0:0:
