osu file format v14

[General]
AudioFilename: audio.mp3
AudioLeadIn: 0
PreviewTime: 58952
Countdown: 0
SampleSet: Soft
StackLeniency: 0.3
Mode: 0
LetterboxInBreaks: 0
WidescreenStoryboard: 0
SamplesMatchPlaybackRate: 1

[Editor]
DistanceSpacing: 0.1
BeatDivisor: 4
GridSize: 32
TimelineZoom: 1.9

[Metadata]
Title:Sky of the Ocean
TitleUnicode:Sky of the Ocean
Artist:Memme
ArtistUnicode:Memme
Creator:Syph
Version:Moecho's Atmospheric Extra.
Source:O2Jam U
Tags:parkmemme m2u cheesecake [c_u_r_i] -tochi snownino_ emilia xlolicore- hikaru_rose moecho moeri derandom_otaku
BeatmapID:1429746
BeatmapSetID:668888

[Difficulty]
HPDrainRate:6.3
CircleSize:4.5
OverallDifficulty:9.5
ApproachRate:9.7
SliderMultiplier:1.92
SliderTickRate:1

[Events]
//Background and Video events
0,0,"bg.jpg",0,0
//Break Periods
2,117061,125757
//Storyboard Layer 0 (Background)
//Storyboard Layer 1 (Fail)
//Storyboard Layer 2 (Pass)
//Storyboard Layer 3 (Foreground)
//Storyboard Sound Samples

[TimingPoints]
1035,260.869565217391,3,2,100,70,1,0
3382,-200,3,2,99,60,0,0
4165,-133.333333333333,3,2,95,50,0,1
4295,-133.333333333333,3,2,100,70,0,1
7295,-133.333333333333,3,2,95,70,0,1
7556,-133.333333333333,3,2,100,70,0,1
10165,-133.333333333333,3,2,100,70,0,0
10426,-133.333333333333,3,2,96,50,0,0
10687,-133.333333333333,3,2,99,70,0,0
11208,-133.333333333333,3,2,100,70,0,0
11339,-133.333333333333,3,2,99,70,0,0
11991,-200,3,2,96,30,0,0
12252,-200,3,2,96,40,0,0
12774,-200,3,2,99,40,0,0
15121,-200,3,2,96,30,0,0
15382,-200,3,2,96,40,0,0
15904,-200,3,2,99,40,0,0
18252,-200,3,2,96,30,0,0
18513,-200,3,2,99,40,0,0
21382,-200,3,2,96,30,0,0
21643,-200,3,2,99,40,0,0
22948,-200,3,2,99,50,0,0
24513,-158.730158730159,3,2,96,40,0,0
24774,-158.730158730159,3,2,100,60,0,0
25295,-158.730158730159,3,2,99,60,0,0
27643,-158.730158730159,3,2,96,40,0,0
27904,-158.730158730159,3,2,99,60,0,0
30774,-158.730158730159,3,2,96,40,0,0
31034,-158.730158730159,3,2,99,60,0,0
33904,-158.730158730159,3,2,96,40,0,0
34165,-158.730158730159,3,2,99,60,0,0
36513,-158.730158730159,3,2,99,63,0,0
36774,-158.730158730159,3,2,99,67,0,0
37034,-158.730158730159,3,2,100,70,0,0
40361,-158.730158730159,3,2,100,35,0,0
40426,-158.730158730159,3,2,100,70,0,0
55034,-158.730158730159,3,2,87,70,0,0
55067,-158.730158730159,3,2,100,35,0,0
55295,-158.730158730159,3,2,87,70,0,0
55328,-158.730158730159,3,2,100,35,0,0
55556,-158.730158730159,3,2,100,70,0,0
55817,-158.730158730159,3,2,97,70,0,1
55948,-158.730158730159,3,2,100,70,0,1
56600,-158.730158730159,3,2,97,70,0,1
56730,-158.730158730159,3,2,100,70,0,1
57382,-158.730158730159,3,2,97,70,0,1
57513,-158.730158730159,3,2,100,70,0,1
58165,-158.730158730159,3,2,97,70,0,1
58295,-158.730158730159,3,2,100,70,0,1
58817,-158.730158730159,3,2,100,70,0,0
58948,-133.333333333333,3,2,100,70,0,1
68208,-133.333333333333,3,2,100,70,0,0
68339,-133.333333333333,3,2,100,70,0,1
69056,-133.333333333333,3,2,100,35,0,1
69121,-133.333333333333,3,2,100,70,0,1
71208,-133.333333333333,3,2,100,70,0,0
71469,-133.333333333333,3,2,100,70,0,1
80730,-133.333333333333,3,2,100,70,0,0
80861,-133.333333333333,3,2,100,70,0,1
81578,-133.333333333333,3,2,100,35,0,1
81643,-133.333333333333,3,2,100,70,0,1
83730,-133.333333333333,3,2,100,70,0,0
83991,-133.333333333333,3,2,95,50,0,1
84121,-133.333333333333,3,2,100,70,0,1
87121,-133.333333333333,3,2,95,70,0,1
87382,-133.333333333333,3,2,100,70,0,1
89991,-133.333333333333,3,2,100,70,0,0
90187,-133.333333333333,3,2,100,35,0,0
90252,-133.333333333333,3,2,100,70,0,0
90513,-133.333333333333,3,2,97,70,0,0
90643,-133.333333333333,3,2,100,70,0,0
91817,-133.333333333333,3,2,100,70,0,1
92208,-100,3,2,88,70,0,1
92469,-200,3,2,90,70,0,1
92534,-200,3,2,90,35,0,1
92600,-80,3,2,97,70,0,0
92795,-80,3,2,97,35,0,0
92861,-200,3,2,92,70,0,0
93056,-200,3,2,92,35,0,0
93121,-66.6666666666667,3,2,91,70,0,0
93317,-66.6666666666667,3,2,91,35,0,0
93382,-100,3,2,94,70,0,1
93448,-100,3,2,94,35,0,1
93513,-113.636363636364,3,2,94,70,0,1
93578,-113.636363636364,3,2,94,35,0,1
93643,-133.333333333333,3,2,94,70,0,1
93708,-133.333333333333,3,2,94,35,0,1
93774,-158.730158730159,3,2,94,70,0,1
93839,-158.730158730159,3,2,94,35,0,1
93904,-200,3,2,86,70,0,1
94100,-200,3,2,90,35,0,1
94165,-133.333333333333,3,2,94,70,0,0
94230,-133.333333333333,3,2,94,35,0,0
94295,-133.333333333333,3,2,94,70,0,0
94361,-133.333333333333,3,2,94,35,0,0
94426,-133.333333333333,3,2,94,70,0,0
94491,-133.333333333333,3,2,94,35,0,0
94556,-133.333333333333,3,2,93,70,0,0
94621,-133.333333333333,3,2,93,35,0,0
94687,-400,3,2,87,70,0,0
94882,-400,3,2,87,35,0,0
94948,-133.333333333333,3,2,100,70,0,1
95339,-100,3,2,88,70,0,1
95600,-200,3,2,90,70,0,1
95665,-200,3,2,90,35,0,1
95730,-80,3,2,97,70,0,0
95926,-80,3,2,97,35,0,0
95991,-133.333333333333,3,2,92,70,0,0
96187,-133.333333333333,3,2,92,35,0,0
96252,-66.6666666666667,3,2,91,70,0,0
96448,-66.6666666666667,3,2,91,35,0,0
96513,-100,3,2,94,70,0,1
96578,-100,3,2,94,35,0,1
96643,-158.730158730159,3,2,100,70,0,1
96708,-158.730158730159,3,2,100,35,0,1
96774,-133.333333333333,3,2,86,70,0,1
96969,-133.333333333333,3,2,86,35,0,1
97034,-100,3,2,85,70,0,1
97230,-100,3,2,85,35,0,1
97295,-133.333333333333,3,2,89,60,0,0
97361,-133.333333333333,3,2,89,30,0,0
97426,-133.333333333333,3,2,100,70,0,0
97491,-133.333333333333,3,2,100,35,0,0
97556,-133.333333333333,3,2,89,60,0,0
97621,-133.333333333333,3,2,89,30,0,0
97687,-133.333333333333,3,2,93,70,0,0
97752,-133.333333333333,3,2,93,35,0,0
97817,-133.333333333333,3,2,89,60,0,0
97882,-133.333333333333,3,2,89,30,0,0
97948,-133.333333333333,3,2,100,70,0,0
98013,-133.333333333333,3,2,100,35,0,0
98078,-133.333333333333,3,2,100,70,0,1
98469,-100,3,2,88,70,0,1
98730,-200,3,2,90,70,0,1
98795,-200,3,2,90,35,0,1
98861,-80,3,2,97,70,0,0
99056,-80,3,2,97,35,0,0
99121,-200,3,2,92,70,0,0
99317,-200,3,2,92,35,0,0
99382,-66.6666666666667,3,2,91,70,0,0
99578,-66.6666666666667,3,2,91,35,0,0
99643,-100,3,2,94,70,0,1
99708,-100,3,2,94,35,0,1
99774,-113.636363636364,3,2,100,70,0,1
99839,-113.636363636364,3,2,100,35,0,1
99904,-133.333333333333,3,2,100,70,0,1
99969,-133.333333333333,3,2,100,35,0,1
100034,-158.730158730159,3,2,100,70,0,1
100100,-158.730158730159,3,2,100,35,0,1
100165,-200,3,2,86,70,0,1
100361,-200,3,2,90,35,0,1
100426,-133.333333333333,3,2,94,70,0,0
100491,-133.333333333333,3,2,94,35,0,0
100556,-133.333333333333,3,2,100,70,0,0
100621,-133.333333333333,3,2,100,35,0,0
100687,-133.333333333333,3,2,100,70,0,0
100752,-133.333333333333,3,2,100,35,0,0
100817,-133.333333333333,3,2,93,70,0,0
100882,-133.333333333333,3,2,93,35,0,0
100948,-400,3,2,87,70,0,0
101143,-400,3,2,87,35,0,0
101208,-133.333333333333,3,2,100,70,0,1
101600,-100,3,2,88,70,0,1
101861,-200,3,2,90,70,0,1
101926,-200,3,2,90,35,0,1
101991,-66.6666666666667,3,2,97,90,0,0
102708,-66.6666666666667,3,2,97,45,0,0
102774,-50,3,2,100,70,0,1
103948,-50,3,2,93,70,0,1
104078,-100,3,2,100,70,0,1
104208,-133.333333333333,3,2,100,70,0,0
104339,-133.333333333333,3,2,100,70,0,1
104600,-133.333333333333,3,2,84,70,0,1
104861,-133.333333333333,3,2,83,70,0,1
104926,-133.333333333333,3,2,83,35,0,1
104991,-133.333333333333,3,2,83,70,0,1
105056,-133.333333333333,3,2,83,35,0,1
105121,-80,3,2,97,70,0,0
105317,-80,3,2,97,35,0,0
105382,-200,3,2,92,70,0,0
105578,-200,3,2,92,35,0,0
105643,-66.6666666666667,3,2,91,70,0,0
105839,-66.6666666666667,3,2,91,35,0,0
105904,-158.730158730159,3,2,94,70,0,1
106165,-100,3,2,82,70,0,1
106230,-100,3,2,82,35,0,1
106295,-100,3,2,82,70,0,1
106361,-100,3,2,82,35,0,1
106426,-80,3,2,85,80,0,1
106621,-80,3,2,85,40,0,1
106687,-133.333333333333,3,2,94,70,0,0
106752,-133.333333333333,3,2,94,35,0,0
106817,-133.333333333333,3,2,94,70,0,0
106882,-133.333333333333,3,2,94,35,0,0
106948,-133.333333333333,3,2,94,70,0,0
107013,-133.333333333333,3,2,94,35,0,0
107078,-133.333333333333,3,2,94,70,0,0
107143,-133.333333333333,3,2,94,35,0,0
107208,-100,3,2,86,70,0,0
107404,-100,3,2,86,35,0,0
107469,-133.333333333333,3,2,100,70,0,1
107730,-133.333333333333,3,2,84,70,0,1
107991,-133.333333333333,3,2,83,70,0,1
108056,-133.333333333333,3,2,83,35,0,1
108121,-133.333333333333,3,2,83,70,0,1
108187,-133.333333333333,3,2,83,35,0,1
108252,-80,3,2,97,70,0,0
108448,-80,3,2,97,35,0,0
108513,-200,3,2,92,70,0,0
108708,-200,3,2,92,35,0,0
108774,-66.6666666666667,3,2,91,70,0,0
108969,-66.6666666666667,3,2,91,35,0,0
109034,-133.333333333333,3,2,94,70,0,1
109100,-133.333333333333,3,2,94,35,0,1
109165,-133.333333333333,3,2,100,70,0,1
109295,-100,3,2,81,80,0,1
109752,-100,3,2,81,40,0,1
109817,-133.333333333333,3,2,89,70,0,0
109882,-133.333333333333,3,2,89,35,0,0
109948,-133.333333333333,3,2,89,70,0,0
110013,-133.333333333333,3,2,89,35,0,0
110078,-133.333333333333,3,2,89,70,0,0
110143,-133.333333333333,3,2,89,35,0,0
110208,-133.333333333333,3,2,93,70,0,0
110274,-133.333333333333,3,2,93,35,0,0
110339,-133.333333333333,3,2,89,70,0,0
110404,-133.333333333333,3,2,89,35,0,0
110469,-133.333333333333,3,2,89,70,0,0
110534,-133.333333333333,3,2,89,35,0,0
110600,-133.333333333333,3,2,100,70,0,1
110861,-133.333333333333,3,2,84,70,0,1
111121,-133.333333333333,3,2,83,70,0,1
111187,-133.333333333333,3,2,83,35,0,1
111252,-133.333333333333,3,2,83,70,0,1
111317,-133.333333333333,3,2,83,35,0,1
111382,-80,3,2,97,70,0,0
111578,-80,3,2,97,35,0,0
111643,-200,3,2,92,70,0,0
111839,-200,3,2,92,35,0,0
111904,-66.6666666666667,3,2,91,70,0,0
112100,-66.6666666666667,3,2,91,35,0,0
112165,-158.730158730159,3,2,94,70,0,1
112426,-100,3,2,82,70,0,1
112491,-100,3,2,82,35,0,1
112556,-100,3,2,82,70,0,1
112621,-100,3,2,82,35,0,1
112687,-80,3,2,85,80,0,1
112882,-80,3,2,85,40,0,1
112948,-133.333333333333,3,2,94,70,0,0
113013,-133.333333333333,3,2,94,35,0,0
113078,-133.333333333333,3,2,94,70,0,0
113143,-133.333333333333,3,2,94,35,0,0
113208,-133.333333333333,3,2,94,70,0,0
113274,-133.333333333333,3,2,94,35,0,0
113339,-133.333333333333,3,2,94,70,0,0
113404,-133.333333333333,3,2,94,35,0,0
113469,-133.333333333333,3,2,86,70,0,0
113665,-133.333333333333,3,2,86,35,0,0
113730,-133.333333333333,3,2,100,70,0,1
113991,-133.333333333333,3,2,84,70,0,1
114252,-133.333333333333,3,2,83,70,0,1
114317,-133.333333333333,3,2,83,35,0,1
114382,-133.333333333333,3,2,83,70,0,1
114448,-133.333333333333,3,2,83,35,0,1
114513,-100,3,2,89,70,0,0
114708,-100,3,2,89,35,0,0
114774,-80,3,2,89,70,0,0
114969,-80,3,2,89,35,0,0
115034,-66.6666666666667,3,2,89,70,0,0
115230,-66.6666666666667,3,2,89,35,0,0
115295,-133.333333333333,3,2,97,90,0,1
115426,-133.333333333333,3,2,100,70,0,1
116078,-133.333333333333,3,2,97,90,0,1
116208,-133.333333333333,3,2,100,70,0,1
116730,-133.333333333333,3,2,100,70,0,0
116861,-133.333333333333,3,2,98,100,0,1
116877,-133.333333333333,3,2,100,70,0,0
126252,-400,3,2,100,70,0,1
127034,-200,3,2,100,70,0,1
127817,-133.333333333333,3,2,100,70,0,1
128600,-100,3,2,100,70,0,1
128795,-100,3,2,100,35,0,1
128861,-80,3,2,100,80,0,1
129056,-80,3,2,100,40,0,1
129121,-66.6666666666667,3,2,97,90,0,0
129317,-66.6666666666667,3,2,97,45,0,0
129382,-113.636363636364,3,2,100,70,0,1
138643,-113.636363636364,3,2,100,70,0,0
138774,-113.636363636364,3,2,100,70,0,1
139491,-113.636363636364,3,2,100,35,0,1
139556,-113.636363636364,3,2,100,70,0,1
141643,-113.636363636364,3,2,100,70,0,0
141904,-123.456790123457,3,2,95,50,0,1
142034,-123.456790123457,3,2,100,70,0,1
145034,-123.456790123457,3,2,95,70,0,1
145295,-123.456790123457,3,2,100,70,0,1
147904,-123.456790123457,3,2,100,70,0,0
148165,-123.456790123457,3,2,96,50,0,0
148426,-123.456790123457,3,2,99,70,0,0
148948,-123.456790123457,3,2,99,60,0,0
149556,-123.456790123457,3,2,99,50,0,0
149730,-344.827586206897,3,2,80,35,0,1
149746,-344.827586206897,3,2,80,70,0,0
150513,-344.827586206897,3,2,80,50,0,0
151295,-344.827586206897,3,2,80,25,0,0
152078,-344.827586206897,3,2,80,15,0,0
152861,-344.827586206897,3,2,80,10,0,0
153252,-344.827586206897,3,2,80,5,0,0

[Colours]
Combo1 : 82,179,186
Combo2 : 112,142,173
Combo3 : 115,157,155
Combo4 : 16,154,237
Combo5 : 33,199,222
Combo6 : 73,141,197

[HitObjects]
339,129,3382,5,2,0:3:0:0:
394,179,3513,1,2,0:3:0:0:
395,191,3578,1,2,0:3:0:0:
391,203,3643,1,2,0:3:0:0:
338,250,3774,1,2,0:3:0:0:
415,270,3904,1,2,0:3:0:0:
294,312,4034,1,2,0:3:0:0:
418,362,4165,6,0,P|383:369|348:361,1,72.0000027465821,6|0,3:2|0:0,0:0:0:0:
338,250,4426,1,2,0:0:0:0:
130,346,4556,2,0,L|202:349,1,72.0000027465821
338,250,4817,1,0,0:0:0:0:
79,298,4948,2,0,B|145:299|145:299|177:321|177:321|216:321,2,144.000005493164,8|0|0,1:2|0:0|0:0,0:0:0:0:
273,374,5600,1,0,0:0:0:0:
10,236,5730,6,0,P|74:208|144:224,1,144.000005493164,0|0,3:0|0:0,0:0:0:0:
227,275,6121,1,0,0:0:0:0:
334,222,6252,1,0,0:0:0:0:
230,172,6382,1,0,0:0:0:0:
344,344,6513,6,0,P|310:334|275:337,1,72.0000027465821,8|0,1:2|0:0,0:0:0:0:
59,289,6774,2,0,P|93:299|128:296,1,72.0000027465821
205,371,7034,1,0,3:0:0:0:
99,221,7165,1,0,0:0:0:0:
205,371,7295,6,0,B|197:222,1,144.000005493164,2|0,3:2|0:0,0:0:0:0:
284,339,7687,1,0,0:0:0:0:
319,225,7817,1,0,0:0:0:0:
129,295,7948,1,0,0:0:0:0:
284,339,8078,6,0,L|355:332,2,72.0000027465821,8|0|0,1:2|0:0|0:0,0:0:0:0:
105,224,8469,5,0,0:0:0:0:
205,311,8600,1,0,0:0:0:0:
81,352,8730,1,0,0:0:0:0:
171,170,8861,5,0,3:0:0:0:
131,295,8991,1,0,0:0:0:0:
42,197,9121,1,0,0:0:0:0:
234,234,9252,5,8,1:2:0:0:
12,328,9382,2,0,P|2:293|7:258,1,72.0000027465821,0|0,3:0|0:0,0:0:0:0:
234,234,9643,5,8,1:2:0:0:
51,106,9774,1,0,0:0:0:0:
272,102,9904,1,0,3:0:0:0:
96,237,10034,1,0,0:0:0:0:
160,25,10165,2,0,B|168:72|168:72|155:113|155:113|165:165,1,144.000005493164,0|2,0:0|0:0,0:0:0:0:
202,326,10687,5,2,0:3:0:0:
316,228,10817,1,2,0:3:0:0:
240,121,10948,2,0,L|251:192,1,72.0000027465821,2|0,0:3|0:0,0:0:0:0:
129,347,11208,6,0,P|129:312|144:279,1,72.0000027465821,0|2,3:0|0:3,0:0:0:0:
164,264,11404,1,2,0:3:0:0:
164,264,11469,1,2,0:3:0:0:
273,300,11600,1,2,0:3:0:0:
252,193,11730,1,2,0:3:0:0:
202,326,11861,1,2,0:3:0:0:
306,373,11991,6,0,P|351:358|399:360,1,96,6|0,3:2|0:0,0:0:0:0:
473,303,12382,1,0,0:0:0:0:
306,372,12513,2,0,P|325:358|340:339,1,48
128,294,12774,6,0,P|160:258|206:248,1,96,10|0,1:0|0:0,0:0:0:0:
273,300,13165,1,0,0:0:0:0:
203,374,13295,2,0,L|199:326,1,48
60,269,13556,5,0,0:0:0:0:
97,212,13817,1,0,0:0:0:0:
160,183,14078,1,0,0:0:0:0:
229,178,14339,2,0,L|324:169,1,96,8|0,1:0|0:0,0:0:0:0:
229,178,14861,5,0,0:0:0:0:
119,99,14991,1,0,0:0:0:0:
229,178,15121,2,0,P|182:185|137:172,1,96,2|0,0:0|0:0,0:0:0:0:
43,190,15513,1,0,0:0:0:0:
119,99,15643,2,0,L|124:51,1,48
48,2,15904,6,0,P|42:25|46:48,1,48,10|0,1:0|0:0,0:0:0:0:
19,118,16165,2,0,P|31:138|50:152,1,48
80,220,16426,2,0,P|103:225|126:221,1,48
114,24,16687,5,0,0:0:0:0:
119,99,16948,1,0,0:0:0:0:
164,158,17208,1,0,0:0:0:0:
233,186,17469,2,0,L|328:177,1,96,8|0,1:0|0:0,0:0:0:0:
233,185,17991,6,0,P|255:177|279:175,1,48
406,222,18252,2,0,L|397:126,2,96,2|0|0,0:0|0:0|0:0,0:0:0:0:
276,253,19034,2,0,L|267:349,2,96,10|0|0,1:0|0:0|0:0,0:0:0:0:
492,262,19817,5,0,0:0:0:0:
428,305,20078,1,0,0:0:0:0:
351,304,20339,1,0,0:0:0:0:
463,169,20600,5,8,1:0:0:0:
428,305,20861,1,0,0:0:0:0:
325,208,21121,1,0,0:0:0:0:
492,262,21382,5,2,0:0:0:0:
385,160,21643,1,0,0:0:0:0:
351,304,21904,1,0,0:0:0:0:
463,169,22165,5,10,1:0:0:0:
385,160,22426,1,0,0:0:0:0:
324,207,22687,2,0,P|312:187|307:164,1,48,8|8,0:1|0:0,0:0:0:0:
433,104,22948,5,8,0:1:0:0:
341,99,23078,1,2,1:3:0:0:
433,104,23208,5,8,0:1:0:0:
323,67,23338,1,2,1:3:0:0:
433,104,23469,5,8,0:1:0:0:
305,35,23600,1,2,1:3:0:0:
385,160,23730,5,2,1:3:0:0:
312,165,23991,1,2,0:3:0:0:
262,111,24252,2,0,L|268:63,1,48,0|2,0:0|0:3,0:0:0:0:
86,90,24513,6,0,P|130:128|189:128,2,120.959996308594,2|0|0,3:2|0:0|0:0,0:0:0:0:
149,12,25295,1,10,1:0:0:0:
153,35,25556,1,0,0:0:0:0:
157,58,25817,1,0,0:0:0:0:
365,134,26078,5,0,0:0:0:0:
319,94,26339,1,0,0:0:0:0:
258,96,26600,1,0,0:0:0:0:
306,279,26861,2,0,L|292:158,2,120.959996308594,8|0|0,1:0|0:0|0:0,0:0:0:0:
367,338,27513,1,0,0:0:0:0:
257,376,27643,6,0,P|200:360|141:370,1,120.959996308594,2|0,0:0|0:0,0:0:0:0:
0,342,28034,1,0,0:0:0:0:
71,382,28165,2,0,L|67:321,1,60.4799981542969
141,173,28426,2,0,L|133:294,2,120.959996308594,10|0|0,1:0|0:0|0:0,0:0:0:0:
61,232,29078,1,0,0:0:0:0:
0,109,29208,6,0,P|54:84|113:95,1,120.959996308594
190,113,29600,1,0,0:0:0:0:
269,89,29730,2,0,L|265:149,1,60.4799981542969
205,34,29991,5,8,1:0:0:0:
190,113,30252,1,0,0:0:0:0:
175,192,30513,1,0,0:0:0:0:
317,289,30774,6,0,P|343:235|338:175,2,120.959996308594,2|0|0,0:0|0:0|0:0,0:0:0:0:
149,361,31556,1,10,1:0:0:0:
159,270,31817,1,0,0:0:0:0:
233,325,32078,1,0,0:0:0:0:
67,368,32339,6,0,L|83:248,1,120.959996308594
181,319,32730,1,0,0:0:0:0:
82,248,32861,2,0,L|74:188,1,60.4799981542969
20,89,33121,6,0,P|69:56|129:57,1,120.959996308594,8|0,1:0|0:0,0:0:0:0:
251,13,33643,2,0,P|250:43|237:69,1,60.4799981542969
176,120,33904,2,0,B|224:114|224:114|257:127|257:127|293:124,2,120.959996308594,2|0|0,0:0|0:0|0:0,0:0:0:0:
371,176,34687,5,10,1:0:0:0:
213,193,34948,1,0,0:0:0:0:
276,48,35208,2,0,L|336:53,1,60.4799981542969,0|8,0:0|0:1,0:0:0:0:
395,4,35469,5,0,0:0:0:0:
511,103,35600,2,0,P|453:88|395:103,1,120.959996308594,0|8,0:0|0:1,0:0:0:0:
433,263,35991,5,0,0:0:0:0:
415,184,36121,1,0,0:0:0:0:
374,319,36252,5,0,1:0:0:0:
492,207,36382,1,0,0:0:0:0:
297,297,36513,5,8,1:0:0:0:
452,343,36643,1,8,0:1:0:0:
280,218,36774,5,8,1:0:0:0:
317,375,36904,1,8,0:1:0:0:
120,215,37034,6,0,P|160:172|221:163,1,120.959996308594,4|0,3:2|0:0,0:0:0:0:
280,218,37426,1,0,0:0:0:0:
361,206,37556,2,0,L|420:195,1,60.4799981542969
293,294,37817,2,0,L|233:283,2,60.4799981542969,8|0|0,1:2|0:0|1:0,0:0:0:0:
312,363,38208,1,0,0:0:0:0:
173,328,38339,5,0,0:0:0:0:
369,310,38469,1,0,0:0:0:0:
117,382,38600,2,0,B|95:344|95:344|108:268,1,120.959996308594,0|0,3:0|0:0,0:0:0:0:
86,149,38991,1,0,0:0:0:0:
211,207,39121,2,0,P|182:209|153:201,1,60.4799981542969
22,98,39382,6,0,L|16:37,1,60.4799981542969,8|0,1:2|0:0,0:0:0:0:
86,149,39643,1,0,0:0:0:0:
199,129,39904,5,0,3:0:0:0:
55,217,40034,1,0,0:0:0:0:
233,279,40165,2,0,P|253:239|252:194,1,90.7199972314454,0|0,3:0|0:0,0:0:0:0:
199,129,40426,2,0,L|204:68,1,60.4799981542969
77,64,40687,2,0,P|104:51|134:49,1,60.4799981542969
199,129,40948,6,0,B|246:124|246:124|273:136|273:136|316:131,1,120.959996308594,8|0,1:2|0:0,0:0:0:0:
290,43,41339,1,0,0:0:0:0:
199,129,41469,2,0,L|289:119,1,90.7199972314454
394,33,41730,6,0,P|409:79|384:151,1,120.959996308594,0|0,3:0|0:0,0:0:0:0:
409,220,42121,1,0,0:0:0:0:
491,302,42252,2,0,L|430:297,1,60.4799981542969
376,382,42513,2,0,P|361:355|361:325,1,60.4799981542969,8|0,1:2|0:0,0:0:0:0:
409,220,42774,5,0,0:0:0:0:
307,277,42904,1,0,0:0:0:0:
409,220,43034,2,0,L|348:215,1,60.4799981542969,0|0,1:0|0:0,0:0:0:0:
108,291,43295,6,0,L|229:282,2,120.959996308594,4|0|0,3:2|0:0|0:0,0:0:0:0:
162,211,43948,1,0,0:0:0:0:
40,342,44078,2,0,P|11:289|17:230,1,120.959996308594,8|0,1:2|0:0,0:0:0:0:
67,163,44469,1,0,0:0:0:0:
45,79,44600,2,0,L|33:19,1,60.4799981542969
153,150,44861,2,0,L|141:209,1,60.4799981542969,0|0,3:0|0:0,0:0:0:0:
213,254,45121,5,0,1:0:0:0:
67,163,45252,1,0,0:0:0:0:
282,294,45382,5,0,1:0:0:0:
252,167,45513,1,0,0:0:0:0:
102,348,45643,6,0,P|155:322|214:332,1,120.959996308594,8|0,1:2|0:0,0:0:0:0:
348,273,46034,1,0,0:0:0:0:
285,370,46165,1,0,3:0:0:0:
268,231,46295,1,0,0:0:0:0:
415,328,46426,6,0,P|429:301|431:271,1,60.4799981542969,0|0,3:0|0:0,0:0:0:0:
404,198,46687,1,0,0:0:0:0:
480,73,46817,1,0,0:0:0:0:
510,149,46948,2,0,L|443:142,1,60.4799981542969
278,105,47208,6,0,P|332:80|391:88,1,120.959996308594,8|0,1:2|0:0,0:0:0:0:
449,142,47600,1,0,0:0:0:0:
336,269,47730,5,0,0:0:0:0:
350,179,47861,1,0,0:0:0:0:
135,267,47991,5,4,3:2:0:0:
262,217,48122,1,0,0:0:0:0:
182,128,48252,5,0,0:0:0:0:
260,302,48383,1,8,1:2:0:0:
262,217,48513,5,0,3:0:0:0:
191,325,48643,1,0,0:0:0:0:
334,378,48774,6,0,P|342:349|339:319,1,60.4799981542969,8|0,1:2|0:0,0:0:0:0:
403,154,49034,2,0,P|373:161|349:178,1,60.4799981542969,8|0,1:2|0:0,0:0:0:0:
174,206,49295,1,0,3:0:0:0:
174,206,49426,1,0,0:0:0:0:
272,277,49556,6,0,L|254:157,1,120.959996308594,4|0,3:2|0:0,0:0:0:0:
195,306,49948,1,0,0:0:0:0:
310,382,50078,2,0,P|284:365|255:360,1,60.4799981542969
121,317,50339,2,0,L|60:321,1,60.4799981542969,8|0,1:2|0:0,0:0:0:0:
162,375,50600,5,0,0:0:0:0:
195,306,50861,1,0,0:0:0:0:
157,244,51121,2,0,L|36:253,1,120.959996308594,0|0,3:0|0:0,0:0:0:0:
160,170,51513,1,0,0:0:0:0:
269,282,51643,2,0,P|281:254|282:224,1,60.4799981542969
218,50,51904,6,0,L|233:169,2,120.959996308594,8|0|0,1:2|0:0|3:0,0:0:0:0:
198,238,52556,1,0,0:0:0:0:
100,175,52687,6,0,P|130:167|160:170,1,60.4799981542969,0|0,3:0|0:0,0:0:0:0:
328,65,52948,2,0,P|320:94|303:118,1,60.4799981542969
309,316,53208,2,0,P|287:294|274:267,1,60.4799981542969
363,172,53469,6,0,L|482:156,2,120.959996308594,8|0|0,1:2|0:0|0:0,0:0:0:0:
308,315,54252,2,0,P|273:267|273:208,1,120.959996308594,0|0,3:0|0:0,0:0:0:0:
310,131,54643,1,0,0:0:0:0:
348,54,54774,2,0,L|408:60,1,60.4799981542969
237,97,55034,6,0,L|236:81,6,15.1199995385742,10|0|0|0|0|0|0,1:2|0:0|0:0|0:0|0:0|0:0|0:0,0:0:0:0:
153,70,55295,6,0,L|159:56,6,15.1199995385742,2|0|0|0|0|0|0,0:0|0:0|0:0|0:0|0:0|0:0|0:0,0:0:0:0:
83,22,55556,5,0,3:0:0:0:
151,274,55817,5,4,3:1:0:0:
27,216,55948,1,0,1:0:0:0:
139,137,56078,1,0,1:0:0:0:
187,334,56208,5,0,3:0:0:0:
108,221,56339,1,8,1:2:0:0:
245,209,56469,1,0,3:0:0:0:
87,312,56600,5,4,3:1:0:0:
289,339,56730,1,0,1:0:0:0:
212,149,56861,1,0,1:0:0:0:
30,349,56991,5,0,3:0:0:0:
218,271,57121,1,8,1:2:0:0:
57,146,57252,1,0,3:0:0:0:
315,267,57382,5,4,3:1:0:0:
108,221,57513,1,0,1:0:0:0:
251,64,57643,1,0,3:0:0:0:
197,348,57774,5,8,1:2:0:0:
134,146,57905,1,0,3:0:0:0:
341,191,58035,1,0,1:0:0:0:
76,290,58165,5,6,3:1:0:0:
289,339,58295,1,0,1:0:0:0:
212,149,58426,1,8,1:2:0:0:
197,348,58556,5,0,1:0:0:0:
393,242,58686,1,0,3:0:0:0:
174,81,58817,1,0,1:0:0:0:
354,378,58948,6,0,L|425:366,1,72.0000027465821,4|0,3:2|0:0,0:0:0:0:
453,192,59208,2,0,P|424:172|389:165,1,72.0000027465821
282,302,59469,1,0,0:0:0:0:
393,242,59600,1,0,0:0:0:0:
282,302,59730,6,0,L|211:290,1,72.0000027465821,8|0,1:2|0:0,0:0:0:0:
116,373,59991,2,0,P|92:345|83:311,1,72.0000027465821
141,170,60252,2,0,P|109:187|89:216,1,72.0000027465821
211,290,60513,6,0,L|352:266,2,144.000005493164,0|0|0,3:0|0:0|0:0,0:0:0:0:
412,372,61165,1,0,0:0:0:0:
412,372,61295,2,0,P|426:339|422:303,1,72.0000027465821,8|0,1:2|0:0,0:0:0:0:
364,194,61556,2,0,L|368:122,1,72.0000027465821
474,78,61817,1,0,3:0:0:0:
290,156,61948,1,0,0:0:0:0:
474,78,62078,6,0,P|443:59|407:55,1,72.0000027465821,0|0,3:0|0:0,0:0:0:0:
212,127,62339,2,0,L|216:198,1,72.0000027465821
38,78,62600,2,0,P|68:59|104:55,1,72.0000027465821
216,198,62861,5,8,1:2:0:0:
95,142,62991,1,0,0:0:0:0:
224,296,63121,5,0,3:0:0:0:
290,156,63252,1,0,0:0:0:0:
103,267,63382,5,0,3:0:0:0:
291,238,63513,1,0,2:0:0:0:
217,384,63643,6,0,P|246:364|282:358,1,72.0000027465821,0|0,3:0|0:0,0:0:0:0:
465,321,63904,1,0,0:0:0:0:
380,290,64034,2,0,L|387:361,1,72.0000027465821
367,207,64295,1,0,0:0:0:0:
455,55,64426,2,0,L|439:198,2,144.000005493164,8|0|0,1:2|0:0|3:0,0:0:0:0:
505,256,65208,5,0,3:0:0:0:
367,207,65469,5,0,0:0:0:0:
422,342,65600,1,0,0:0:0:0:
367,207,65730,2,0,L|439:198,1,72.0000027465821
292,21,65991,2,0,P|269:88|290:156,2,144.000005493164,8|0|0,1:2|0:0|0:0,0:0:0:0:
366,132,66643,1,0,0:0:0:0:
246,274,66774,6,0,L|174:264,1,72.0000027465821,0|0,3:0|0:0,0:0:0:0:
71,365,67034,1,0,0:0:0:0:
106,236,67165,1,0,0:0:0:0:
70,364,67295,2,0,P|53:332|53:296,1,72.0000027465821
163,179,67556,2,0,L|141:36,2,144.000005493164,8|0|0,1:2|0:0|3:0,0:0:0:0:
71,122,68208,1,0,3:0:0:0:
174,264,68339,6,0,L|246:254,2,72.0000027465821,4|0|0,3:2|0:0|0:0,0:0:0:0:
268,154,68730,1,0,3:0:0:0:
371,347,68861,2,0,P|324:321|271:321,1,108.000004119873,8|0,1:2|0:0,0:0:0:0:
192,368,69121,6,0,L|120:358,2,72.0000027465821,4|0|0,3:2|0:0|0:0,0:0:0:0:
86,250,69513,1,0,3:0:0:0:
271,322,69643,1,8,1:2:0:0:
241,126,69774,1,0,3:0:0:0:
22,381,69904,6,0,P|12:347|16:312,1,72.0000027465821,4|0,3:2|0:0,0:0:0:0:
118,170,70165,1,0,3:0:0:0:
0,89,70295,1,8,1:2:0:0:
86,250,70426,2,0,L|157:244,1,72.0000027465821,0|0,3:0|0:0,0:0:0:0:
292,358,70687,6,0,P|311:328|316:293,1,72.0000027465821,8|0,1:2|0:0,0:0:0:0:
368,113,70948,2,0,P|332:111|299:124,1,72.0000027465821,8|0,1:2|0:0,0:0:0:0:
118,170,71208,5,0,3:0:0:0:
258,220,71339,1,0,3:0:0:0:
118,170,71469,6,0,P|134:201|162:223,1,72.0000027465821,4|0,3:2|0:0,0:0:0:0:
351,213,71730,2,0,L|421:197,1,72.0000027465821
479,341,71991,1,0,0:0:0:0:
315,292,72121,1,0,0:0:0:0:
479,341,72252,6,0,P|489:306|484:271,1,72.0000027465821,8|0,1:2|0:0,0:0:0:0:
368,113,72513,2,0,L|384:43,1,72.0000027465821
242,150,72774,2,0,L|258:220,1,72.0000027465821
219,355,73034,6,0,L|372:337,2,144.000005493164,0|0|0,3:0|0:0|0:0,0:0:0:0:
77,314,73687,1,0,0:0:0:0:
77,313,73817,2,0,P|108:295|144:293,1,72.0000027465821,8|0,1:2|0:0,0:0:0:0:
290,346,74078,2,0,L|362:338,1,72.0000027465821
459,382,74339,1,0,3:0:0:0:
239,277,74469,1,0,0:0:0:0:
459,381,74600,6,0,P|469:347|465:311,1,72.0000027465821,0|0,3:0|0:0,0:0:0:0:
284,208,74861,2,0,L|212:200,1,72.0000027465821
109,317,75121,2,0,P|98:282|101:247,1,72.0000027465821
257,132,75382,5,8,1:2:0:0:
183,271,75513,1,0,0:0:0:0:
342,144,75643,5,0,3:0:0:0:
212,200,75774,1,0,0:0:0:0:
260,263,75904,5,0,3:0:0:0:
170,123,76034,1,0,0:0:0:0:
123,356,76165,6,0,P|157:345|192:348,1,72.0000027465821,0|0,3:0|0:0,0:0:0:0:
346,382,76426,1,0,0:0:0:0:
260,263,76556,2,0,L|268:335,1,72.0000027465821
251,185,76817,1,0,0:0:0:0:
345,62,76948,2,0,L|329:205,2,144.000005493164,8|0|0,1:2|0:0|3:0,0:0:0:0:
472,283,77730,5,0,3:0:0:0:
287,322,77991,5,0,0:0:0:0:
328,205,78121,1,0,0:0:0:0:
287,322,78252,2,0,P|271:291|269:255,1,72.0000027465821
419,102,78513,2,0,L|403:245,2,144.000005493164,8|0|0,1:2|0:0|0:0,0:0:0:0:
472,283,79165,1,0,0:0:0:0:
315,382,79295,6,0,P|283:365|247:363,1,72.0000027465821,0|0,3:0|0:0,0:0:0:0:
153,379,79556,1,0,0:0:0:0:
197,242,79687,1,0,0:0:0:0:
153,379,79817,2,0,L|149:307,1,72.0000027465821
125,101,80078,2,0,P|98:166|118:234,2,144.000005493164,8|0|0,1:2|0:0|3:0,0:0:0:0:
75,301,80730,1,0,3:0:0:0:
232,370,80861,6,0,L|303:361,2,72.0000027465821,4|0|0,3:2|0:0|0:0,0:0:0:0:
418,382,81252,1,0,3:0:0:0:
203,300,81382,2,0,L|310:287,1,108.000004119873,8|0,1:2|0:0,0:0:0:0:
370,198,81643,6,0,L|298:189,2,72.0000027465821,4|0|0,3:2|0:0|0:0,0:0:0:0:
184,210,82034,1,0,3:0:0:0:
399,128,82165,1,8,1:2:0:0:
232,34,82295,1,0,3:0:0:0:
399,128,82426,6,0,L|255:111,1,144.000005493164,4|0,3:2|0:0,0:0:0:0:
462,71,82817,1,8,1:2:0:0:
507,207,82948,2,0,P|471:209|438:194,1,72.0000027465821,0|0,3:0|0:0,0:0:0:0:
297,41,83208,6,0,L|225:32,1,72.0000027465821,8|0,1:2|0:0,0:0:0:0:
324,266,83469,2,0,L|395:257,1,72.0000027465821,8|0,1:2|0:0,0:0:0:0:
487,137,83730,5,0,3:0:0:0:
395,257,83861,1,0,3:0:0:0:
504,373,83991,6,0,P|473:354|437:348,1,72.0000027465821,6|0,3:2|0:0,0:0:0:0:
219,381,84252,1,0,0:0:0:0:
324,266,84382,2,0,L|317:352,1,72.0000027465821
378,382,84643,1,0,0:0:0:0:
277,206,84774,2,0,B|270:256|270:256|286:300|286:300|282:346,2,144.000005493164,8|0|0,1:2|0:0|0:0,0:0:0:0:
348,160,85426,1,0,0:0:0:0:
231,16,85556,6,0,P|207:83|219:153,1,144.000005493164,0|0,3:0|0:0,0:0:0:0:
392,244,85948,1,0,0:0:0:0:
302,324,86078,1,0,0:0:0:0:
277,206,86208,1,0,0:0:0:0:
432,311,86339,6,0,L|423:382,1,72.0000027465821,8|0,1:2|0:0,0:0:0:0:
217,316,86600,2,0,L|208:244,1,72.0000027465821
303,376,86861,1,0,3:0:0:0:
136,290,86991,1,0,0:0:0:0:
303,376,87121,6,0,P|235:356|164:363,1,144.000005493164,2|0,3:2|0:0,0:0:0:0:
24,263,87513,5,0,0:0:0:0:
163,362,87643,1,0,0:0:0:0:
239,224,87774,1,0,0:0:0:0:
86,311,87904,6,0,L|92:382,2,72.0000027465821,8|0|0,1:2|0:0|0:0,0:0:0:0:
181,132,88295,5,0,0:0:0:0:
30,189,88426,1,0,1:0:0:0:
155,291,88556,1,0,0:0:0:0:
38,113,88687,6,0,P|74:105|109:112,1,72.0000027465821,0|0,3:0|0:0,0:0:0:0:
248,186,88948,1,0,0:0:0:0:
159,57,89078,5,8,1:2:0:0:
318,188,89208,2,0,P|282:180|247:187,1,72.0000027465821,0|0,3:0|0:0,0:0:0:0:
133,365,89469,5,8,1:2:0:0:
133,190,89600,1,0,0:0:0:0:
30,331,89730,1,0,3:0:0:0:
196,277,89861,1,0,0:0:0:0:
29,223,89991,2,0,P|70:187|122:179,1,108.000004119873
196,277,90252,1,4,3:2:0:0:
348,242,90513,5,2,1:0:0:0:
156,358,90643,1,8,1:2:0:0:
196,277,90774,2,0,L|187:205,1,72.0000027465821
361,373,91034,5,8,1:2:0:0:
111,245,91165,1,8,1:2:0:0:
352,100,91295,1,8,1:2:0:0:
272,266,91426,1,8,1:2:0:0:
277,301,91491,1,8,1:2:0:0:
282,336,91556,1,8,1:2:0:0:
112,158,91687,1,8,1:2:0:0:
350,299,91817,5,4,3:2:0:0:
212,381,91948,2,0,L|203:309,1,72.0000027465821
186,296,92208,6,0,B|175:316|175:316|180:364|180:364|197:382,1,96,2|0,0:0|1:0,0:0:0:0:
347,378,92469,2,0,L|339:344,1,24,2|0,0:1|0:0,0:0:0:0:
502,293,92600,6,0,B|449:284|449:284|419:298|419:298|388:293|388:293|379:285|379:285|367:289|367:289|327:282,1,180,10|0,1:0|0:0,0:0:0:0:
271,329,92861,6,0,P|256:296|258:260,1,72,2|0,0:0|0:0,0:0:0:0:
353,50,93121,6,0,B|390:91|390:91|366:199|366:199|317:211,1,216.000008239746,2|0,1:2|0:0,0:0:0:0:
242,142,93382,6,0,L|249:189,1,48,2|0,3:2|0:0,0:0:0:0:
170,143,93513,6,0,L|176:184,1,42.2400012890625
98,144,93643,6,0,L|103:179,1,36.0000013732911
26,145,93774,6,0,L|30:174,1,30.2399990771485
0,79,93904,6,0,B|17:64|17:64|43:57|43:57|65:62,1,72,2|0,1:2|0:0,0:0:0:0:
164,107,94165,6,0,L|169:142,1,36.0000013732911,10|0,1:2|0:0,0:0:0:0:
236,106,94295,2,0,L|241:141,1,36.0000013732911
306,18,94426,6,0,L|301:54,1,36.0000013732911
373,55,94556,2,0,L|378:19,1,36.0000013732911,2|0,0:0|0:0,0:0:0:0:
450,20,94687,6,0,L|445:56,1,36.0000013732911,2|0,1:2|0:0,0:0:0:0:
505,133,94948,5,0,3:0:0:0:
385,189,95078,2,0,P|418:202|454:202,1,72.0000027465821
462,236,95339,6,0,B|444:218|444:218|396:211|396:211|376:222,1,96,2|0,0:0|1:0,0:0:0:0:
277,271,95600,2,0,L|281:294,1,24,2|0,0:1|0:0,0:0:0:0:
509,338,95730,6,0,B|456:347|456:347|426:333|426:333|395:338|395:338|386:346|386:346|374:342|374:342|334:349,1,180,10|0,1:0|0:0,0:0:0:0:
199,360,95991,6,0,B|213:319|213:319|226:383,1,108.000004119873,2|0,0:0|0:0,0:0:0:0:
9,313,96252,6,0,B|-5:354|-5:354|122:368|122:368|136:327,1,216.000008239746,2|0,1:2|0:0,0:0:0:0:
73,205,96513,6,0,L|65:157,1,48,2|0,3:2|0:0,0:0:0:0:
3,199,96643,6,0,L|-1:169,1,30.2399990771485
135,253,96774,6,0,B|152:220|152:220|141:149,1,108.000004119873,2|0,0:0|0:0,0:0:0:0:
17,35,97034,6,0,B|32:76|32:76|88:93|88:93|126:76,1,144,2|0,1:2|0:0,0:0:0:0:
218,157,97295,6,0,L|252:153,1,36.0000013732911,10|0,1:2|0:0,0:0:0:0:
223,181,97426,2,0,L|258:177,1,36.0000013732911
338,176,97556,6,0,L|373:172,1,36.0000013732911,2|0,0:0|0:0,0:0:0:0:
331,140,97687,2,0,L|366:136,1,36.0000013732911,2|0,0:0|0:0,0:0:0:0:
443,120,97817,6,0,L|478:116,1,36.0000013732911,2|0,3:2|0:0,0:0:0:0:
453,174,97948,2,0,L|488:170,1,36.0000013732911
390,69,98078,5,0,3:0:0:0:
428,245,98208,2,0,L|500:253,1,72.0000027465821
504,282,98469,6,0,B|485:264|485:264|437:259|437:259|418:270,1,96,2|0,0:0|1:0,0:0:0:0:
331,358,98730,2,0,L|354:355,1,24,2|0,0:1|0:0,0:0:0:0:
259,139,98861,6,0,B|268:192|268:192|254:222|254:222|259:253|259:253|267:262|267:262|263:274|263:274|270:314,1,180,10|0,1:0|0:0,0:0:0:0:
182,355,99121,6,0,P|209:377|245:380,1,72,2|0,0:0|0:0,0:0:0:0:
496,317,99382,6,0,B|484:268|484:268|376:244|376:244|335:281,1,216.000008239746,2|0,1:2|0:0,0:0:0:0:
232,218,99643,6,0,L|279:225,1,48,2|0,3:2|0:0,0:0:0:0:
233,146,99774,6,0,L|274:152,1,42.2400012890625
234,74,99904,6,0,L|269:79,1,36.0000013732911
235,2,100035,6,0,L|264:6,1,30.2399990771485
173,40,100165,6,0,B|152:50|152:50|126:50|126:50|105:39,1,72,2|0,1:2|0:0,0:0:0:0:
35,15,100426,6,0,L|0:20,1,36.0000013732911,10|0,1:2|0:0,0:0:0:0:
36,87,100556,2,0,L|1:92,1,36.0000013732911
124,157,100687,6,0,L|88:152,1,36.0000013732911
87,224,100817,2,0,L|123:229,1,36.0000013732911,2|0,0:0|0:0,0:0:0:0:
122,301,100948,6,0,L|86:296,1,36.0000013732911,2|0,1:2|0:0,0:0:0:0:
24,338,101208,5,0,3:0:0:0:
208,300,101339,2,0,P|211:335|200:370,1,72.0000027465821
225,382,101600,6,0,B|214:362|214:362|221:314|221:314|239:296,1,96,2|0,0:0|1:0,0:0:0:0:
263,126,101861,2,0,L|267:150,1,24,2|0,0:1|0:0,0:0:0:0:
497,157,101991,6,0,B|484:242|375:271|320:201|320:201|292:226|292:226|235:223|235:223|207:196|207:196|188:243|188:243|128:235|128:235|91:259|91:259|23:254|23:254|-15:187|53:108|132:140,1,792.000030212404,14|0,1:0|0:0,0:0:0:0:
238,296,102774,5,0,3:0:0:0:
182,79,102904,1,0,1:0:0:0:
398,138,103034,1,0,1:0:0:0:
207,196,103165,5,8,1:2:0:0:
422,256,103295,1,0,3:0:0:0:
367,39,103425,1,0,1:0:0:0:
266,149,103556,5,8,1:2:0:0:
437,68,103687,1,0,1:0:0:0:
422,256,103817,1,8,1:2:0:0:
376,157,103948,5,2,1:2:0:0:
487,353,104078,2,0,L|458:349,6,24,0|0|0|0|0|0|0,3:0|0:0|0:0|0:0|0:0|0:0|0:0,0:0:0:0:
394,381,104339,5,4,3:2:0:0:
224,296,104600,6,0,L|227:313,4,18.0000006866455,2|0|0|0|0,0:0|0:0|0:0|0:0|0:0,0:0:0:0:
155,361,104861,6,0,L|157:325,1,36.0000013732911,2|0,1:2|0:0,0:0:0:0:
296,337,104991,2,0,L|298:301,1,36.0000013732911,2|0,0:0|0:0,0:0:0:0:
41,215,105121,6,0,B|71:253|71:253|162:250|162:250|188:218,1,180,10|0,1:0|0:0,0:0:0:0:
332,236,105382,6,0,P|297:226|263:234,1,72,2|0,0:0|0:0,0:0:0:0:
187,358,105643,6,0,B|188:315|188:315|196:295|196:295|188:278|188:278|190:248|190:248|181:227|181:227|193:207|193:207|195:151,1,216.000008239746,2|0,1:2|0:0,0:0:0:0:
111,134,105904,6,0,L|115:163,2,30.2399990771485,2|0|0,3:2|0:0|0:0,0:0:0:0:
35,212,106165,6,0,L|41:164,1,48,2|0,0:0|0:0,0:0:0:0:
195,150,106295,2,0,L|201:102,1,48,2|0,0:0|0:0,0:0:0:0:
13,69,106426,6,0,P|86:20|173:35,1,180,2|0,1:2|0:0,0:0:0:0:
247,9,106687,6,0,L|252:44,1,36.0000013732911,10|0,1:2|0:0,0:0:0:0:
320,25,106817,2,0,L|325:60,1,36.0000013732911
393,41,106948,2,0,L|398:76,1,36.0000013732911
466,57,107078,2,0,L|471:92,1,36.0000013732911
310,203,107208,6,0,B|329:167|329:167|389:150|389:150|429:161,1,144,2|0,3:2|0:0,0:0:0:0:
505,156,107469,5,0,3:0:0:0:
394,253,107730,6,0,L|391:236,4,18.0000006866455,2|0|0|0|0,0:0|0:0|0:0|0:0|0:0,0:0:0:0:
331,312,107991,6,0,L|324:276,1,36.0000013732911,2|0,1:2|0:0,0:0:0:0:
459,331,108121,2,0,L|452:295,1,36.0000013732911,2|0,0:0|0:0,0:0:0:0:
233,382,108252,6,0,B|265:346|265:346|251:262|251:262|209:243,1,180,10|0,1:0|0:0,0:0:0:0:
186,97,108513,6,0,P|189:132|178:166,1,72,2|0,0:0|0:0,0:0:0:0:
81,238,108774,6,0,B|124:237|124:237|144:229|144:229|161:237|161:237|191:235|191:235|212:244|212:244|232:232|232:232|288:230,1,216.000008239746,2|0,1:2|0:0,0:0:0:0:
353,269,109034,6,0,P|363:237|360:217,1,36.0000013732911,2|0,3:2|0:0,0:0:0:0:
358,206,109165,6,0,P|360:215|362:224,1,18.0000006866455
385,348,109295,6,0,B|449:301|458:186|397:129|397:129|359:126|359:126|335:139|335:139|311:136,1,336,2|0,0:0|0:0,0:0:0:0:
274,231,109817,6,0,L|239:227,1,36.0000013732911,10|0,1:2|0:0,0:0:0:0:
279,207,109948,2,0,L|245:203,1,36.0000013732911
166,190,110078,6,0,L|131:186,1,36.0000013732911,2|0,0:0|0:0,0:0:0:0:
159,226,110208,2,0,L|124:222,1,36.0000013732911,2|0,0:0|0:0,0:0:0:0:
44,224,110339,6,0,L|9:220,1,36.0000013732911,2|0,3:2|0:0,0:0:0:0:
54,170,110470,2,0,L|19:166,1,36.0000013732911
92,288,110600,5,0,3:0:0:0:
162,117,110861,6,0,L|179:114,4,18.0000006866455,2|0|0|0|0,0:0|0:0|0:0|0:0|0:0,0:0:0:0:
216,46,111121,6,0,L|181:42,1,36.0000013732911,2|0,1:2|0:0,0:0:0:0:
172,188,111252,2,0,L|137:184,1,36.0000013732911,2|0,0:0|0:0,0:0:0:0:
310,313,111382,6,0,B|348:283|348:283|345:192|345:192|313:166,1,180,10|0,1:0|0:0,0:0:0:0:
331,22,111643,6,0,P|321:57|329:91,1,72,2|0,0:0|0:0,0:0:0:0:
453,167,111904,6,0,B|410:166|410:166|390:158|390:158|373:166|373:166|343:164|343:164|322:173|322:173|302:161|302:161|246:159,1,216.000008239746,2|0,1:2|0:0,0:0:0:0:
226,243,112165,6,0,L|255:239,2,30.2399990771485,2|0|0,3:2|0:0|0:0,0:0:0:0:
198,165,112426,6,0,L|245:158,1,48,2|0,0:0|0:0,0:0:0:0:
262,319,112556,2,0,L|309:312,1,48,2|0,0:0|0:0,0:0:0:0:
170,378,112687,6,0,P|121:305|135:218,1,180,2|0,1:2|0:0,0:0:0:0:
192,129,112948,6,0,L|197:164,1,36.0000013732911,10|0,1:2|0:0,0:0:0:0:
265,145,113078,2,0,L|270:180,1,36.0000013732911
338,161,113209,2,0,L|343:196,1,36.0000013732911
411,177,113339,2,0,L|416:212,1,36.0000013732911
492,245,113469,6,0,B|512:216|512:216|511:167|511:167|495:148,1,108.000004119873,2|0,3:2|0:0,0:0:0:0:
438,113,113730,5,0,3:0:0:0:
349,269,113991,6,0,L|366:266,4,18.0000006866455,2|0|0|0|0,0:0|0:0|0:0|0:0|0:0,0:0:0:0:
307,203,114252,6,0,L|343:196,1,36.0000013732911,2|0,1:2|0:0,0:0:0:0:
284,345,114382,2,0,L|320:338,1,36.0000013732911,2|0,0:0|0:0,0:0:0:0:
204,147,114513,6,0,B|236:117|236:117|295:109|295:109|333:120,1,144,14|0,1:2|0:0,0:0:0:0:
191,156,114774,6,0,B|223:111|223:111|307:99|307:99|342:117,1,180,2|0,0:0|0:0,0:0:0:0:
185,169,115034,6,0,B|211:106|211:106|302:88|302:88|367:129,1,216.000008239746,2|0,1:2|0:0,0:0:0:0:
303,250,115295,5,6,3:1:0:0:
51,187,115426,1,8,1:0:0:0:
235,7,115556,1,8,1:0:0:0:
147,303,115687,5,8,1:2:0:0:
26,103,115818,1,8,3:0:0:0:
258,97,115948,1,8,1:0:0:0:
73,268,116078,5,6,1:0:0:0:
293,374,116208,1,8,1:2:0:0:
258,97,116339,1,8,1:2:0:0:
214,245,116469,1,8,1:2:0:0:
216,290,116534,1,8,1:2:0:0:
221,338,116600,1,8,1:2:0:0:
51,187,116730,1,8,0:0:0:0:
355,317,116861,5,6,3:2:0:0:
154,75,126252,6,0,P|130:77|108:88,1,48,4|0,3:2|0:0,0:0:0:0:
240,111,126643,1,0,3:0:0:0:
236,6,126774,2,0,L|229:28,1,24,8|0,1:2|0:0,0:0:0:0:
423,145,127034,6,0,P|435:100|419:55,1,96,4|0,3:2|0:0,0:0:0:0:
348,203,127425,1,0,3:0:0:0:
457,268,127556,2,0,L|424:233,1,48,8|0,1:2|0:0,0:0:0:0:
173,338,127817,6,0,P|230:377|297:356,1,144.000005493164,4|0,3:2|0:0,0:0:0:0:
161,244,128208,1,8,1:2:0:0:
26,311,128339,2,0,L|96:294,1,72.0000027465821,0|0,3:0|0:0,0:0:0:0:
333,315,128600,6,0,B|351:277|351:277|331:216|331:216|297:198,1,144,8|0,1:2|0:0,0:0:0:0:
88,173,128861,6,0,B|97:211|97:211|195:242|195:242|227:221,1,180,8|0,1:2|0:0,0:0:0:0:
383,27,129121,6,0,B|337:22|337:22|241:111|241:111|242:149,1,216.000008239746,2|0,1:0|0:0,0:0:0:0:
333,315,129382,6,0,L|438:297,1,84.4800025781251,4|0,3:2|0:0,0:0:0:0:
440,125,129643,2,0,P|404:102|362:100,1,84.4800025781251
248,229,129903,1,0,0:0:0:0:
380,182,130034,1,0,0:0:0:0:
248,229,130165,6,0,L|142:211,1,84.4800025781251,8|0,1:2|0:0,0:0:0:0:
84,320,130425,2,0,P|55:289|43:249,1,84.4800025781251
113,99,130686,2,0,P|77:120|53:155,1,84.4800025781251
164,214,130948,6,0,L|330:185,2,168.96000515625,0|0|0,3:0|0:0|0:0,0:0:0:0:
389,347,131599,1,0,0:0:0:0:
389,346,131730,2,0,P|410:310|415:268,1,84.4800025781251,8|0,1:2|0:0,0:0:0:0:
330,185,131990,2,0,L|334:100,1,84.4800025781251
456,47,132251,1,0,3:0:0:0:
255,137,132382,1,0,0:0:0:0:
456,47,132513,6,0,P|421:22|380:15,1,84.4800025781251,0|0,3:0|0:0,0:0:0:0:
177,105,132774,2,0,L|181:189,1,84.4800025781251
6,55,133034,2,0,P|39:29|80:22,1,84.4800025781251
181,189,133295,5,8,1:2:0:0:
76,104,133425,1,0,0:0:0:0:
189,296,133555,5,0,3:0:0:0:
269,136,133686,1,0,0:0:0:0:
99,257,133816,5,0,3:0:0:0:
286,237,133947,1,0,2:0:0:0:
211,382,134077,6,0,P|246:359|287:351,1,84.4800025781251,0|0,3:0|0:0,0:0:0:0:
461,382,134338,1,0,0:0:0:0:
363,258,134469,2,0,L|372:343,1,84.4800025781251
344,176,134729,1,0,0:0:0:0:
458,40,134861,2,0,L|439:207,2,168.96000515625,8|0|0,1:2|0:0|3:0,0:0:0:0:
512,291,135642,5,0,3:0:0:0:
355,218,135903,1,0,0:0:0:0:
435,350,136034,1,0,0:0:0:0:
355,218,136164,2,0,L|438:207,1,84.4800025781251
274,23,136426,2,0,P|245:100|271:179,2,168.96000515625,8|0|0,1:2|0:0|0:0,0:0:0:0:
345,141,137077,1,0,0:0:0:0:
247,273,137208,6,0,L|163:261,1,84.4800025781251,0|0,3:0|0:0,0:0:0:0:
56,382,137468,1,0,0:0:0:0:
85,234,137599,1,0,0:0:0:0:
56,382,137730,2,0,P|33:346|31:305,1,84.4800025781251
149,177,137991,2,0,L|122:10,2,168.96000515625,8|0|0,1:2|0:0|3:0,0:0:0:0:
46,101,138642,1,0,3:0:0:0:
186,240,138774,6,0,L|270:228,2,84.4800025781251,4|0|0,3:2|0:0|0:0,0:0:0:0:
332,290,139165,1,0,3:0:0:0:
149,177,139295,2,0,L|274:159,1,126.720003867188,8|0,1:2|0:0,0:0:0:0:
420,109,139556,6,0,L|336:97,2,84.4800025781251,4|0|0,3:2|0:0|0:0,0:0:0:0:
274,159,139947,1,0,3:0:0:0:
457,46,140077,2,0,L|373:34,1,84.4800025781251,8|0,1:2|0:0,0:0:0:0:
143,70,140339,6,0,P|194:80|302:23,1,168.96000515625,4|0,3:2|0:0,0:0:0:0:
420,109,140730,1,8,1:2:0:0:
295,31,140861,2,0,L|303:115,1,84.4800025781251,0|0,3:0|0:0,0:0:0:0:
489,158,141121,6,0,P|500:117|494:76,1,84.4800025781251,8|0,1:2|0:0,0:0:0:0:
250,247,141382,2,0,P|238:206|244:165,1,84.4800025781251,8|0,1:2|0:0,0:0:0:0:
408,333,141643,5,0,3:0:0:0:
327,202,141774,1,0,0:0:0:0:
408,333,141904,6,0,P|376:310|338:303,1,77.7600018984376,6|0,3:2|0:0,0:0:0:0:
95,282,142165,1,0,0:0:0:0:
192,327,142295,2,0,L|180:250,1,77.7600018984376
95,282,142556,1,0,0:0:0:0:
271,345,142687,2,0,B|263:286|263:286|279:250|279:250|269:194,2,155.520003796875,8|0|0,1:2|0:0|0:0,0:0:0:0:
191,167,143339,1,0,0:0:0:0:
316,0,143469,6,0,P|351:67|336:142,1,155.520003796875,0|0,3:0|0:0,0:0:0:0:
200,236,143861,1,0,0:0:0:0:
128,140,143991,1,0,0:0:0:0:
247,125,144121,1,0,0:0:0:0:
100,233,144252,6,0,L|22:226,1,77.7600018984376,8|0,1:2|0:0,0:0:0:0:
273,352,144513,2,0,L|350:345,1,77.7600018984376
179,382,144774,1,0,3:0:0:0:
306,274,144904,1,0,0:0:0:0:
179,382,145034,6,0,P|168:312|214:223,1,155.520003796875,2|0,3:2|0:0,0:0:0:0:
295,176,145426,1,0,0:0:0:0:
200,236,145556,1,0,0:0:0:0:
164,109,145687,1,0,0:0:0:0:
306,274,145817,6,0,L|383:267,2,77.7600018984376,8|0|0,1:2|0:0|0:0,0:0:0:0:
79,128,146208,5,0,0:0:0:0:
223,173,146339,1,0,0:0:0:0:
190,26,146469,1,0,0:0:0:0:
7,145,146600,5,0,3:0:0:0:
164,109,146730,1,0,0:0:0:0:
116,262,146861,1,0,0:0:0:0:
79,128,146991,5,8,1:2:0:0:
256,276,147121,2,0,P|264:238|258:199,1,77.7600018984376,0|0,3:0|0:0,0:0:0:0:
13,63,147382,5,8,1:2:0:0:
225,133,147513,1,0,0:0:0:0:
13,201,147643,1,0,3:0:0:0:
144,21,147774,1,0,0:0:0:0:
144,244,147904,2,0,P|106:178|114:102,1,155.520003796875,0|2,0:0|0:0,0:0:0:0:
251,154,148426,5,2,0:3:0:0:
144,244,148556,1,2,0:3:0:0:
307,294,148687,2,0,L|300:206,1,77.7600018984376,2|0,0:3|0:0,0:0:0:0:
225,269,148948,5,8,0:3:0:0:
152,253,149556,6,0,P|140:247|130:238,3,25.9200006328125
57,248,149730,6,0,B|26:186|67:112|140:126|140:126|155:49|261:21|334:104|290:176|290:176|349:131|422:147|437:216|437:216|486:228|486:228|470:323|338:355|272:278|272:278|243:338|144:353|95:303,1,1169.28003568359,2|0,3:2|0:0,0:0:0:0:
