osu file format v14

[General]
AudioFilename: audio.mp3
AudioLeadIn: 0
PreviewTime: 58952
Countdown: 0
SampleSet: Soft
StackLeniency: 0.3
Mode: 0
LetterboxInBreaks: 0
WidescreenStoryboard: 1

[Editor]
DistanceSpacing: 2
BeatDivisor: 4
GridSize: 16
TimelineZoom: 2

[Metadata]
Title:Sky of the Ocean
TitleUnicode:Sky of the Ocean
Artist:Memme
ArtistUnicode:Memme
Creator:Syph
Version:Loli's Extra.
Source:O2Jam U
Tags:parkmemme m2u cheesecake [c_u_r_i] -tochi snownino_ emilia xlolicore- hikaru_rose moecho moeri derandom_otaku
BeatmapID:1429745
BeatmapSetID:668888

[Difficulty]
HPDrainRate:6
CircleSize:3.8
OverallDifficulty:8
ApproachRate:9.4
SliderMultiplier:1.9
SliderTickRate:1

[Events]
//Background and Video events
0,0,"bg.jpg",0,0
//Break Periods
2,117061,122567
//Storyboard Layer 0 (Background)
//Storyboard Layer 1 (Fail)
//Storyboard Layer 2 (Pass)
//Storyboard Layer 3 (Foreground)
//Storyboard Sound Samples

[TimingPoints]
1035,260.869565217391,3,2,1,30,1,0
3382,-100,3,2,1,40,0,0
4165,-100,3,2,1,70,0,0
10426,-125,3,2,1,70,0,0
10687,-125,3,2,0,30,0,0
11730,-125,3,2,0,30,0,0
11991,-142.857142857143,3,2,1,70,0,0
13295,-142.857142857143,3,2,1,30,0,0
13556,-142.857142857143,3,2,1,70,0,0
14861,-142.857142857143,3,2,1,30,0,0
15121,-142.857142857143,3,2,1,70,0,0
16426,-142.857142857143,3,2,1,30,0,0
16687,-142.857142857143,3,2,1,70,0,0
19556,-142.857142857143,3,2,1,30,0,0
19817,-142.857142857143,3,2,1,70,0,0
22687,-142.857142857143,3,2,1,30,0,0
22948,-142.857142857143,3,2,1,70,0,0
24513,-111.111111111111,3,2,1,70,0,0
37034,-90.9090909090909,3,2,1,70,0,0
58426,-111.111111111111,3,2,1,70,0,0
58948,-90.9090909090909,3,2,1,70,0,1
70882,-90.9090909090909,3,2,1,70,0,1
70948,-90.9090909090909,3,2,1,70,0,1
71143,-90.9090909090909,3,2,1,70,0,1
71208,-90.9090909090909,3,2,1,70,0,1
83730,-125,3,2,1,70,0,1
83991,-100,3,2,1,70,0,0
89991,-76.9230769230769,3,2,1,70,0,0
90252,-100,3,2,1,70,0,0
91817,-76.9230769230769,3,2,1,70,0,1
92274,-76.9230769230769,3,2,1,5,0,1
92339,-76.9230769230769,3,2,1,70,0,1
92404,-76.9230769230769,3,2,1,5,0,1
92469,-76.9230769230769,3,2,1,70,0,1
92534,-76.9230769230769,3,2,1,5,0,1
92600,-71.4285714285714,3,2,1,70,0,1
92795,-71.4285714285714,3,2,1,5,0,1
92861,-83.3333333333333,3,2,1,70,0,1
93056,-83.3333333333333,3,2,1,5,0,1
93121,-100,3,2,1,70,0,1
93317,-100,3,2,1,5,0,1
93382,-71.4285714285714,3,2,1,70,0,1
93643,-83.3333333333333,3,2,1,70,0,1
93708,-83.3333333333333,3,2,1,70,0,1
93774,-83.3333333333333,3,2,1,70,0,1
93839,-83.3333333333333,3,2,1,70,0,1
93904,-90.9090909090909,3,2,1,70,0,1
94165,-76.9230769230769,3,2,1,70,0,1
94621,-76.9230769230769,3,2,1,5,0,1
94687,-76.9230769230769,3,2,1,70,0,1
94882,-76.9230769230769,3,2,1,5,0,1
94948,-76.9230769230769,3,2,1,70,0,1
95404,-76.9230769230769,3,2,1,5,0,1
95469,-76.9230769230769,3,2,1,70,0,1
95534,-76.9230769230769,3,2,1,5,0,1
95600,-76.9230769230769,3,2,1,70,0,1
95665,-76.9230769230769,3,2,1,5,0,1
95730,-71.4285714285714,3,2,1,70,0,1
95926,-71.4285714285714,3,2,1,5,0,1
95991,-83.3333333333333,3,2,1,70,0,1
96187,-83.3333333333333,3,2,1,5,0,1
96252,-100,3,2,1,70,0,1
96448,-100,3,2,1,5,0,1
96513,-100,3,2,1,70,0,1
96578,-100,3,2,1,70,0,1
96643,-100,3,2,1,70,0,1
96708,-100,3,2,1,70,0,1
96774,-111.111111111111,3,2,1,70,0,1
96969,-111.111111111111,3,2,1,5,0,1
97034,-100,3,2,1,70,0,1
97295,-83.3333333333333,3,2,1,70,0,1
97556,-90.9090909090909,3,2,1,70,0,1
97817,-125,3,2,1,70,0,1
98078,-76.9230769230769,3,2,1,70,0,1
98534,-76.9230769230769,3,2,1,5,0,1
98600,-76.9230769230769,3,2,1,70,0,1
98665,-76.9230769230769,3,2,1,5,0,1
98730,-76.9230769230769,3,2,1,70,0,1
98795,-76.9230769230769,3,2,1,5,0,1
98861,-71.4285714285714,3,2,1,70,0,1
99056,-71.4285714285714,3,2,1,5,0,1
99121,-83.3333333333333,3,2,1,70,0,1
99317,-83.3333333333333,3,2,1,5,0,1
99382,-100,3,2,1,70,0,1
99578,-100,3,2,1,5,0,1
99643,-71.4285714285714,3,2,1,70,0,1
99904,-83.3333333333333,3,2,1,70,0,1
99969,-83.3333333333333,3,2,1,70,0,1
100034,-83.3333333333333,3,2,1,70,0,1
100100,-83.3333333333333,3,2,1,70,0,1
100165,-90.9090909090909,3,2,1,70,0,1
100426,-76.9230769230769,3,2,1,70,0,1
100882,-76.9230769230769,3,2,1,5,0,1
100948,-76.9230769230769,3,2,1,70,0,1
101665,-76.9230769230769,3,2,1,5,0,1
101730,-76.9230769230769,3,2,1,70,0,1
101795,-76.9230769230769,3,2,1,5,0,1
101861,-76.9230769230769,3,2,1,70,0,1
101926,-76.9230769230769,3,2,1,5,0,1
101991,-200,3,2,1,70,0,1
102056,-200,3,2,1,20,0,1
102708,-200,3,2,1,5,0,1
102774,-100,3,2,1,70,0,0
104339,-71.4285714285714,3,2,1,70,0,1
104534,-71.4285714285714,3,2,1,5,0,1
104600,-100,3,2,1,70,0,1
104795,-100,3,2,1,5,0,1
104861,-100,3,2,1,70,0,1
104926,-100,3,2,1,5,0,1
104991,-100,3,2,1,70,0,1
105056,-100,3,2,1,5,0,1
105121,-90.9090909090909,3,2,1,70,0,1
105317,-90.9090909090909,3,2,1,5,0,1
105382,-76.9230769230769,3,2,1,70,0,1
105578,-76.9230769230769,3,2,1,5,0,1
105643,-125,3,2,1,70,0,1
105839,-125,3,2,1,5,0,1
105904,-83.3333333333333,3,2,1,70,0,1
106100,-83.3333333333333,3,2,1,5,0,1
106165,-71.4285714285714,3,2,1,70,0,1
106230,-71.4285714285714,3,2,1,70,0,1
106295,-71.4285714285714,3,2,1,70,0,1
106361,-71.4285714285714,3,2,1,70,0,1
106426,-66.6666666666667,3,2,1,70,0,1
106687,-76.9230769230769,3,2,1,70,0,1
107143,-76.9230769230769,3,2,1,70,0,1
107208,-76.9230769230769,3,2,1,70,0,1
107469,-83.3333333333333,3,2,1,70,0,1
107665,-83.3333333333333,3,2,1,5,0,1
107730,-100,3,2,1,70,0,1
107926,-100,3,2,1,5,0,1
107991,-100,3,2,1,70,0,1
108056,-100,3,2,1,5,0,1
108121,-100,3,2,1,70,0,1
108187,-100,3,2,1,5,0,1
108252,-90.9090909090909,3,2,1,70,0,1
108448,-90.9090909090909,3,2,1,5,0,1
108513,-76.9230769230769,3,2,1,70,0,1
108708,-76.9230769230769,3,2,1,5,0,1
108774,-125,3,2,1,70,0,1
108969,-125,3,2,1,5,0,1
109034,-83.3333333333333,3,2,1,70,0,1
109295,-76.9230769230769,3,2,1,70,0,1
109491,-76.9230769230769,3,2,1,5,0,1
109556,-100,3,2,1,70,0,1
109752,-100,3,2,1,5,0,1
109817,-83.3333333333333,3,2,1,70,0,1
110274,-83.3333333333333,3,2,1,5,0,1
110339,-83.3333333333333,3,2,1,70,0,1
110404,-83.3333333333333,3,2,1,5,0,1
110469,-83.3333333333333,3,2,1,70,0,1
110600,-71.4285714285714,3,2,1,70,0,1
110795,-71.4285714285714,3,2,1,5,0,1
110861,-71.4285714285714,3,2,1,70,0,1
111056,-71.4285714285714,3,2,1,5,0,1
111121,-71.4285714285714,3,2,1,70,0,1
111187,-71.4285714285714,3,2,1,5,0,1
111252,-71.4285714285714,3,2,1,70,0,1
111317,-71.4285714285714,3,2,1,5,0,1
111382,-90.9090909090909,3,2,1,70,0,1
111578,-90.9090909090909,3,2,1,5,0,1
111643,-76.9230769230769,3,2,1,70,0,1
111839,-76.9230769230769,3,2,1,5,0,1
111904,-125,3,2,1,70,0,1
112100,-125,3,2,1,5,0,1
112165,-83.3333333333333,3,2,1,70,0,1
112426,-71.4285714285714,3,2,1,70,0,1
112491,-71.4285714285714,3,2,1,70,0,1
112556,-71.4285714285714,3,2,1,70,0,1
112621,-71.4285714285714,3,2,1,70,0,1
112687,-66.6666666666667,3,2,1,70,0,1
112948,-76.9230769230769,3,2,1,70,0,1
113404,-76.9230769230769,3,2,1,70,0,1
113469,-76.9230769230769,3,2,1,70,0,1
113730,-83.3333333333333,3,2,1,70,0,1
113926,-83.3333333333333,3,2,1,5,0,1
113991,-76.9230769230769,3,2,1,70,0,1
114187,-76.9230769230769,3,2,1,5,0,1
114252,-76.9230769230769,3,2,1,70,0,1
114317,-76.9230769230769,3,2,1,5,0,1
114382,-76.9230769230769,3,2,1,70,0,1
114448,-76.9230769230769,3,2,1,5,0,1
114513,-100,3,2,1,70,0,1
114708,-100,3,2,1,5,0,1
114774,-83.3333333333333,3,2,1,70,0,1
114969,-83.3333333333333,3,2,1,5,0,1
115034,-71.4285714285714,3,2,1,70,0,1
115230,-71.4285714285714,3,2,1,5,0,1
115295,-100,3,2,1,70,0,0
116861,-100,3,2,1,70,0,0
123121,-142.857142857143,3,2,1,70,0,0
126252,-83.3333333333333,3,2,1,70,0,0
129121,-100,3,2,1,70,0,0
129382,-90.9090909090909,3,2,1,70,0,1
141643,-125,3,2,1,70,0,1
141904,-100,3,2,1,70,0,0
148165,-125,3,2,0,30,0,0
148426,-125,3,2,0,30,0,0
149730,-125,3,2,0,30,0,0
152078,-125,3,2,0,30,0,0
155208,-125,3,2,0,5,0,0

[Colours]
Combo1 : 82,179,186
Combo2 : 112,142,173
Combo3 : 115,157,155
Combo4 : 16,154,237
Combo5 : 33,199,222
Combo6 : 73,141,197

[HitObjects]
111,114,3382,6,0,B|160:99|160:99|228:116,1,95,8|0,0:3|0:0,0:0:0:0:
242,126,3578,1,0,1:0:0:0:
242,126,3643,1,0,1:0:0:0:
94,207,3774,1,0,0:0:0:0:
275,289,3904,2,0,P|286:237|261:180,1,95,0|0,0:0|0:0,0:0:0:0:
210,377,4165,6,0,L|314:373,1,95,2|0,0:0|0:0,0:0:0:0:
459,300,4426,2,0,B|473:251|473:251|456:186,1,95,0|0,1:0|0:0,0:0:0:0:
424,34,4687,1,0,0:0:0:0:
424,34,4752,1,0,0:0:0:0:
424,34,4817,2,0,L|487:40,1,47.5,0|0,1:0|0:0,0:0:0:0:
426,111,4948,6,0,B|360:106|360:106|300:131|300:131|223:124,1,190,8|0,0:0|1:0,0:0:0:0:
133,18,5339,1,0,0:0:0:0:
68,156,5469,2,0,L|72:269,1,95,0|0,0:0|1:0,0:0:0:0:
28,333,5730,6,0,P|139:318|161:229,1,190,2|0,0:0|0:0,0:0:0:0:
68,156,6121,1,0,1:0:0:0:
72,251,6252,2,0,L|68:156,1,95,0|0,0:0|1:0,0:0:0:0:
191,33,6513,6,0,L|185:127,1,95,8|0,0:0|0:0,0:0:0:0:
273,232,6774,2,0,P|322:246|391:217,1,95,0|0,1:0|0:0,0:0:0:0:
501,183,7034,1,2,0:0:0:0:
320,137,7165,1,0,0:0:0:0:
409,279,7295,6,0,B|397:203|397:203|419:158|419:158|406:71,1,190,6|0,0:0|1:0,0:0:0:0:
321,42,7687,1,0,1:0:0:0:
321,42,7817,2,0,L|319:154,1,95,0|0,0:0|1:0,0:0:0:0:
472,191,8078,6,0,B|368:165|385:247|282:221,1,190,8|0,0:0|0:0,0:0:0:0:
319,136,8469,1,0,1:0:0:0:
437,282,8600,2,0,L|435:387,1,95,0|0,0:0|1:0,0:0:0:0:
222,243,8861,6,0,B|211:94|211:94|253:139,1,190,2|0,0:0|1:0,0:0:0:0:
293,290,9252,2,0,P|243:324|185:318,1,95,8|2,0:0|0:0,0:0:0:0:
91,259,9513,1,2,0:0:0:0:
305,182,9643,5,8,0:0:0:0:
125,142,9774,1,0,1:0:0:0:
307,71,9904,1,2,0:0:0:0:
222,243,10034,1,0,0:0:0:0:
188,34,10165,1,4,0:0:0:0:
91,259,10426,6,0,L|95:357,1,76,0|0,0:0|0:0,0:0:0:0:
218,167,10687,2,0,L|222:265,1,76,0|2,0:0|0:0,0:0:0:0:
49,110,10948,2,0,L|53:208,1,76,0|0,1:0|0:0,0:0:0:0:
215,19,11208,5,8,0:3:0:0:
218,167,11339,1,0,0:0:0:0:
218,167,11404,1,0,1:0:0:0:
218,167,11469,2,0,P|265:176|313:156,1,76,0|2,1:0|0:0,0:0:0:0:
432,94,11730,6,0,L|429:58,5,25.3333333333333,0|0|0|0|0|0,0:0|0:0|0:0|0:0|0:0|0:0,0:0:0:0:
487,155,11991,6,0,L|482:297,2,132.999995941162,6|0|0,1:2|0:0|0:0,0:0:0:0:
348,88,12643,1,0,0:0:0:0:
348,88,12774,6,0,P|310:82|261:98,1,66.4999979705811,0|0,1:0|0:0,0:0:0:0:
185,137,13034,2,0,P|147:143|98:127,1,66.4999979705811,0|0,0:0|0:0,0:0:0:0:
151,46,13295,1,4,0:0:0:0:
254,178,13556,6,0,P|264:138|255:98,1,66.4999979705811,0|0,0:0|0:0,0:0:0:0:
153,227,13817,2,0,P|150:259|159:291,1,66.4999979705811,0|0,0:0|0:0,0:0:0:0:
344,253,14078,2,0,L|260:251,1,66.4999979705811,0|0,0:0|0:0,0:0:0:0:
244,256,14274,1,0,0:0:0:0:
244,256,14339,5,0,1:0:0:0:
402,191,14600,1,0,0:0:0:0:
402,191,14861,2,0,P|425:231|423:280,1,66.4999979705811,4|0,0:0|0:0,0:0:0:0:
348,381,15121,6,0,B|329:318|329:318|347:234,1,132.999995941162,0|0,0:0|0:0,0:0:0:0:
465,131,15513,1,0,0:0:0:0:
465,131,15643,2,0,P|471:82|458:46,1,66.4999979705811,0|0,0:0|0:0,0:0:0:0:
309,99,15904,6,0,L|376:96,1,66.4999979705811,0|0,1:0|0:0,0:0:0:0:
222,0,16165,2,0,P|217:35|222:70,1,66.4999979705811,0|0,0:0|0:0,0:0:0:0:
280,173,16426,2,0,P|285:208|280:243,1,66.4999979705811,4|0,0:0|0:0,0:0:0:0:
180,331,16687,6,0,L|35:324,2,132.999995941162,0|0|0,0:0|0:0|0:0,0:0:0:0:
345,339,17339,1,0,0:0:0:0:
345,339,17404,1,0,0:0:0:0:
345,339,17469,5,0,1:0:0:0:
345,339,17991,2,0,L|434:331,1,66.4999979705811,0|0,0:0|0:0,0:0:0:0:
498,384,18252,6,0,P|510:307|409:232,1,199.499993911743,0|0,0:0|0:0,0:0:0:0:
345,339,18774,2,0,L|439:332,1,66.4999979705811,0|0,0:0|0:0,0:0:0:0:
291,188,19034,6,0,B|320:290|229:269|262:380,1,199.499993911743,0|0,1:0|0:0,0:0:0:0:
205,222,19556,2,0,P|196:172|214:130,1,66.4999979705811,4|0,0:0|0:0,0:0:0:0:
285,73,19817,6,0,L|430:65,2,132.999995941162,0|0|0,0:0|0:0|0:0,0:0:0:0:
135,87,20469,1,0,0:0:0:0:
135,87,20600,6,0,P|93:76|49:84,1,66.4999979705811,0|0,1:0|0:0,0:0:0:0:
199,157,20861,2,0,P|232:158|262:170,1,66.4999979705811,0|0,0:0|0:0,0:0:0:0:
100,227,21121,2,0,P|57:233|19:257,1,66.4999979705811,0|0,0:0|0:0,0:0:0:0:
90,319,21382,6,0,P|171:328|234:285,2,132.999995941162,0|0|0,0:0|1:0|0:0,0:0:0:0:
141,214,22034,1,0,0:0:0:0:
141,214,22165,6,0,L|144:126,1,66.4999979705811,0|0,1:0|0:0,0:0:0:0:
237,42,22426,2,0,L|239:108,1,66.4999979705811,0|0,0:0|0:0,0:0:0:0:
298,203,22687,2,0,P|337:209|380:194,1,66.4999979705811,4|0,0:0|0:0,0:0:0:0:
429,121,22948,5,0,3:0:0:0:
429,121,23078,2,0,L|342:115,1,66.4999979705811,0|0,1:0|0:0,0:0:0:0:
239,108,23339,1,2,1:3:0:0:
387,203,23469,1,0,0:0:0:0:
312,39,23600,1,0,3:0:0:0:
405,240,23730,6,0,B|414:328|414:328|399:375,1,132.999995941162,0|8,1:0|0:3,0:0:0:0:
494,248,24252,2,0,P|469:175|428:158,1,99.7499969558717,0|0,0:0|0:0,0:0:0:0:
424,132,24513,6,0,L|316:137,1,85.4999973907472,2|0,0:0|0:0,0:0:0:0:
231,271,24774,2,0,L|339:276,1,85.4999973907472,0|0,0:0|0:0,0:0:0:0:
405,240,25034,1,0,0:0:0:0:
260,184,25165,6,0,B|249:137|249:137|260:82|260:81,1,85.4999973907472,0|0,0:0|1:0,0:0:0:0:
396,7,25426,1,0,0:0:0:0:
396,7,25556,2,0,P|394:106|308:132,1,170.999994781494,0|2,0:0|0:3,0:0:0:0:
178,107,25948,1,0,0:0:0:0:
260,184,26078,6,0,L|265:82,1,85.4999973907472,0|0,0:0|0:0,0:0:0:0:
182,273,26339,2,0,L|177:171,1,85.4999973907472,0|0,0:0|0:0,0:0:0:0:
291,369,26600,1,0,0:0:0:0:
124,333,26730,1,0,0:0:0:0:
257,279,26861,6,0,B|352:252|336:329|440:300,1,170.999994781494,0|2,1:0|0:3,0:0:0:0:
476,196,27382,2,0,P|435:190|397:209,1,85.4999973907472,0|0,0:0|0:0,0:0:0:0:
291,369,27643,6,0,B|286:313|286:313|304:270|304:270|298:190,1,170.999994781494,2|0,0:0|0:0,0:0:0:0:
457,327,28034,1,0,0:0:0:0:
457,327,28165,2,0,L|364:332,1,85.4999973907472,0|0,0:0|0:0,0:0:0:0:
130,245,28426,6,0,L|223:250,1,85.4999973907472,0|0,1:0|0:0,0:0:0:0:
354,231,28687,1,0,0:0:0:0:
291,369,28817,1,0,0:0:0:0:
372,189,28948,2,0,L|366:84,1,85.4999973907472,2|0,0:3|0:0,0:0:0:0:
310,23,29208,6,0,P|387:7|459:69,2,170.999994781494,0|0|0,0:0|0:0|0:0,0:0:0:0:
200,105,29861,1,0,0:0:0:0:
179,100,29926,1,0,0:0:0:0:
157,96,29991,6,0,B|149:232|149:232|180:194,1,170.999994781494,0|0,1:0|0:0,0:0:0:0:
316,108,30382,1,0,1:0:0:0:
316,108,30513,2,0,L|309:13,1,85.4999973907472,2|0,0:3|0:0,0:0:0:0:
170,205,30774,6,0,B|230:201|230:201|285:220|285:220|336:216,1,170.999994781494,4|0,0:0|0:0,0:0:0:0:
224,362,31165,1,0,0:0:0:0:
224,362,31295,2,0,B|210:315|210:315|224:265,1,85.4999973907472,0|0,0:0|0:0,0:0:0:0:
296,139,31556,6,0,P|307:90|284:42,1,85.4999973907472,0|0,1:0|0:0,0:0:0:0:
167,0,31817,2,0,L|65:7,1,85.4999973907472,0|0,0:0|0:0,0:0:0:0:
142,93,32078,2,0,L|228:98,1,85.4999973907472,2|0,0:3|0:0,0:0:0:0:
293,164,32339,6,0,P|318:72|261:11,1,170.999994781494,4|0,0:0|0:0,0:0:0:0:
224,211,32730,1,0,1:0:0:0:
387,168,32861,2,0,L|489:172,1,85.4999973907472,2|0,0:3|0:0,0:0:0:0:
293,289,33121,6,0,L|191:293,1,85.4999973907472,0|0,1:0|0:0,0:0:0:0:
447,350,33382,2,0,P|457:302|437:253,1,85.4999973907472,0|0,1:0|0:0,0:0:0:0:
225,129,33643,2,0,P|213:170|227:216,1,85.4999973907472,0|0,0:0|0:0,0:0:0:0:
452,139,33904,6,0,B|360:115|374:189|292:171,1,170.999994781494,4|0,0:0|1:0,0:0:0:0:
314,95,34295,1,0,3:0:0:0:
420,217,34426,2,0,L|416:318,1,85.4999973907472,0|0,0:0|3:0,0:0:0:0:
311,368,34687,6,0,P|256:376|214:356,1,85.4999973907472,0|0,1:0|0:0,0:0:0:0:
416,302,34948,2,0,L|529:307,1,85.4999973907472,0|0,0:0|1:0,0:0:0:0:
271,200,35208,2,0,B|264:249|264:249|271:285,1,85.4999973907472,2|0,0:3|0:0,0:0:0:0:
452,139,35469,5,0,0:0:0:0:
452,139,35600,2,0,P|469:72|423:4,1,128.249996086121,0|0,1:0|0:0,0:0:0:0:
406,1,35861,1,2,0:3:0:0:
350,156,35991,2,0,L|355:268,1,85.4999973907472,0|0,0:0|0:0,0:0:0:0:
247,354,36252,5,8,0:3:0:0:
353,241,36382,1,0,0:0:0:0:
224,193,36513,1,2,0:0:0:0:
428,267,36643,1,2,0:0:0:0:
253,266,36774,1,0,1:0:0:0:
387,134,36904,1,0,1:0:0:0:
275,34,37034,6,0,B|261:85|261:85|280:159,1,104.500003189087,6|0,0:0|0:0,0:0:0:0:
454,185,37295,2,0,P|471:127|436:67,1,104.500003189087,0|0,1:0|0:0,0:0:0:0:
253,266,37556,2,0,L|372:273,1,104.500003189087,0|0,1:0|1:0,0:0:0:0:
486,349,37817,6,0,P|424:365|367:344,1,104.500003189087,8|0,0:0|1:0,0:0:0:0:
273,194,38078,1,0,1:0:0:0:
212,364,38208,1,0,0:0:0:0:
355,194,38339,2,0,L|350:81,1,104.500003189087,2|0,0:0|1:0,0:0:0:0:
256,26,38600,6,0,B|177:22|177:22|127:49|127:49|35:45,1,209.000006378174,2|0,0:0|1:0,0:0:0:0:
202,122,38991,1,0,0:0:0:0:
202,122,39056,1,0,0:0:0:0:
202,122,39121,2,0,L|200:245,1,104.500003189087,0|0,1:0|0:0,0:0:0:0:
51,360,39382,6,0,L|47:229,1,104.500003189087,8|0,0:0|0:0,0:0:0:0:
101,130,39643,2,0,P|156:113|217:129,1,104.500003189087,0|0,1:0|1:0,0:0:0:0:
336,184,39904,1,2,0:0:0:0:
293,42,40034,1,0,0:0:0:0:
347,218,40165,6,0,L|345:331,1,104.500003189087,6|0,0:0|0:0,0:0:0:0:
509,134,40426,2,0,B|457:121|457:121|401:137,1,104.500003189087,0|0,1:0|1:0,0:0:0:0:
258,220,40687,2,0,P|197:242|142:212,1,104.500003189087,0|0,1:0|0:0,0:0:0:0:
211,103,40948,6,0,B|317:65|299:162|407:134,1,209.000006378174,8|0,0:0|1:0,0:0:0:0:
371,47,41339,1,0,0:0:0:0:
254,177,41469,2,0,P|198:187|147:162,1,104.500003189087,2|0,0:3|0:0,0:0:0:0:
65,16,41730,6,0,B|52:69|52:69|76:131,1,104.500003189087,6|0,0:0|0:0,0:0:0:0:
211,103,41991,2,0,P|263:91|330:144,1,104.500003189087,0|0,1:0|1:0,0:0:0:0:
157,273,42252,2,0,L|154:147,1,104.500003189087,0|0,1:0|0:0,0:0:0:0:
322,310,42513,6,0,B|210:276|237:376|124:354,1,209.000006378174,8|2,0:0|0:0,0:0:0:0:
58,273,42904,1,0,0:0:0:0:
58,273,43034,2,0,P|114:258|176:289,1,104.500003189087,2|0,0:0|0:0,0:0:0:0:
283,380,43295,6,0,L|278:260,1,104.500003189087,6|0,0:0|0:0,0:0:0:0:
403,85,43556,2,0,L|401:210,1,104.500003189087,0|0,0:0|1:0,0:0:0:0:
184,111,43817,2,0,P|239:95|290:112,1,104.500003189087,0|0,0:0|1:0,0:0:0:0:
368,283,44078,6,0,P|270:279|236:184,1,209.000006378174,8|0,0:0|1:0,0:0:0:0:
403,85,44469,1,0,0:0:0:0:
403,85,44600,2,0,L|467:90,1,52.2500015945435,0|0,1:0|0:0,0:0:0:0:
375,200,44730,2,0,L|323:205,1,52.2500015945435,0|0,0:0|0:0,0:0:0:0:
248,68,44861,6,0,P|174:26|183:110,1,209.000006378174,2|0,0:0|0:0,0:0:0:0:
323,205,45252,1,0,1:0:0:0:
323,205,45382,2,0,P|339:264|322:323,1,104.500003189087,0|0,0:0|1:0,0:0:0:0:
150,267,45643,5,8,0:0:0:0:
150,267,45774,2,0,L|272:260,1,104.500003189087,0|0,0:0|1:0,0:0:0:0:
409,164,46034,1,0,1:0:0:0:
398,333,46165,1,2,0:0:0:0:
323,205,46295,1,0,0:0:0:0:
323,205,46361,1,0,0:0:0:0:
323,205,46426,6,0,B|332:43|332:43|359:103,1,209.000006378174,6|0,0:0|1:0,0:0:0:0:
398,333,46817,1,0,0:0:0:0:
249,198,46948,2,0,B|257:72,1,104.500003189087,0|0,0:0|0:0,0:0:0:0:
451,246,47208,6,0,P|390:254|339:221,1,104.500003189087,8|0,0:0|0:0,0:0:0:0:
178,141,47469,2,0,B|165:193|165:193|181:249,1,104.500003189087,0|0,1:0|0:0,0:0:0:0:
409,151,47730,2,0,L|403:39,1,104.500003189087,0|0,1:0|0:0,0:0:0:0:
297,258,47991,6,0,B|455:245|455:245|401:268,1,209.000006378174,6|0,0:0|0:0,0:0:0:0:
202,375,48382,2,0,P|183:321|215:254,1,104.500003189087,8|2,0:0|0:0,0:0:0:0:
283,160,48643,1,2,0:0:0:0:
301,336,48774,6,0,L|367:331,1,52.2500015945435,8|0,0:0|0:0,0:0:0:0:
195,277,49034,6,0,L|124:272,1,52.2500015945435,8|0,0:0|0:0,0:0:0:0:
337,179,49295,6,0,L|400:174,1,52.2500015945435,6|0,0:0|0:0,0:0:0:0:
159,31,49556,6,0,P|141:81|160:141,1,104.500003189087,6|0,0:0|0:0,0:0:0:0:
278,345,49817,2,0,L|280:226,1,104.500003189087,0|0,0:0|1:0,0:0:0:0:
403,94,50078,2,0,B|345:83|345:83|278:93,1,104.500003189087,0|0,1:0|0:0,0:0:0:0:
0,203,50339,6,0,B|234:211,1,209.000006378174,8|0,0:0|1:0,0:0:0:0:
349,166,50730,1,0,0:0:0:0:
422,280,50861,2,0,L|418:389,1,104.500003189087,0|0,0:0|0:0,0:0:0:0:
305,231,51121,6,0,P|278:132|372:90,1,209.000006378174,2|0,0:0|1:0,0:0:0:0:
424,279,51643,1,0,1:0:0:0:
424,279,51904,6,0,B|342:272|342:272|293:299|293:299|188:289,1,209.000006378174,8|2,0:0|0:3,0:0:0:0:
275,197,52295,1,0,1:0:0:0:
369,364,52426,2,0,L|491:356,1,104.500003189087,2|0,0:0|0:0,0:0:0:0:
137,238,52687,6,0,P|123:296|148:360,1,104.500003189087,2|0,0:0|0:0,0:0:0:0:
424,279,52948,2,0,L|418:159,1,104.500003189087,0|0,0:0|1:0,0:0:0:0:
247,63,53208,1,0,0:0:0:0:
247,63,53469,6,0,P|353:81|458:25,2,209.000006378174,8|0|2,0:0|1:0|0:3,0:0:0:0:
117,4,54121,1,0,0:0:0:0:
117,4,54252,6,0,L|120:121,1,104.500003189087,2|0,0:0|0:0,0:0:0:0:
195,237,54513,1,0,1:0:0:0:
54,187,54643,1,0,0:0:0:0:
219,136,54774,2,0,L|350:129,1,104.500003189087,0|0,0:0|1:0,0:0:0:0:
473,136,55034,6,0,P|485:77|462:17,1,104.500003189087,8|0,0:0|0:0,0:0:0:0:
323,231,55295,2,0,P|311:172|334:112,1,104.500003189087,0|0,1:0|0:0,0:0:0:0:
495,286,55556,1,2,0:0:0:0:
320,347,55817,6,0,L|196:343,2,104.500003189087,6|0|0,0:0|0:0|0:0,0:0:0:0:
408,215,56208,6,0,L|529:209,2,104.500003189087,2|8|0,0:0|0:0|0:0,0:0:0:0:
238,240,56600,5,6,0:0:0:0:
420,294,56730,1,0,0:0:0:0:
354,119,56861,1,0,0:0:0:0:
322,234,56991,5,2,0:0:0:0:
456,133,57121,1,8,0:0:0:0:
289,83,57252,1,0,0:0:0:0:
512,155,57382,5,6,0:0:0:0:
324,174,57513,1,0,0:0:0:0:
407,14,57643,1,2,0:0:0:0:
463,221,57774,6,0,L|461:343,2,104.500003189087,8|2|0,0:0|0:0|0:0,0:0:0:0:
378,138,58165,1,2,0:0:0:0:
305,307,58295,1,0,0:0:0:0:
221,210,58426,6,0,B|215:153|215:153|234:103|234:103|228:26,1,170.999994781494,0|2,1:0|0:0,0:0:0:0:
47,95,58948,6,0,B|101:80|101:80|174:88,1,104.500003189087,6|0,0:0|1:0,0:0:0:0:
325,202,59208,2,0,L|196:211,1,104.500003189087,0|0,0:0|1:0,0:0:0:0:
40,316,59469,1,0,1:0:0:0:
104,168,59600,1,0,0:0:0:0:
195,291,59730,6,0,L|328:281,1,104.500003189087,8|0,0:0|1:0,0:0:0:0:
149,85,59991,2,0,L|16:75,1,104.500003189087,0|0,0:0|1:0,0:0:0:0:
220,209,60252,1,0,1:0:0:0:
257,68,60382,1,0,0:0:0:0:
211,248,60513,6,0,B|282:241|282:241|331:263|331:263|437:254,1,209.000006378174,2|0,0:0|1:0,0:0:0:0:
348,77,60904,1,0,0:0:0:0:
348,77,61034,2,0,L|344:198,1,104.500003189087,0|0,1:0|1:0,0:0:0:0:
128,317,61295,6,0,L|125:186,1,104.500003189087,8|0,0:0|0:0,0:0:0:0:
361,313,61556,2,0,B|310:325|310:325|241:308,1,104.500003189087,0|0,0:0|0:0,0:0:0:0:
116,176,61817,1,2,0:0:0:0:
128,317,61948,1,0,0:0:0:0:
112,137,62078,6,0,P|164:121|217:132,1,104.500003189087,6|0,0:0|0:0,0:0:0:0:
361,313,62339,2,0,L|357:195,1,104.500003189087,0|0,1:0|0:0,0:0:0:0:
274,73,62600,1,0,0:0:0:0:
166,217,62730,1,0,1:0:0:0:
191,22,62861,6,0,B|178:75|178:75|193:140,1,104.500003189087,8|0,0:0|0:0,0:0:0:0:
351,244,63121,2,0,L|490:237,1,104.500003189087,0|0,1:0|0:0,0:0:0:0:
301,100,63382,1,0,1:0:0:0:
244,267,63513,1,0,0:0:0:0:
402,154,63643,6,0,L|403:32,1,104.500003189087,2|0,0:0|0:0,0:0:0:0:
448,274,63904,1,0,1:0:0:0:
277,226,64034,1,0,0:0:0:0:
465,97,64165,2,0,P|488:152|468:212,1,104.500003189087,0|0,1:0|0:0,0:0:0:0:
282,377,64426,6,0,L|278:253,1,104.500003189087,8|0,0:0|0:0,0:0:0:0:
338,112,64687,1,2,0:0:0:0:
176,187,64817,1,0,0:0:0:0:
357,229,64948,2,0,L|474:222,1,104.500003189087,2|0,0:0|0:0,0:0:0:0:
191,110,65208,6,0,L|74:103,1,104.500003189087,6|0,0:0|0:0,0:0:0:0:
326,12,65469,2,0,P|345:79|325:133,1,104.500003189087,0|0,1:0|1:0,0:0:0:0:
247,253,65730,1,0,0:0:0:0:
191,110,65861,1,0,1:0:0:0:
265,294,65991,6,0,L|390:288,1,104.500003189087,8|0,0:0|0:0,0:0:0:0:
146,242,66252,2,0,B|135:295|135:295|146:355,1,104.500003189087,0|0,1:0|1:0,0:0:0:0:
284,157,66513,1,0,1:0:0:0:
345,362,66643,1,0,0:0:0:0:
201,170,66774,6,0,P|212:112|267:75,1,104.500003189087,2|0,0:0|0:0,0:0:0:0:
366,58,67034,1,0,1:0:0:0:
310,246,67165,1,0,1:0:0:0:
139,79,67295,2,0,L|264:83,1,104.500003189087,0|0,0:0|1:0,0:0:0:0:
434,226,67556,6,0,P|321:231|284:152,1,209.000006378174,8|0,0:0|1:0,0:0:0:0:
326,0,67948,1,0,0:0:0:0:
373,158,68078,1,2,0:0:0:0:
244,36,68208,1,0,0:0:0:0:
179,161,68339,6,0,L|310:154,2,104.500003189087,6|0|0,0:0|1:0|0:0,0:0:0:0:
109,283,68730,2,0,L|-22:276,2,104.500003189087,2|8|0,0:0|0:0|1:0,0:0:0:0:
242,297,69121,5,6,0:0:0:0:
126,184,69252,1,0,1:0:0:0:
283,155,69382,1,0,0:0:0:0:
109,283,69513,5,2,0:0:0:0:
199,101,69643,1,8,0:0:0:0:
243,349,69774,1,0,1:0:0:0:
387,151,69904,6,0,L|262:155,2,104.500003189087,2|0|0,0:0|1:0|0:0,0:0:0:0:
478,126,70295,5,8,0:0:0:0:
359,252,70426,1,2,0:0:0:0:
333,30,70556,1,0,1:0:0:0:
438,200,70687,6,0,P|453:255|396:339,1,156.750004783631,8|0,0:0|0:0,0:0:0:0:
316,337,70948,2,0,P|269:276|281:201,1,156.750004783631,12|0,0:0|0:0,0:0:0:0:
332,123,71208,5,2,0:0:0:0:
205,27,71339,1,0,0:0:0:0:
364,147,71469,6,0,L|358:260,1,104.500003189087,2|0,0:0|0:0,0:0:0:0:
174,361,71730,2,0,B|162:305|162:305|175:232,1,104.500003189087,0|0,1:0|0:0,0:0:0:0:
208,100,71991,1,0,1:0:0:0:
73,208,72121,1,0,0:0:0:0:
238,78,72252,6,0,P|255:137|240:193,1,104.500003189087,8|0,0:0|1:0,0:0:0:0:
170,258,72513,2,0,L|300:253,1,104.500003189087,0|0,0:0|1:0,0:0:0:0:
428,314,72774,1,0,0:0:0:0:
274,253,72904,1,0,0:0:0:0:
484,190,73034,6,0,P|483:85|396:39,1,209.000006378174,2|0,0:0|1:0,0:0:0:0:
295,146,73426,1,0,1:0:0:0:
295,146,73556,2,0,L|400:137,1,104.500003189087,0|0,0:0|1:0,0:0:0:0:
210,44,73817,6,0,L|105:34,1,104.500003189087,8|0,0:0|0:0,0:0:0:0:
298,244,74078,2,0,P|312:189|276:126,1,104.500003189087,0|0,1:0|1:0,0:0:0:0:
96,315,74339,1,2,0:0:0:0:
162,165,74469,1,0,1:0:0:0:
251,315,74600,6,0,P|310:328|362:301,1,104.500003189087,6|0,0:0|0:0,0:0:0:0:
456,224,74861,2,0,L|452:95,1,104.500003189087,0|0,1:0|0:0,0:0:0:0:
235,17,75121,1,0,0:0:0:0:
295,167,75252,1,0,1:0:0:0:
439,25,75382,6,0,L|325:20,1,104.500003189087,8|0,0:0|1:0,0:0:0:0:
143,13,75643,2,0,B|134:71|134:71|149:132,1,104.500003189087,0|0,0:0|1:0,0:0:0:0:
193,240,75904,1,0,0:0:0:0:
40,199,76034,1,0,1:0:0:0:
230,251,76165,6,0,B|343:221|310:319|432:289,1,209.000006378174,2|0,0:0|0:0,0:0:0:0:
389,200,76556,1,0,1:0:0:0:
267,329,76687,2,0,P|208:333|156:296,1,104.500003189087,0|0,0:0|1:0,0:0:0:0:
225,146,76948,6,0,L|230:262,1,104.500003189087,8|0,0:0|0:0,0:0:0:0:
57,95,77208,1,2,0:0:0:0:
105,243,77339,1,0,0:0:0:0:
171,66,77469,2,0,P|218:52|286:71,1,104.500003189087,2|0,0:0|1:0,0:0:0:0:
376,121,77730,6,0,L|380:16,1,104.500003189087,2|0,0:0|0:0,0:0:0:0:
328,201,77991,2,0,P|390:214|442:192,1,104.500003189087,0|0,1:0|1:0,0:0:0:0:
225,146,78252,2,0,L|101:154,1,104.500003189087,0|0,0:0|1:0,0:0:0:0:
324,305,78513,6,0,L|328:179,1,104.500003189087,8|0,0:0|0:0,0:0:0:0:
118,49,78774,2,0,B|110:104|110:104|123:163,1,104.500003189087,0|0,1:0|0:0,0:0:0:0:
199,258,79034,1,0,1:0:0:0:
286,86,79165,1,0,0:0:0:0:
402,237,79295,6,0,L|518:230,1,104.500003189087,2|0,0:0|1:0,0:0:0:0:
333,164,79556,1,0,0:0:0:0:
262,350,79687,1,0,1:0:0:0:
140,152,79817,2,0,L|265:157,1,104.500003189087,0|0,0:0|1:0,0:0:0:0:
402,237,80078,6,0,B|324:241|324:241|277:274|277:274|179:281,1,209.000006378174,8|0,0:0|1:0,0:0:0:0:
384,316,80469,1,0,1:0:0:0:
226,186,80600,1,2,0:0:0:0:
262,350,80730,1,0,0:0:0:0:
333,164,80861,6,0,P|331:93|195:45,1,209.000006378174,6|0,0:0|1:0,0:0:0:0:
82,128,81252,1,2,0:0:0:0:
82,128,81382,2,0,L|84:257,1,104.500003189087,8|0,0:0|0:0,0:0:0:0:
220,349,81643,6,0,B|227:186|227:186|187:247,1,209.000006378174,6|0,0:0|1:0,0:0:0:0:
114,322,82034,1,2,0:0:0:0:
302,356,82165,2,0,L|426:347,1,104.500003189087,8|0,0:0|0:0,0:0:0:0:
461,219,82426,6,0,P|467:149|382:205,1,209.000006378174,2|0,0:0|1:0,0:0:0:0:
405,277,82817,2,0,P|450:299|516:283,2,104.500003189087,8|2|2,0:0|0:0|0:0,0:0:0:0:
260,172,83208,6,0,P|225:165|190:175,1,52.2500015945435,8|0,0:0|0:0,0:0:0:0:
118,270,83469,6,0,P|111:305|121:340,1,52.2500015945435,8|0,0:0|0:0,0:0:0:0:
320,367,83730,6,0,P|327:324|309:277,1,76,2|0,0:0|0:0,0:0:0:0:
260,172,83991,6,0,P|241:122|267:64,1,95,6|0,0:0|0:0,0:0:0:0:
374,19,84252,2,0,L|496:23,1,95,0|0,1:0|0:0,0:0:0:0:
343,161,84513,1,0,0:0:0:0:
343,161,84578,1,0,0:0:0:0:
342,160,84643,2,0,P|340:184|333:207,1,47.5,0|0,1:0|0:0,0:0:0:0:
178,262,84774,6,0,B|285:231|256:327|383:295,1,190,8|0,0:0|1:0,0:0:0:0:
212,350,85165,1,0,0:0:0:0:
333,207,85295,2,0,L|327:90,1,95,0|0,0:0|1:0,0:0:0:0:
157,0,85556,6,0,B|151:76|151:76|173:117|173:117|168:208,1,190,2|0,0:0|0:0,0:0:0:0:
73,245,85948,1,0,1:0:0:0:
73,245,86078,2,0,L|70:132,1,95,0|0,0:0|1:0,0:0:0:0:
246,54,86339,6,0,P|302:42|359:55,1,95,8|0,0:0|0:0,0:0:0:0:
448,16,86600,2,0,P|448:79|417:129,1,95,0|0,1:0|0:0,0:0:0:0:
360,198,86861,1,2,0:0:0:0:
338,47,86991,1,0,0:0:0:0:
442,175,87121,6,0,P|404:272|306:265,1,190,6|0,0:0|1:0,0:0:0:0:
204,224,87513,1,0,0:0:0:0:
107,359,87643,2,0,L|101:240,1,95,0|0,0:0|1:0,0:0:0:0:
1,138,87904,6,0,B|38:153|71:133|71:133|134:173|205:130,1,190,8|0,0:0|0:0,0:0:0:0:
134,40,88295,1,0,1:0:0:0:
73,223,88426,2,0,L|77:317,1,95,0|0,0:0|1:0,0:0:0:0:
266,228,88687,6,0,L|270:35,1,190,2|0,0:0|1:0,0:0:0:0:
456,142,89078,2,0,B|404:154|404:154|345:141,1,95,8|2,0:0|0:0,0:0:0:0:
191,64,89339,1,0,1:0:0:0:
357,59,89469,5,8,0:0:0:0:
266,228,89600,1,0,0:0:0:0:
257,10,89730,1,2,0:0:0:0:
365,184,89861,1,0,0:0:0:0:
184,185,89991,6,0,P|178:260|287:322,1,185.249991519928,0|0,0:0|0:0,0:0:0:0:
334,321,90252,6,0,L|458:316,1,95,6|0,0:0|0:0,0:0:0:0:
266,228,90513,2,0,L|147:223,1,95,0|8,1:0|0:0,0:0:0:0:
358,92,90774,2,0,B|373:137|373:137|362:199,1,95,2|0,0:0|0:0,0:0:0:0:
200,112,91034,5,8,0:0:0:0:
331,5,91165,1,8,0:0:0:0:
278,147,91295,1,8,0:0:0:0:
151,7,91426,1,8,0:0:0:0:
151,7,91491,1,8,0:0:0:0:
151,7,91556,1,8,0:0:0:0:
174,204,91687,1,8,0:0:0:0:
253,65,91817,6,0,P|309:65|367:129,1,123.499994346619,6|0,0:0|1:0,0:0:0:0:
358,106,92208,6,0,L|356:196,1,61.7499971733095,0|0,1:0|0:0,0:0:0:0:
462,182,92339,2,0,L|460:272,1,61.7499971733095,0|0,1:0|0:0,0:0:0:0:
340,263,92469,2,0,L|338:353,1,61.7499971733095,0|0,1:0|0:0,0:0:0:0:
459,365,92600,6,0,P|423:267|322:274,1,199.499993911743,8|0,0:0|0:0,0:0:0:0:
262,312,92861,2,0,P|192:346|114:306,1,170.999994781494,0|0,1:0|0:0,0:0:0:0:
191,127,93121,2,0,B|187:111|196:144|196:144|183:176|183:176|194:204|194:204|183:233|183:233|189:251,1,142.5,2|0,0:3|0:0,0:0:0:0:
266,171,93382,6,0,P|270:95|145:56,1,199.499993911743,2|0,0:0|0:0,0:0:0:0:
34,53,93643,2,0,P|61:59|90:56,1,56.9999982604981,0|0,1:0|0:0,0:0:0:0:
191,127,93774,2,0,P|163:123|136:130,1,56.9999982604981,0|0,1:0|0:0,0:0:0:0:
8,213,93904,6,0,L|127:208,1,104.500003189087,0|0,0:0|1:0,0:0:0:0:
234,327,94165,6,0,L|82:322,2,123.499994346619,8|0|0,0:0|1:0|1:0,0:0:0:0:
329,366,94556,2,0,P|338:321|322:277,1,61.7499971733095,0|0,1:0|0:0,0:0:0:0:
302,222,94687,2,0,B|401:187|375:283|498:250,1,185.249991519928,2|0,0:0|0:0,0:0:0:0:
447,172,94948,6,0,B|462:107|462:107|441:31,1,123.499994346619,6|0,0:0|1:0,0:0:0:0:
446,52,95339,6,0,L|372:49,1,61.7499971733095,0|0,1:0|0:0,0:0:0:0:
303,135,95469,2,0,L|377:132,1,61.7499971733095,0|0,1:0|0:0,0:0:0:0:
259,45,95600,2,0,L|185:42,1,61.7499971733095,0|0,1:0|0:0,0:0:0:0:
112,204,95730,6,0,B|127:147|127:147|118:103|118:103|125:60|125:60|107:-2,1,199.499993911743,8|0,0:0|0:0,0:0:0:0:
33,178,95991,2,0,P|41:249|142:283,1,170.999994781494,0|0,1:0|0:0,0:0:0:0:
235,160,96252,2,0,P|165:159|102:223,1,142.5,2|0,0:3|0:0,0:0:0:0:
195,252,96513,6,0,L|263:255,1,47.5,2|0,1:0|0:0,0:0:0:0:
353,334,96643,2,0,L|292:337,1,47.5,2|0,1:0|0:0,0:0:0:0:
427,186,96774,5,2,1:0:0:0:
475,359,96904,1,0,0:0:0:0:
352,215,97034,6,0,P|358:144|385:115,1,95,0|0,1:0|1:0,0:0:0:0:
462,321,97295,6,0,B|325:314|325:314|370:345,1,170.999994781494,8|0,0:0|0:0,0:0:0:0:
378,357,97556,6,0,L|221:348,1,156.750004783631,0|0,1:0|0:0,0:0:0:0:
144,371,97817,6,0,P|149:315|187:275,1,114,2|0,0:0|0:0,0:0:0:0:
221,200,98078,6,0,P|261:239|260:310,1,123.499994346619,6|0,0:0|1:0,0:0:0:0:
262,303,98469,6,0,L|340:307,1,61.7499971733095,0|0,1:0|0:0,0:0:0:0:
386,178,98600,2,0,L|325:175,1,61.7499971733095,0|0,1:0|0:0,0:0:0:0:
271,59,98730,2,0,L|337:63,1,61.7499971733095,0|0,1:0|0:0,0:0:0:0:
477,54,98861,6,0,B|451:5|451:5|460:161,1,199.499993911743,8|0,0:0|0:0,0:0:0:0:
490,252,99121,2,0,B|454:268|418:250|418:250|384:262|384:262|345:245|297:272,1,170.999994781494,0|0,1:0|0:0,0:0:0:0:
223,351,99382,2,0,P|289:373|350:341,1,142.5,2|0,0:3|0:0,0:0:0:0:
360,256,99643,6,0,B|354:185|354:185|379:132|379:132|370:28,1,199.499993911743,2|0,0:0|0:0,0:0:0:0:
290,57,99904,6,0,L|296:118,1,56.9999982604981,0|0,1:0|0:0,0:0:0:0:
436,195,100034,2,0,L|442:256,1,56.9999982604981,0|0,1:0|0:0,0:0:0:0:
281,291,100165,6,0,B|268:236|268:236|281:172,1,104.500003189087,0|0,0:0|1:0,0:0:0:0:
388,70,100426,6,0,L|525:73,2,123.499994346619,8|0|0,0:0|1:0|0:0,0:0:0:0:
219,18,100817,2,0,P|210:60|223:99,1,61.7499971733095,0|0,1:0|0:0,0:0:0:0:
308,179,100948,2,0,B|312:29|312:29|291:57,1,185.249991519928,2|0,0:0|0:0,0:0:0:0:
246,231,101208,6,0,P|301:260|366:239,1,123.499994346619,6|0,0:0|0:0,0:0:0:0:
357,245,101600,6,0,L|354:167,1,61.7499971733095,0|0,1:0|0:0,0:0:0:0:
265,317,101730,2,0,L|262:378,1,61.7499971733095,0|0,1:0|0:0,0:0:0:0:
164,246,101861,2,0,L|161:168,1,61.7499971733095,0|0,1:0|0:0,0:0:0:0:
89,362,101991,6,0,P|42:368|104:333,1,237.5,8|0,0:0|0:0,0:0:0:0:
60,329,102774,6,0,L|54:206,1,95,2|0,0:0|0:0,0:0:0:0:
184,77,103034,2,0,L|182:202,1,95,0|8,0:0|0:0,0:0:0:0:
248,323,103295,1,2,0:0:0:0:
248,323,103361,1,0,0:0:0:0:
248,323,103426,2,0,L|318:319,1,47.5,0|0,0:0|0:0,0:0:0:0:
352,238,103556,6,0,L|238:245,1,95,8|0,0:0|0:0,0:0:0:0:
87,166,103817,2,0,L|209:173,1,95,8|0,0:0|0:0,0:0:0:0:
352,69,104078,2,0,L|238:76,1,95,2|0,0:0|0:0,0:0:0:0:
152,226,104339,6,0,P|169:148|121:81,1,132.999995941162,6|0,0:0|0:0,0:0:0:0:
54,195,104600,6,0,P|93:189|38:169,1,142.5,0|0,1:0|0:0,0:0:0:0:
45,267,104861,6,0,P|81:271|113:260,1,47.5,0|0,1:0|0:0,0:0:0:0:
188,338,104991,2,0,P|211:335|234:339,1,47.5,0|0,1:0|0:0,0:0:0:0:
323,207,105121,6,0,B|324:240|324:240|310:276|310:276|324:318|324:318|321:358,1,156.750004783631,8|0,0:0|0:0,0:0:0:0:
264,151,105382,2,0,B|306:111|357:134|357:134|390:98|443:110,1,185.249991519928,0|0,1:0|0:0,0:0:0:0:
417,188,105643,2,0,P|386:96|403:57,1,114,2|0,1:0|0:0,0:0:0:0:
501,23,105904,6,0,B|386:2|386:2|334:19,1,170.999994781494,2|0,0:0|0:0,0:0:0:0:
257,0,106165,6,0,P|254:32|266:63,1,66.4999979705811,2|0,1:0|0:0,0:0:0:0:
323,207,106295,2,0,P|326:239|314:270,1,66.4999979705811,2|0,1:0|0:0,0:0:0:0:
217,348,106426,6,0,P|201:281|243:226,1,142.500005435944,2|0,0:3|0:0,0:0:0:0:
403,292,106687,6,0,L|280:298,2,123.499994346619,8|0|0,0:0|1:0|1:0,0:0:0:0:
493,225,107078,2,0,P|498:184|476:142,1,61.7499971733095,0|0,1:0|0:0,0:0:0:0:
511,66,107208,2,0,B|460:61|427:89|427:89|369:60|306:108,1,185.249991519928,2|0,0:0|0:0,0:0:0:0:
256,136,107469,6,0,P|202:165|131:139,1,113.999996520996,6|0,0:0|0:0,0:0:0:0:
192,80,107730,6,0,P|175:34|248:46,1,142.5,0|0,1:0|0:0,0:0:0:0:
256,136,107991,6,0,L|250:207,1,47.5,0|0,0:0|0:0,0:0:0:0:
146,247,108121,2,0,L|152:318,1,47.5,0|0,1:0|0:0,0:0:0:0:
386,254,108252,6,0,B|322:252|322:252|278:275|278:275|234:273,1,156.750004783631,8|0,0:0|0:0,0:0:0:0:
86,331,108513,2,0,B|180:298|163:392|257:366,1,185.249991519928,0|0,1:0|0:0,0:0:0:0:
342,375,108774,2,0,P|329:321|269:285,1,114,2|0,1:0|0:0,0:0:0:0:
201,248,109034,6,0,L|67:244,1,113.999996520996,2|2,0:0|1:0,0:0:0:0:
327,194,109295,6,0,P|343:110|252:35,1,185.249991519928,2|0,1:0|0:0,0:0:0:0:
202,30,109556,6,0,L|82:34,1,95,0|0,1:0|0:0,0:0:0:0:
134,138,109817,6,0,L|248:133,1,113.999996520996,8|0,0:0|0:0,0:0:0:0:
366,61,110078,1,0,0:0:0:0:
327,194,110208,1,0,0:0:0:0:
460,250,110339,2,0,B|473:192|473:192|453:125,1,113.999996520996,2|0,0:0|1:0,0:0:0:0:
364,353,110600,6,0,B|525:346|524:346,1,132.999995941162,6|0,0:0|0:0,0:0:0:0:
327,194,110861,6,0,P|313:126|280:204,1,199.499993911743,0|0,1:0|0:0,0:0:0:0:
411,176,111121,6,0,P|404:121|385:91,1,66.4999979705811,0|0,1:0|0:0,0:0:0:0:
193,114,111252,2,0,P|182:145|181:178,1,66.4999979705811,0|0,1:0|0:0,0:0:0:0:
300,318,111382,6,0,B|306:263|306:263|291:213|291:213|297:165,1,156.750004783631,8|0,0:0|0:0,0:0:0:0:
380,117,111643,2,0,P|325:73|218:112,1,185.249991519928,0|0,0:0|0:0,0:0:0:0:
181,178,111904,2,0,L|175:49,1,114,2|0,1:0|0:0,0:0:0:0:
76,0,112165,6,0,B|59:57|59:57|72:116,1,113.999996520996,2|0,0:0|0:0,0:0:0:0:
36,183,112426,6,0,L|116:178,1,66.4999979705811,2|0,1:0|0:0,0:0:0:0:
224,272,112556,2,0,L|157:267,1,66.4999979705811,2|0,1:0|0:0,0:0:0:0:
60,384,112687,6,0,B|38:314|38:314|72:234,1,142.500005435944,2|0,0:3|0:0,0:0:0:0:
158,118,112948,6,0,B|176:52|176:52|153:-14,2,123.499994346619,8|0|0,0:0|1:0|1:0,0:0:0:0:
65,250,113339,2,0,L|126:246,1,61.7499971733095,0|0,1:0|0:0,0:0:0:0:
280,302,113469,2,0,B|177:278|205:357|96:339,1,185.249991519928,2|0,0:0|0:0,0:0:0:0:
351,351,113730,6,0,P|363:285|330:231,1,113.999996520996,2|0,0:0|0:0,0:0:0:0:
287,164,113991,6,0,B|351:153|351:153|410:184|410:184|497:170,1,185.249991519928,0|0,0:0|0:0,0:0:0:0:
498,91,114252,6,0,L|425:103,1,61.7499971733095,0|0,1:0|0:0,0:0:0:0:
398,273,114382,2,0,L|343:244,1,61.7499971733095,0|0,1:0|0:0,0:0:0:0:
223,107,114513,6,0,P|276:80|365:119,1,142.5,8|0,0:0|0:0,0:0:0:0:
286,164,114774,2,0,P|199:188|140:104,1,170.999994781494,2|0,1:0|0:0,0:0:0:0:
107,64,115034,2,0,B|103:131|103:131|89:160|89:160|100:196|100:196|94:264,1,199.499993911743,2|0,1:0|0:0,0:0:0:0:
188,357,115295,6,0,L|183:245,1,95,2|0,0:0|0:0,0:0:0:0:
290,69,115556,2,0,L|285:163,1,95,0|8,1:0|0:0,0:0:0:0:
358,331,115817,1,2,0:0:0:0:
358,331,115882,1,0,0:0:0:0:
358,331,115948,2,0,L|420:327,1,47.5,0|0,1:0|0:0,0:0:0:0:
477,232,116078,6,0,L|362:239,1,95,8|8,0:0|0:0,0:0:0:0:
211,188,116339,1,8,0:0:0:0:
274,290,116469,1,8,0:0:0:0:
274,290,116534,1,8,0:0:0:0:
274,290,116600,1,8,0:0:0:0:
350,137,116730,1,8,0:0:0:0:
437,313,116861,5,6,0:0:0:0:
328,311,123121,6,0,L|469:307,2,132.999995941162,0|0|0,0:0|0:0|0:0,0:0:0:0:
180,230,123904,6,0,P|156:292|180:362,1,132.999995941162,0|0,0:0|0:0,0:0:0:0:
290,227,124426,1,0,0:0:0:0:
175,136,124687,6,0,L|23:143,1,132.999995941162,0|0,0:0|0:0,0:0:0:0:
333,145,125208,1,0,0:0:0:0:
180,200,125469,6,0,P|171:157|182:117,1,66.4999979705811,0|0,0:0|0:0,0:0:0:0:
268,16,125730,2,0,P|271:48|262:80,1,66.4999979705811,0|0,0:0|0:0,0:0:0:0:
308,234,125991,2,0,L|397:229,1,66.4999979705811,0|0,0:0|0:0,0:0:0:0:
462,290,126252,6,0,B|471:199|471:199|430:155|430:155|440:52,1,227.999993041992,6|0,0:0|0:0,0:0:0:0:
349,0,126643,2,0,L|355:135,1,113.999996520996,2|8,0:0|0:0,0:0:0:0:
371,310,126904,1,0,0:0:0:0:
293,280,127034,6,0,P|360:226|455:311,1,227.999993041992,6|0,0:0|0:0,0:0:0:0:
286,366,127426,2,0,L|143:371,2,113.999996520996,2|8|2,0:0|0:0|0:0,0:0:0:0:
431,355,127817,5,6,0:0:0:0:
349,206,127948,1,0,0:0:0:0:
286,366,128078,1,0,1:0:0:0:
445,226,128208,5,8,0:0:0:0:
264,278,128339,1,2,0:0:0:0:
431,355,128469,1,2,0:0:0:0:
195,329,128600,6,0,P|181:260|262:191,1,170.999994781494,8|0,0:0|0:0,0:0:0:0:
349,206,128861,2,0,P|415:151|374:51,1,170.999994781494,8|0,0:0|0:0,0:0:0:0:
324,42,129121,5,2,0:0:0:0:
346,4,129382,6,0,L|473:-1,1,104.500003189087,2|0,0:0|1:0,0:0:0:0:
256,116,129643,2,0,L|128:112,1,104.500003189087,0|0,0:0|1:0,0:0:0:0:
251,0,129904,1,0,1:0:0:0:
330,166,130034,1,0,0:0:0:0:
420,0,130165,6,0,B|438:58|438:58|422:121,1,104.500003189087,8|0,0:0|1:0,0:0:0:0:
506,230,130426,2,0,L|374:225,1,104.500003189087,0|0,0:0|1:0,0:0:0:0:
251,304,130687,1,0,1:0:0:0:
330,166,130817,1,0,0:0:0:0:
229,342,130948,6,0,B|221:266|221:266|245:217|245:217|237:122,1,209.000006378174,2|0,0:0|0:0,0:0:0:0:
46,202,131339,1,0,1:0:0:0:
46,202,131469,2,0,L|154:195,1,104.500003189087,0|0,1:0|0:0,0:0:0:0:
333,345,131730,6,0,L|208:341,1,104.500003189087,8|0,0:0|0:0,0:0:0:0:
150,195,131991,2,0,B|137:130|137:130|150:76,1,104.500003189087,0|0,0:0|1:0,0:0:0:0:
249,147,132252,1,2,0:0:0:0:
69,90,132382,1,0,1:0:0:0:
240,36,132513,6,0,L|362:30,1,104.500003189087,2|0,0:0|0:0,0:0:0:0:
491,103,132774,2,0,P|512:176|491:222,1,104.500003189087,0|0,1:0|0:0,0:0:0:0:
320,194,133034,1,0,0:0:0:0:
431,33,133165,1,0,1:0:0:0:
505,201,133295,6,0,L|394:199,1,104.500003189087,8|0,0:0|0:0,0:0:0:0:
287,333,133556,2,0,P|214:341|158:313,1,104.500003189087,0|0,1:0|0:0,0:0:0:0:
84,181,133817,1,0,1:0:0:0:
185,331,133948,1,0,0:0:0:0:
259,226,134078,6,0,B|144:194|161:306|43:270,1,209.000006378174,2|0,0:0|1:0,0:0:0:0:
81,76,134469,1,0,0:0:0:0:
81,76,134600,2,0,L|84:201,1,104.500003189087,0|0,1:0|0:0,0:0:0:0:
273,127,134861,6,0,B|219:114|219:114|146:142,1,104.500003189087,8|0,0:0|0:0,0:0:0:0:
354,182,135121,2,0,P|368:119|342:61,1,104.500003189087,0|0,1:0|1:0,0:0:0:0:
259,226,135382,2,0,L|264:356,1,104.500003189087,2|0,0:0|1:0,0:0:0:0:
458,187,135643,6,0,L|334:181,1,104.500003189087,2|0,0:0|0:0,0:0:0:0:
158,335,135904,2,0,L|286:329,1,104.500003189087,0|0,0:0|1:0,0:0:0:0:
353,181,136165,1,0,1:0:0:0:
418,307,136295,1,0,0:0:0:0:
273,201,136426,6,0,P|286:134|331:101,1,104.500003189087,8|0,0:0|1:0,0:0:0:0:
418,307,136687,2,0,L|281:301,1,104.500003189087,0|0,0:0|1:0,0:0:0:0:
168,194,136948,1,0,1:0:0:0:
215,352,137078,1,0,0:0:0:0:
377,193,137208,6,0,L|253:202,1,104.500003189087,2|0,0:0|0:0,0:0:0:0:
112,114,137469,1,0,1:0:0:0:
184,272,137600,1,0,1:0:0:0:
274,106,137730,2,0,L|407:112,1,104.500003189087,0|0,0:0|1:0,0:0:0:0:
272,19,137991,6,0,P|200:63|236:184,1,209.000006378174,8|0,0:0|1:0,0:0:0:0:
382,228,138382,1,0,1:0:0:0:
382,228,138513,2,0,L|379:95,1,104.500003189087,2|0,0:0|0:0,0:0:0:0:
278,324,138774,6,0,B|448:317|448:317|393:346,1,209.000006378174,6|0,0:0|0:0,0:0:0:0:
204,368,139165,1,2,0:0:0:0:
204,368,139295,2,0,P|193:315|229:253,1,104.500003189087,8|0,0:0|1:0,0:0:0:0:
341,192,139556,6,0,B|203:172|203:172|119:195,1,209.000006378174,6|8,0:0|0:3,0:0:0:0:
24,238,139948,1,2,0:0:0:0:
24,238,140078,2,0,L|21:111,1,104.500003189087,8|0,0:0|0:0,0:0:0:0:
198,53,140339,6,0,B|191:124|191:124|214:179|214:179|207:256,1,209.000006378174,6|0,0:0|0:0,0:0:0:0:
142,315,140730,2,0,P|123:254|149:194,2,104.500003189087,8|2|2,0:0|0:0|0:0,0:0:0:0:
232,347,141121,6,0,P|240:317|231:281,1,52.2500015945435,8|0,0:0|0:0,0:0:0:0:
127,165,141382,6,0,P|124:190|132:215,1,52.2500015945435,8|0,0:0|0:0,0:0:0:0:
302,189,141643,6,0,L|300:91,1,76,2|0,0:0|0:0,0:0:0:0:
296,22,141904,6,0,L|433:16,1,95,6|0,0:0|0:0,0:0:0:0:
470,67,142165,2,0,P|483:112|475:159,1,95,0|0,1:0|1:0,0:0:0:0:
368,338,142426,1,0,0:0:0:0:
368,338,142491,1,0,0:0:0:0:
368,338,142556,2,0,L|365:290,1,47.5,0|0,1:0|0:0,0:0:0:0:
327,213,142687,6,0,B|431:180|418:275|521:234,1,190,8|0,0:0|1:0,0:0:0:0:
475,158,143078,1,0,0:0:0:0:
365,290,143208,2,0,P|314:299|257:266,1,95,0|0,1:0|0:0,0:0:0:0:
190,142,143469,6,0,B|196:212|196:212|167:253|167:253|173:323,1,190,2|0,0:0|1:0,0:0:0:0:
273,378,143861,1,0,1:0:0:0:
273,378,143991,2,0,L|275:259,1,95,0|0,0:0|1:0,0:0:0:0:
282,147,144252,6,0,P|224:135|171:152,1,95,8|0,0:0|0:0,0:0:0:0:
93,95,144513,2,0,P|82:161|111:211,1,95,0|0,1:0|0:0,0:0:0:0:
191,293,144774,1,2,0:0:0:0:
189,142,144904,1,0,0:0:0:0:
192,336,145034,6,0,B|320:354|320:354|391:335,1,190,6|0,0:0|1:0,0:0:0:0:
467,227,145426,1,0,1:0:0:0:
467,227,145556,2,0,L|463:115,1,95,0|0,0:0|1:0,0:0:0:0:
353,33,145817,6,0,B|347:190|347:190|379:145,1,190,8|0,0:0|1:0,0:0:0:0:
427,58,146208,1,0,1:0:0:0:
274,41,146339,2,0,L|148:49,1,95,0|0,0:0|1:0,0:0:0:0:
47,146,146600,6,0,L|247:150,1,190,6|0,0:0|1:0,0:0:0:0:
326,197,146991,2,0,P|337:133|308:78,2,95,8|2|0,0:0|0:0|1:0,0:0:0:0:
259,294,147382,5,8,0:0:0:0:
414,220,147513,1,0,0:0:0:0:
236,149,147643,1,2,0:0:0:0:
367,288,147774,1,0,1:0:0:0:
400,87,147904,1,4,0:0:0:0:
400,87,148165,6,0,L|308:93,1,76,2|0,0:0|1:0,0:0:0:0:
238,138,148426,2,0,P|228:94|240:40,1,76,0|0,0:0|1:0,0:0:0:0:
323,243,148687,2,0,P|333:199|321:145,1,76,2|0,0:0|1:0,0:0:0:0:
200,238,148948,5,8,0:0:0:0:
200,238,149730,5,6,0:0:0:0:
256,192,149795,12,0,152078,0:0:0:0:
