osu file format v14

[General]
AudioFilename: audio.mp3
AudioLeadIn: 0
PreviewTime: 58952
Countdown: 0
SampleSet: Soft
StackLeniency: 0.2
Mode: 0
LetterboxInBreaks: 0
WidescreenStoryboard: 1

[Editor]
DistanceSpacing: 0.5
BeatDivisor: 4
GridSize: 32
TimelineZoom: 1.6

[Metadata]
Title:Sky of the Ocean
TitleUnicode:Sky of the Ocean
Artist:Memme
ArtistUnicode:Memme
Creator:Syph
Version:Hikaru's Extra.
Source:O2Jam U
Tags:parkmemme m2u cheesecake [c_u_r_i] -tochi snownino_ emilia xlolicore- hikaru_rose moecho moeri derandom_otaku
BeatmapID:1429744
BeatmapSetID:668888

[Difficulty]
HPDrainRate:6
CircleSize:3.8
OverallDifficulty:9
ApproachRate:9.5
SliderMultiplier:1.5
SliderTickRate:1

[Events]
//Background and Video events
0,0,"bg.jpg",0,0
//Break Periods
2,117061,125727
//Storyboard Layer 0 (Background)
//Storyboard Layer 1 (Fail)
//Storyboard Layer 2 (Pass)
//Storyboard Layer 3 (Foreground)
//Storyboard Sound Samples

[TimingPoints]
1035,260.869565217391,3,2,1,30,1,0
3382,-66.6666666666667,3,2,1,40,0,0
4165,-66.6666666666667,3,2,1,70,0,0
10687,-66.6666666666667,3,2,0,30,0,0
11991,-133.333333333333,3,2,1,70,0,0
13295,-133.333333333333,3,2,1,30,0,0
13556,-133.333333333333,3,2,1,70,0,0
14861,-133.333333333333,3,2,1,30,0,0
15121,-133.333333333333,3,2,1,70,0,0
16426,-133.333333333333,3,2,1,30,0,0
16687,-133.333333333333,3,2,1,70,0,0
19556,-133.333333333333,3,2,1,30,0,0
19817,-133.333333333333,3,2,1,70,0,0
22687,-133.333333333333,3,2,1,30,0,0
22948,-133.333333333333,3,2,1,70,0,0
23339,-100,3,2,1,70,0,0
30382,-100,3,2,1,30,0,0
30513,-100,3,2,1,70,0,0
36252,-66.6666666666667,3,2,1,70,0,0
37034,-66.6666666666667,3,2,1,70,0,0
56600,-60.6060606060606,3,2,1,70,0,0
57382,-55.5555555555556,3,2,1,70,0,0
58165,-66.6666666666667,3,2,1,70,0,0
58687,-83.3333333333333,3,2,1,70,0,0
58948,-66.6666666666667,3,2,1,70,0,1
69121,-62.5,3,2,1,70,0,1
69904,-55.5555555555556,3,2,1,70,0,1
70687,-66.6666666666667,3,2,1,70,0,1
70752,-66.6666666666667,3,2,1,70,0,0
70948,-66.6666666666667,3,2,1,70,0,1
71013,-66.6666666666667,3,2,1,70,0,0
71208,-66.6666666666667,3,2,1,70,0,1
71274,-66.6666666666667,3,2,1,70,0,0
71469,-66.6666666666667,3,2,1,70,0,1
83208,-66.6666666666667,3,2,1,70,0,1
83274,-66.6666666666667,3,2,1,70,0,0
83469,-66.6666666666667,3,2,1,70,0,1
83534,-66.6666666666667,3,2,1,70,0,0
83991,-66.6666666666667,3,2,1,70,0,1
84056,-66.6666666666667,3,2,1,70,0,0
90252,-55.5555555555556,3,2,1,70,0,0
90513,-66.6666666666667,3,2,1,70,0,0
91426,-100,3,2,1,70,0,0
91817,-50,3,2,1,70,0,1
92274,-50,3,2,1,5,0,1
92339,-50,3,2,1,70,0,1
92404,-50,3,2,1,5,0,1
92469,-50,3,2,1,70,0,1
92534,-50,3,2,1,5,0,1
92600,-50,3,2,1,70,0,1
92795,-50,3,2,1,5,0,1
92861,-50,3,2,1,70,0,1
93056,-50,3,2,1,5,0,1
93121,-66.6666666666667,3,2,1,70,0,1
93317,-66.6666666666667,3,2,1,5,0,1
93382,-55.5555555555556,3,2,1,70,0,1
94621,-55.5555555555556,3,2,1,5,0,1
94687,-55.5555555555556,3,2,1,70,0,1
94882,-55.5555555555556,3,2,1,5,0,1
94948,-50,3,2,1,70,0,1
95404,-50,3,2,1,5,0,1
95469,-50,3,2,1,70,0,1
95534,-50,3,2,1,5,0,1
95600,-50,3,2,1,70,0,1
95665,-50,3,2,1,5,0,1
95730,-50,3,2,1,70,0,1
95926,-50,3,2,1,5,0,1
95991,-50,3,2,1,70,0,1
96187,-50,3,2,1,5,0,1
96252,-66.6666666666667,3,2,1,70,0,1
96448,-66.6666666666667,3,2,1,5,0,1
96513,-50,3,2,1,70,0,1
96774,-55.5555555555556,3,2,1,70,0,1
96969,-55.5555555555556,3,2,1,5,0,1
97034,-50,3,2,1,70,0,1
98534,-50,3,2,1,5,0,1
98600,-50,3,2,1,70,0,1
98665,-50,3,2,1,5,0,1
98730,-50,3,2,1,70,0,1
98795,-50,3,2,1,5,0,1
98861,-50,3,2,1,70,0,1
99056,-50,3,2,1,5,0,1
99121,-50,3,2,1,70,0,1
99317,-50,3,2,1,5,0,1
99382,-66.6666666666667,3,2,1,70,0,1
99578,-66.6666666666667,3,2,1,5,0,1
99643,-55.5555555555556,3,2,1,70,0,1
100882,-55.5555555555556,3,2,1,5,0,1
100948,-55.5555555555556,3,2,1,70,0,1
101208,-50,3,2,1,70,0,1
101665,-50,3,2,1,5,0,1
101730,-50,3,2,1,70,0,1
101795,-50,3,2,1,5,0,1
101861,-50,3,2,1,70,0,1
101926,-50,3,2,1,5,0,1
101991,-133.333333333333,3,2,1,70,0,0
102056,-133.333333333333,3,2,1,20,0,0
102708,-133.333333333333,3,2,1,5,0,0
102774,-66.6666666666667,3,2,1,70,0,0
104339,-66.6666666666667,3,2,1,70,0,1
104534,-66.6666666666667,3,2,1,5,0,1
104600,-55.5555555555556,3,2,1,70,0,1
104795,-55.5555555555556,3,2,1,5,0,1
104861,-55.5555555555556,3,2,1,70,0,1
104926,-55.5555555555556,3,2,1,5,0,1
104991,-55.5555555555556,3,2,1,70,0,1
105056,-55.5555555555556,3,2,1,5,0,1
105121,-50,3,2,1,70,0,1
105317,-50,3,2,1,5,0,1
105382,-100,3,2,1,70,0,1
105578,-100,3,2,1,5,0,1
105643,-200,3,2,1,70,0,1
105839,-200,3,2,1,5,0,1
105904,-55.5555555555556,3,2,1,70,0,1
106100,-55.5555555555556,3,2,1,5,0,1
106165,-50,3,2,1,70,0,1
106426,-83.3333333333333,3,2,1,70,0,1
106687,-50,3,2,1,70,0,1
106948,-55.5555555555556,3,2,1,70,0,1
107078,-66.6666666666667,3,2,1,70,0,1
107665,-66.6666666666667,3,2,1,5,0,1
107730,-55.5555555555556,3,2,1,70,0,1
107926,-55.5555555555556,3,2,1,5,0,1
107991,-55.5555555555556,3,2,1,70,0,1
108056,-55.5555555555556,3,2,1,5,0,1
108121,-55.5555555555556,3,2,1,70,0,1
108187,-55.5555555555556,3,2,1,5,0,1
108252,-50,3,2,1,70,0,1
108448,-50,3,2,1,5,0,1
108513,-100,3,2,1,70,0,1
108708,-100,3,2,1,5,0,1
108774,-200,3,2,1,70,0,1
108969,-200,3,2,1,5,0,1
109034,-200,3,2,1,70,0,1
109295,-66.6666666666667,3,2,1,70,0,1
109491,-66.6666666666667,3,2,1,5,0,1
109556,-100,3,2,1,70,0,1
109752,-100,3,2,1,5,0,1
109817,-55.5555555555556,3,2,1,70,0,1
110274,-55.5555555555556,3,2,1,5,0,1
110339,-66.6666666666667,3,2,1,70,0,1
110404,-66.6666666666667,3,2,1,5,0,1
110469,-66.6666666666667,3,2,1,70,0,1
110795,-66.6666666666667,3,2,1,5,0,1
110861,-55.5555555555556,3,2,1,70,0,1
111056,-55.5555555555556,3,2,1,5,0,1
111121,-55.5555555555556,3,2,1,70,0,1
111187,-55.5555555555556,3,2,1,5,0,1
111252,-55.5555555555556,3,2,1,70,0,1
111317,-55.5555555555556,3,2,1,5,0,1
111382,-66.6666666666667,3,2,1,70,0,1
111578,-66.6666666666667,3,2,1,5,0,1
111643,-133.333333333333,3,2,1,70,0,1
111839,-133.333333333333,3,2,1,5,0,1
111904,-50,3,2,1,70,0,1
112100,-50,3,2,1,5,0,1
112165,-50,3,2,1,70,0,1
112687,-66.6666666666667,3,2,1,70,0,1
113078,-50,3,2,1,70,0,1
113208,-55.5555555555556,3,2,1,70,0,1
113339,-66.6666666666667,3,2,1,70,0,1
113926,-66.6666666666667,3,2,1,5,0,1
113991,-55.5555555555556,3,2,1,70,0,1
114187,-55.5555555555556,3,2,1,5,0,1
114252,-55.5555555555556,3,2,1,70,0,1
114317,-55.5555555555556,3,2,1,5,0,1
114382,-55.5555555555556,3,2,1,70,0,1
114448,-55.5555555555556,3,2,1,5,0,1
114513,-50,3,2,1,70,0,1
114708,-50,3,2,1,5,0,1
114774,-45.4545454545455,3,2,1,70,0,1
114969,-45.4545454545455,3,2,1,5,0,1
115034,-41.6666666666667,3,2,1,70,0,1
115230,-41.6666666666667,3,2,1,5,0,1
115295,-66.6666666666667,3,2,1,70,0,0
116861,-66.6666666666667,3,2,1,70,0,1
116926,-66.6666666666667,3,2,1,70,0,0
126252,-133.333333333333,3,2,1,70,0,0
127034,-100,3,2,1,70,0,0
127817,-66.6666666666667,3,2,1,70,0,0
129382,-62.5,3,2,1,70,0,1
141643,-62.5,3,2,1,70,0,0
141904,-62.5,3,2,1,70,0,1
141969,-62.5,3,2,1,70,0,0
148165,-62.5,3,2,0,30,0,0
155208,-62.5,3,2,0,5,0,0

[Colours]
Combo1 : 194,27,214
Combo2 : 112,142,173
Combo3 : 115,157,155
Combo4 : 16,154,237
Combo5 : 33,199,222
Combo6 : 73,141,197
Combo7 : 82,179,186
Combo8 : 241,10,56

[HitObjects]
170,209,3121,6,0,P|216:195|230:259,1,112.5,4|0,0:0|0:0,0:0:0:0:
91,245,3382,2,0,P|85:187|141:129,1,112.500004291535,8|0,0:3|0:0,0:0:0:0:
170,209,3578,1,0,1:0:0:0:
166,223,3643,1,0,1:0:0:0:
186,88,3774,1,0,0:0:0:0:
91,245,3904,1,0,0:0:0:0:
104,44,4034,1,0,0:0:0:0:
331,115,4165,22,0,B|203:89|239:170|99:140,1,225.000008583069,2|0,0:0|1:0,0:0:0:0:
10,274,4556,1,0,0:0:0:0:
278,213,4687,1,0,0:0:0:0:
278,213,4752,1,0,0:0:0:0:
278,213,4817,1,0,1:0:0:0:
84,350,4948,6,0,P|122:291|232:309,1,168.750006437302,8|0,0:0|0:0,0:0:0:0:
318,304,5208,2,0,P|369:325|442:291,1,112.500004291535,0|0,1:0|0:0,0:0:0:0:
421,133,5469,1,0,0:0:0:0:
512,341,5600,1,0,1:0:0:0:
278,213,5730,102,0,B|364:203|364:203|408:219|408:219|509:207,1,225.000008583069,2|0,0:0|0:0,0:0:0:0:
312,105,6121,1,0,1:0:0:0:
422,309,6252,1,0,0:0:0:0:
510,123,6382,1,0,1:0:0:0:
278,213,6513,6,0,L|161:203,1,112.500004291535,8|0,0:0|0:0,0:0:0:0:
9,85,6774,2,0,L|134:72,1,112.500004291535,0|0,1:0|0:0,0:0:0:0:
228,121,7034,1,2,0:0:0:0:
106,288,7165,1,0,0:0:0:0:
343,302,7295,102,0,P|382:249|320:112,1,225.000008583069,6|0,0:0|1:0,0:0:0:0:
165,203,7687,1,0,1:0:0:0:
326,115,7817,1,0,0:0:0:0:
120,73,7948,1,0,1:0:0:0:
353,82,8078,6,0,B|361:166|361:166|338:219|338:219|344:319,1,225.000008583069,8|0,0:0|0:0,0:0:0:0:
234,361,8469,1,0,1:0:0:0:
445,255,8600,1,0,0:0:0:0:
257,146,8730,1,0,1:0:0:0:
396,379,8861,102,0,B|355:254|432:284|387:129,1,225.000008583069,2|0,0:0|1:0,0:0:0:0:
490,26,9252,1,8,0:0:0:0:
257,146,9382,1,2,0:0:0:0:
257,146,9513,1,2,0:0:0:0:
374,236,9643,5,8,0:0:0:0:
116,142,9774,1,0,1:0:0:0:
379,67,9904,1,2,0:0:0:0:
210,282,10034,1,0,0:0:0:0:
220,8,10165,1,4,0:0:0:0:
220,8,10687,69,0,0:0:0:0:
257,146,10817,1,2,0:0:0:0:
71,80,10948,2,0,P|136:68|186:122,1,112.500004291535,0|0,1:0|0:0,0:0:0:0:
330,214,11208,2,0,P|335:152|344:68,1,112.500004291535,8|0,0:3|0:0,0:0:0:0:
384,34,11404,1,0,1:0:0:0:
384,34,11469,1,0,1:0:0:0:
423,156,11600,1,2,0:0:0:0:
255,62,11730,2,2,L|249:18,4,37.5000014305115
257,146,11991,6,0,P|248:203|237:283,1,112.500004291535,6|0,1:2|0:0,0:0:0:0:
127,329,12513,1,0,0:0:0:0:
240,257,12774,2,0,B|367:230|330:312|461:290,1,225.000008583069,0|4,1:0|0:0,0:0:0:0:
431,95,13556,102,0,P|408:147|418:215,1,112.500004291535
512,161,14078,1,0,0:0:0:0:
331,130,14339,2,0,B|205:100|236:183|97:154,1,225.000008583069,0|4,1:0|0:0,0:0:0:0:
114,157,14991,1,0,0:0:0:0:
10,108,15121,6,0,P|17:190|12:232,1,112.500004291535
119,271,15643,1,0,0:0:0:0:
133,46,15904,2,0,P|119:112|114:162,2,112.500004291535,0|0|4,1:0|0:0|0:0,0:0:0:0:
210,206,16687,101,0,0:0:0:0:
399,147,16948,2,0,P|338:140|270:134,1,112.500004291535
507,125,17469,2,0,B|381:96|415:165|282:134,1,225.000008583069,0|0,1:0|0:0,0:0:0:0:
176,109,18121,1,0,0:0:0:0:
4,226,18252,6,0,L|131:207,2,112.500004291535
216,176,19034,2,0,L|168:295,2,112.500004291535,0|0|4,1:0|0:0|0:0,0:0:0:0:
153,384,19817,2,0,L|73:283,2,112.500004291535
4,226,20600,101,0,1:0:0:0:
216,176,20861,1,0,0:0:0:0:
153,384,21121,1,0,0:0:0:0:
119,266,21382,5,0,0:0:0:0:
312,89,21643,1,0,1:0:0:0:
283,206,21774,1,0,3:0:0:0:
165,120,21904,2,0,P|204:112|240:117,1,56.2500021457673
462,228,22165,102,0,P|427:206|391:202,1,56.2500021457673,0|0,1:0|0:0,0:0:0:0:
345,265,22426,2,0,P|310:287|274:291,1,56.2500021457673
209,277,22687,2,0,L|202:173,1,84.3750032186509,4|0,0:0|0:0,0:0:0:0:
202,180,22948,21,0,3:0:0:0:
348,73,23078,2,0,P|344:104|328:134,1,56.2500021457673,0|0,1:0|0:0,0:0:0:0:
296,290,23339,2,0,P|292:243|263:207,1,75,2|0,1:3|0:0,0:0:0:0:
108,133,23600,1,0,3:0:0:0:
198,60,23730,6,0,L|373:75,2,150,0|8|0,1:0|0:3|0:0,0:0:0:0:
108,133,24382,1,0,0:0:0:0:
267,236,24513,69,2,0:0:0:0:
296,124,24774,1,0,0:0:0:0:
198,60,25034,1,0,0:0:0:0:
108,133,25295,1,0,1:0:0:0:
149,241,25556,1,0,0:0:0:0:
149,241,25817,1,2,0:3:0:0:
277,70,26078,5,0,0:0:0:0:
396,156,26339,1,0,0:0:0:0:
295,174,26600,1,0,0:0:0:0:
377,55,26861,1,0,1:0:0:0:
295,174,27121,1,2,0:3:0:0:
377,55,27382,1,0,0:0:0:0:
377,55,27513,1,0,0:0:0:0:
313,269,27643,101,2,0:0:0:0:
446,226,27904,1,0,0:0:0:0:
313,183,28165,1,0,0:0:0:0:
396,296,28426,1,0,1:0:0:0:
396,156,28687,1,0,0:0:0:0:
396,156,28948,1,2,0:3:0:0:
222,318,29208,5,0,0:0:0:0:
142,208,29469,1,0,0:0:0:0:
236,223,29730,1,0,0:0:0:0:
126,302,29991,1,0,1:0:0:0:
126,302,30252,1,0,0:0:0:0:
142,208,30382,1,0,1:0:0:0:
126,302,30513,1,2,0:3:0:0:
117,316,30774,102,0,B|204:306|204:306|249:329|249:329|349:318,1,225,4|0,0:0|0:0,0:0:0:0:
432,282,31295,2,0,L|421:200,1,75
296,33,31556,2,0,P|308:71|327:111,1,75,0|0,1:0|0:0,0:0:0:0:
293,243,31817,2,0,P|318:216|340:185,1,75
477,139,32078,2,0,P|441:132|404:128,1,75,2|0,0:3|0:0,0:0:0:0:
293,243,32339,6,0,B|247:250|206:252|206:252|161:228|161:228|116:236|74:239,1,225,4|0,0:0|1:0,0:0:0:0:
24,305,32861,2,0,P|33:353|36:396,1,75,2|0,0:3|0:0,0:0:0:0:
350,314,33121,2,0,P|301:331|257:329,1,75,0|0,1:0|0:0,0:0:0:0:
351,74,33382,2,0,P|390:107|410:147,1,75,0|0,1:0|0:0,0:0:0:0:
143,194,33643,2,0,P|152:143|176:105,1,75
412,227,33904,6,0,B|355:218|355:218|321:229|321:229|239:217,1,150,4|0,0:0|1:0,0:0:0:0:
162,303,34295,2,0,P|96:277|23:332,1,150,0|0,3:0|3:0,0:0:0:0:
342,326,34687,2,0,P|302:330|235:348,1,75,0|0,1:0|0:0,0:0:0:0:
491,161,34948,2,0,P|495:200|513:268,1,75,0|0,0:0|1:0,0:0:0:0:
326,12,35208,2,0,P|365:7|433:-10,1,75,2|0,0:3|0:0,0:0:0:0:
177,177,35469,6,0,P|172:137|155:70,2,75,0|0|0,0:0|1:0|0:0,0:0:0:0:
115,237,35861,2,0,P|199:224|288:221,1,150,2|0,0:3|0:0,0:0:0:0:
366,341,36252,2,0,P|409:280|515:310,1,168.750006437302,8|0,0:3|0:0,0:0:0:0:
502,296,36513,1,2,0:0:0:0:
472,153,36643,1,2,0:0:0:0:
347,223,36774,1,0,1:0:0:0:
329,49,36904,1,0,1:0:0:0:
164,103,37034,6,0,B|256:107|256:107|289:133|289:133|353:124|389:137,1,225.000008583069,6|0,0:0|1:0,0:0:0:0:
183,184,37426,2,0,P|127:175|59:172,1,112.500004291535,0|0,0:0|1:0,0:0:0:0:
17,68,37687,1,0,1:0:0:0:
60,284,37817,2,0,L|76:138,1,112.500004291535,8|0,0:0|1:0,0:0:0:0:
160,25,38078,1,0,1:0:0:0:
17,68,38208,1,0,0:0:0:0:
255,185,38339,1,2,0:0:0:0:
72,172,38469,1,0,1:0:0:0:
235,76,38600,6,0,P|254:140|254:198,1,112.500004291535,2|0,0:0|0:0,0:0:0:0:
107,341,38861,2,0,P|152:292|203:263,1,112.500004291535,0|0,1:0|0:0,0:0:0:0:
401,320,39121,2,0,P|336:304|285:275,1,112.500004291535,0|0,1:0|0:0,0:0:0:0:
153,98,39382,2,0,B|215:88|215:88|256:102|256:102|343:88,1,168.750006437302,8|0,0:0|0:0,0:0:0:0:
327,101,39643,1,0,1:0:0:0:
432,33,39774,1,0,1:0:0:0:
385,216,39904,1,2,0:0:0:0:
503,144,40034,1,0,0:0:0:0:
296,282,40165,102,0,B|163:238|200:331|52:284,1,225.000008583069,6|0,0:0|1:0,0:0:0:0:
5,118,40556,2,0,P|42:172|23:228,1,112.500004291535,0|0,1:0|1:0,0:0:0:0:
153,98,40817,1,0,0:0:0:0:
296,282,40948,2,0,P|379:257|447:242,1,112.500004291535,8|0,0:0|1:0,0:0:0:0:
505,156,41208,1,0,1:0:0:0:
353,76,41339,1,0,0:0:0:0:
353,76,41404,1,0,0:0:0:0:
353,76,41469,2,0,P|284:87|316:172,1,168.750006437302,2|0,0:3|0:0,0:0:0:0:
404,251,41730,6,0,B|316:239|316:239|265:263|265:263|167:252,1,225.000008583069,6|0,0:0|1:0,0:0:0:0:
52,320,42121,1,0,1:0:0:0:
166,143,42252,1,0,1:0:0:0:
4,185,42382,1,0,0:0:0:0:
185,254,42513,2,0,L|164:128,1,112.500004291535,8|2,0:0|0:3,0:0:0:0:
58,22,42774,2,0,L|84:158,2,112.500004291535,2|0|2,0:0|0:0|0:0,0:0:0:0:
4,185,43165,1,0,0:0:0:0:
178,43,43295,102,0,B|259:52|259:52|302:92|302:92|388:106,1,225.000008583069,6|0,0:0|0:0,0:0:0:0:
489,238,43687,2,0,L|360:215,1,112.500004291535,0|0,1:0|0:0,0:0:0:0:
291,301,43948,1,0,1:0:0:0:
385,106,44078,2,0,P|380:171|378:241,1,112.500004291535,8|0,0:0|0:0,0:0:0:0:
489,329,44339,1,0,1:0:0:0:
244,231,44469,1,0,0:0:0:0:
489,162,44600,1,0,1:0:0:0:
346,362,44730,1,0,0:0:0:0:
343,125,44861,6,0,P|333:63|326:6,1,112.500004291535,2|0,0:0|0:0,0:0:0:0:
244,231,45121,1,0,0:0:0:0:
172,91,45252,1,0,1:0:0:0:
82,244,45382,2,0,P|91:300|100:364,1,112.500004291535,0|0,0:0|1:0,0:0:0:0:
31,143,45643,2,0,B|78:134|111:130|111:130|165:151|165:151|205:144|269:137,1,225.000008583069,8|0,0:0|1:0,0:0:0:0:
358,243,46034,1,0,1:0:0:0:
190,357,46165,2,0,P|177:300|160:242,1,112.500004291535,2|0,0:0|0:0,0:0:0:0:
31,143,46426,102,0,B|43:227|43:227|23:269|23:269|54:316|29:371,2,225.000008583069,6|0|0,0:0|1:0|0:0,0:0:0:0:
112,34,47078,1,0,0:0:0:0:
161,248,47208,2,0,P|178:190|193:128,1,112.500004291535,8|0,0:0|0:0,0:0:0:0:
373,189,47469,2,0,P|316:202|253:221,1,112.500004291535,0|0,1:0|0:0,0:0:0:0:
216,35,47730,2,0,P|256:78|303:122,1,112.500004291535,0|0,1:0|0:0,0:0:0:0:
397,306,47991,6,0,B|413:228|413:228|429:200|429:200|423:170|423:170|443:68,1,225.000008583069,6|0,0:0|0:0,0:0:0:0:
264,218,48382,1,8,0:0:0:0:
187,138,48513,2,0,L|63:144,1,112.500004291535,2|2,0:0|0:0,0:0:0:0:
71,327,48774,101,8,0:0:0:0:
216,35,49034,5,8,0:0:0:0:
397,306,49295,101,6,0:0:0:0:
397,306,49556,6,0,B|312:288|312:288|257:299|257:299|148:277,1,225.000008583069,6|0,0:0|0:0,0:0:0:0:
3,204,49948,2,0,P|67:186|112:206,1,112.500004291535,0|0,1:0|1:0,0:0:0:0:
176,282,50208,1,0,0:0:0:0:
309,147,50339,2,0,P|366:174|439:144,1,112.500004291535,8|0,0:0|1:0,0:0:0:0:
210,13,50600,2,0,L|193:148,1,112.500004291535,0|0,1:0|0:0,0:0:0:0:
176,282,50861,2,0,P|211:198|151:110,1,168.750006437302
170,137,51121,102,0,P|107:127|41:120,1,112.500004291535,2|0,0:0|0:0,0:0:0:0:
379,83,51382,2,0,P|447:67|505:57,1,112.500004291535,0|0,1:0|0:0,0:0:0:0:
103,46,51643,2,0,P|40:17|-10:1,1,112.500004291535,0|0,1:0|0:0,0:0:0:0:
319,169,51904,2,0,P|388:172|441:179,1,112.500004291535,8|0,0:0|0:0,0:0:0:0:
221,222,52165,1,2,0:3:0:0:
278,65,52295,1,0,1:0:0:0:
396,265,52426,1,2,0:0:0:0:
488,59,52556,1,0,0:0:0:0:
221,222,52687,6,0,B|229:294|231:347,1,112.500004291535,2|0,0:0|0:0,0:0:0:0:
418,154,52948,2,0,P|404:215|394:279,1,112.500004291535,0|0,0:0|1:0,0:0:0:0:
72,119,53208,2,0,P|85:192|91:242,1,112.500004291535,0|0,0:0|1:0,0:0:0:0:
282,45,53469,2,0,P|273:116|268:167,1,112.500004291535,8|0,0:0|1:0,0:0:0:0:
276,285,53730,2,0,P|272:208|193:231,1,168.750006437302,0|0,1:0|0:0,0:0:0:0:
193,340,53991,2,0,B|258:331|258:331|292:344|292:344|370:335,1,168.750006437302,2|0,0:3|0:0,0:0:0:0:
495,264,54252,102,0,B|376:240|404:315|259:281,1,225.000008583069,2|0,0:0|1:0,0:0:0:0:
89,230,54643,1,0,0:0:0:0:
193,340,54774,1,0,0:0:0:0:
268,156,54904,1,0,1:0:0:0:
43,293,55034,2,0,P|111:195|212:234,1,225.000008583069,8|0,0:0|1:0,0:0:0:0:
275,284,55426,1,0,0:0:0:0:
347,123,55556,1,2,0:0:0:0:
395,244,55687,1,0,1:0:0:0:
231,63,55817,6,0,L|97:81,1,112.500004291535,6|0,0:0|0:0,0:0:0:0:
3,79,56078,1,0,0:0:0:0:
119,77,56208,1,2,0:0:0:0:
3,79,56339,2,0,L|137:61,1,112.500004291535,8|0,0:0|0:0,0:0:0:0:
406,174,56600,102,2,L|284:157,1,123.750001180172,6|0,0:0|0:0,0:1:0:0:
114,64,56861,1,0,0:0:0:0:
283,156,56991,1,2,0:0:0:0:
114,64,57121,2,0,L|235:80,1,123.750001180172,8|0,0:0|0:0,0:0:0:0:
505,14,57382,22,2,L|368:33,1,134.999995880127,6|0,0:0|0:0,0:1:0:0:
149,175,57643,1,2,0:0:0:0:
371,32,57774,1,8,0:0:0:0:
149,175,57904,2,0,L|302:153,1,134.999995880127,2|0,0:0|0:0,0:0:0:0:
467,264,58165,6,0,P|417:249|356:239,1,112.500004291535,2|0,0:0|0:0,0:0:0:0:
140,194,58426,1,0,1:0:0:0:
295,23,58556,1,0,0:0:0:0:
358,240,58687,2,0,P|316:261|275:279,1,89.9999972534181,2|0,0:0|0:0,0:0:0:0:
114,353,58948,37,6,0:0:0:0:
149,175,59078,1,0,1:0:0:0:
111,377,59208,2,0,P|53:364|-6:356,1,112.500004291535,0|0,0:0|1:0,0:0:0:0:
157,157,59469,2,0,P|215:170|274:178,1,112.500004291535,0|0,1:0|0:0,0:0:0:0:
28,235,59730,5,8,0:0:0:0:
83,81,59861,1,0,1:0:0:0:
201,241,59991,1,0,0:0:0:0:
259,98,60121,1,0,1:0:0:0:
358,205,60252,2,0,B|390:201|414:174|414:174|453:197|453:197|517:193,1,168.750006437302,0|0,1:0|0:0,0:0:0:0:
451,339,60513,102,0,P|407:260|262:290,1,225.000008583069,2|0,0:0|1:0,0:0:0:0:
259,98,60904,1,0,0:0:0:0:
201,241,61034,2,0,P|130:270|87:261,1,112.500004291535,0|0,1:0|1:0,0:0:0:0:
84,0,61295,6,0,P|142:46|109:202,1,225.000008583069,8|0,0:0|0:0,0:0:0:0:
45,108,61687,1,0,0:0:0:0:
259,98,61817,1,2,0:0:0:0:
259,98,61948,1,0,0:0:0:0:
318,274,62078,102,0,B|236:263|236:263|184:277|184:277|74:261,2,225.000008583069,6|0|0,0:0|1:0|0:0,0:0:0:0:
436,358,62730,1,0,1:0:0:0:
380,126,62861,5,8,0:0:0:0:
486,238,62991,1,0,0:0:0:0:
241,176,63121,2,0,L|88:187,1,112.500004291535,0|0,1:0|0:0,0:0:0:0:
18,294,63382,1,0,1:0:0:0:
89,48,63513,1,0,0:0:0:0:
241,176,63643,102,0,L|230:317,1,112.500004291535,2|0,0:0|0:0,0:0:0:0:
104,338,63904,1,0,1:0:0:0:
241,176,64034,1,0,0:0:0:0:
220,299,64165,1,0,1:0:0:0:
128,184,64295,1,0,0:0:0:0:
294,90,64426,6,0,L|432:109,1,112.500004291535,8|0,0:0|0:0,0:0:0:0:
435,225,64687,1,2,0:0:0:0:
505,28,64817,1,0,0:0:0:0:
294,90,64948,1,2,0:0:0:0:
412,118,65078,1,0,0:0:0:0:
188,41,65208,101,6,0:0:0:0:
241,176,65339,1,0,0:0:0:0:
179,25,65469,2,0,P|103:32|56:33,1,112.500004291535,0|0,1:0|1:0,0:0:0:0:
249,191,65730,2,0,P|325:184|372:183,1,112.500004291535,0|0,0:0|1:0,0:0:0:0:
204,335,65991,5,8,0:0:0:0:
108,157,66121,1,0,0:0:0:0:
79,334,66252,1,0,1:0:0:0:
194,113,66382,1,0,1:0:0:0:
363,302,66513,2,0,P|293:249|213:263,1,168.750006437302,0|0,1:0|0:0,0:0:0:0:
68,347,66774,102,0,P|78:288|90:209,1,112.500004291535,2|0,0:0|0:0,0:0:0:0:
9,67,67034,2,0,P|52:105|117:155,1,112.500004291535,0|0,1:0|1:0,0:0:0:0:
280,155,67295,2,0,P|226:172|149:204,1,112.500004291535,0|0,0:0|1:0,0:0:0:0:
0,255,67556,6,0,B|84:246|84:246|130:270|130:270|249:256,1,225.000008583069,8|0,0:0|1:0,0:0:0:0:
363,302,67948,1,0,0:0:0:0:
298,167,68078,1,2,0:0:0:0:
484,222,68208,1,0,0:0:0:0:
280,155,68339,102,0,L|299:-7,2,112.500004291535,6|0|0,0:0|1:0|0:0,0:0:0:0:
367,221,68730,1,2,0:0:0:0:
198,85,68861,2,0,L|73:99,1,112.500004291535,8|0,0:0|1:0,0:0:0:0:
34,293,69121,6,0,L|13:166,2,120,6|0|0,0:0|1:0|0:0,0:0:0:0:
141,356,69513,1,2,0:0:0:0:
280,155,69643,2,0,L|411:135,1,120,8|0,0:0|1:0,0:0:0:0:
476,357,69904,102,0,P|486:285|497:216,2,134.999995880127,2|0|0,0:0|1:0|0:0,0:0:0:0:
512,85,70295,1,8,0:0:0:0:
391,260,70426,1,2,0:0:0:0:
326,84,70556,1,0,1:0:0:0:
224,217,70687,21,8,0:0:0:0:
512,85,70948,5,12,0:0:0:0:
476,357,71208,101,2,0:0:0:0:
326,84,71469,85,2,0:0:0:0:
224,217,71600,1,0,0:0:0:0:
375,177,71730,2,0,P|449:171|496:170,1,112.500004291535,0|0,1:0|0:0,0:0:0:0:
180,121,71991,2,0,P|106:127|59:128,1,112.500004291535,0|0,1:0|0:0,0:0:0:0:
0,300,72252,5,8,0:0:0:0:
67,127,72382,1,0,1:0:0:0:
123,274,72513,1,0,0:0:0:0:
180,121,72643,1,0,1:0:0:0:
306,219,72774,2,0,B|292:278|292:278|299:305|299:305|270:341|283:397,1,168.750006437302
377,257,73034,102,0,P|357:155|253:156,1,225.000008583069,2|0,0:0|1:0,0:0:0:0:
123,274,73426,1,0,1:0:0:0:
75,119,73556,2,0,P|131:137|183:119,1,112.500004291535,0|0,0:0|1:0,0:0:0:0:
474,161,73817,6,0,B|383:149|383:149|337:165|337:165|221:151,1,225.000008583069,8|0,0:0|1:0,0:0:0:0:
123,274,74208,1,0,1:0:0:0:
127,49,74339,1,2,0:0:0:0:
127,49,74470,1,0,1:0:0:0:
354,184,74600,102,0,B|266:174|266:174|217:190|217:190|113:178,2,225.000008583069,6|0|0,0:0|1:0|0:0,0:0:0:0:
448,286,75252,1,0,1:0:0:0:
364,56,75382,5,8,0:0:0:0:
496,157,75513,1,0,1:0:0:0:
310,260,75643,2,0,P|256:265|182:274,1,112.500004291535,0|0,0:0|1:0,0:0:0:0:
58,338,75904,1,0,0:0:0:0:
30,132,76034,1,0,1:0:0:0:
198,272,76165,102,0,P|235:233|237:163,1,112.500004291535,2|0,0:0|1:0,0:0:0:0:
171,115,76426,1,0,0:0:0:0:
315,246,76556,1,0,1:0:0:0:
140,328,76687,1,0,0:0:0:0:
241,177,76817,1,0,1:0:0:0:
410,268,76948,6,0,P|397:320|386:388,1,112.500004291535,8|0,0:0|0:0,0:0:0:0:
323,232,77208,1,2,0:0:0:0:
508,184,77339,1,0,0:0:0:0:
370,90,77469,1,2,0:0:0:0:
407,175,77600,1,0,1:0:0:0:
191,253,77730,101,2,0:0:0:0:
254,87,77861,1,0,0:0:0:0:
184,270,77991,2,0,P|117:257|68:250,1,112.500004291535,0|0,1:0|1:0,0:0:0:0:
260,71,78252,2,0,P|327:84|376:91,1,112.500004291535,0|0,0:0|1:0,0:0:0:0:
174,160,78513,5,8,0:0:0:0:
353,239,78643,1,0,0:0:0:0:
174,286,78774,1,0,1:0:0:0:
400,168,78904,1,0,0:0:0:0:
141,71,79034,2,0,P|88:123|107:225,1,168.750006437302,0|0,1:0|0:0,0:0:0:0:
174,286,79295,102,0,P|252:281|307:281,1,112.500004291535,2|0,0:0|1:0,0:0:0:0:
512,185,79556,2,0,P|457:175|389:167,1,112.500004291535,0|0,0:0|1:0,0:0:0:0:
31,96,79817,2,0,P|112:76|146:70,1,112.500004291535,0|0,0:0|1:0,0:0:0:0:
461,9,80078,5,8,0:0:0:0:
400,168,80208,1,0,0:0:0:0:
338,72,80339,101,0,1:0:0:0:
286,280,80469,1,0,1:0:0:0:
313,176,80600,5,2,0:0:0:0:
174,286,80730,1,0,0:0:0:0:
423,313,80861,102,0,B|409:235|409:235|424:178|424:178|404:68,1,225.000008583069,6|0,0:0|1:0,0:0:0:0:
461,9,81252,1,2,0:0:0:0:
248,118,81382,2,0,P|190:110|109:107,1,112.500004291535,8|0,0:0|0:0,0:0:0:0:
7,337,81643,6,0,P|60:259|191:318,1,225.000008583069,6|0,0:0|1:0,0:0:0:0:
271,248,82034,1,2,0:0:0:0:
52,102,82165,2,0,L|64:247,1,112.500004291535,8|0,0:0|0:0,0:0:0:0:
56,228,82361,1,0,0:0:0:0:
51,241,82426,102,0,B|191:201|139:280|290:243,1,225.000008583069,2|0,0:0|1:0,0:0:0:0:
488,69,82817,1,8,0:0:0:0:
444,218,82948,1,2,0:0:0:0:
444,218,83078,1,2,0:0:0:0:
228,14,83208,53,8,0:0:0:0:
400,367,83469,5,8,0:0:0:0:
395,380,83730,5,2,0:0:0:0:
444,218,83861,1,0,0:0:0:0:
271,248,83991,54,0,B|141:229|185:305|48:277,1,225.000008583069,6|0,0:0|1:0,0:0:0:0:
233,348,84382,1,0,0:0:0:0:
105,172,84513,1,0,0:0:0:0:
105,172,84578,1,0,0:0:0:0:
105,172,84643,1,0,1:0:0:0:
340,88,84774,6,0,P|271:131|188:92,1,168.750006437302,8|0,0:0|0:0,0:0:0:0:
105,172,85034,2,0,P|43:141|-13:154,1,112.500004291535,0|0,1:0|0:0,0:0:0:0:
123,40,85295,1,0,0:0:0:0:
32,248,85426,1,0,1:0:0:0:
326,181,85556,102,0,B|243:170|243:170|196:183|196:183|93:170,1,225.000008583069,2|0,0:0|0:0,0:0:0:0:
269,296,85948,1,0,1:0:0:0:
487,222,86078,1,0,0:0:0:0:
455,352,86208,1,0,1:0:0:0:
326,181,86339,6,0,L|311:46,1,112.500004291535,8|0,0:0|0:0,0:0:0:0:
512,14,86600,2,0,L|497:159,1,112.500004291535,0|0,1:0|0:0,0:0:0:0:
395,270,86861,1,2,0:0:0:0:
313,69,86991,1,0,0:0:0:0:
175,270,87121,102,0,B|257:259|257:259|312:280|312:280|403:268,1,225.000008583069,6|0,0:0|1:0,0:0:0:0:
500,125,87513,1,0,0:0:0:0:
395,270,87643,1,0,0:0:0:0:
313,69,87774,1,0,1:0:0:0:
413,294,87904,6,0,P|336:265|250:369,1,225.000008583069,8|0,0:0|0:0,0:0:0:0:
175,270,88295,1,0,1:0:0:0:
345,360,88426,1,0,0:0:0:0:
321,159,88556,1,0,1:0:0:0:
128,335,88687,102,0,B|265:301|210:388|366:356,1,225.000008583069,2|0,0:0|1:0,0:0:0:0:
496,246,89078,1,8,0:0:0:0:
232,184,89208,1,2,0:0:0:0:
232,184,89339,1,0,1:0:0:0:
268,296,89469,5,8,0:0:0:0:
139,119,89600,1,0,0:0:0:0:
347,186,89730,1,2,0:0:0:0:
139,253,89861,1,0,0:0:0:0:
268,77,89991,1,0,0:0:0:0:
268,77,90252,6,0,P|253:186|155:152,1,202.499993820191,6|0,0:0|0:0,0:0:0:0:
139,119,90513,2,0,L|131:69,2,28.1250010728836,0|0|0,1:0|1:0|1:0,0:0:0:0:
139,253,90643,1,8,0:0:0:0:
103,78,90774,2,0,B|162:69|162:69|206:86|206:86|303:71,1,168.750006437302,2|0,0:0|0:0,0:0:0:0:
335,7,91034,5,8,0:0:0:0:
76,63,91165,1,8,0:0:0:0:
280,166,91295,1,8,0:0:0:0:
139,253,91426,1,8,0:0:0:0:
139,253,91491,1,8,0:0:0:0:
139,253,91556,1,8,0:0:0:0:
55,50,91687,1,8,0:0:0:0:
280,166,91817,102,0,B|348:170|348:170|354:172|354:172|450:180,1,150,6|0,0:0|1:0,0:0:0:0:
437,190,92208,2,0,B|409:185|409:185|394:189|394:189|357:183,1,75,0|0,1:0|0:0,0:0:0:0:
390,93,92339,2,0,B|362:88|362:88|347:92|347:92|310:86,1,75,0|0,1:0|0:0,0:0:0:0:
309,243,92469,2,0,B|281:238|281:238|266:242|266:242|229:236,1,75,0|0,1:0|0:0,0:0:0:0:
175,124,92600,6,2,B|195:205|195:205|189:250|189:250|213:287|213:287|227:356,1,225,8|0,0:0|0:0,0:1:0:0:
309,348,92861,2,0,P|259:258|143:309,1,225,0|0,1:0|0:0,0:0:0:0:
223,338,93121,2,0,B|280:331|280:331|312:349|312:349|397:340,1,168.750006437302,2|0,0:3|0:0,0:0:0:0:
486,357,93382,102,0,B|479:298|479:298|488:260|488:260|478:223|478:223|493:129,1,202.499993820191,2|0,0:0|0:0,0:0:0:0:
481,168,93643,2,0,B|445:160|445:160|404:167,1,67.4999979400635,0|0,1:0|0:0,0:0:0:0:
343,253,93774,2,0,B|379:261|379:261|420:254,1,67.4999979400635,0|0,1:0|0:0,0:0:0:0:
269,158,93904,1,0,0:0:0:0:
309,348,94034,1,0,1:0:0:0:
172,184,94165,6,0,B|124:177|124:177|89:184|89:184|11:174,2,134.999995880127,8|0|0,0:0|1:0|1:0,0:0:0:0:
269,158,94556,2,0,P|262:195|264:238,1,67.4999979400635,0|0,1:0|0:0,0:0:0:0:
209,286,94687,2,0,B|209:225|209:225|223:192|223:192|215:159|215:159|228:73,1,202.499993820191,2|0,0:0|0:0,0:0:0:0:
166,20,94948,102,0,B|104:25|104:25|97:28|97:28|12:35,1,150,6|0,0:0|1:0,0:0:0:0:
11,46,95339,2,0,B|42:38|42:38|63:41|63:41|97:36,1,75,0|0,1:0|0:0,0:0:0:0:
151,96,95469,2,0,B|182:88|182:88|203:91|203:91|225:88,1,75,0|0,1:0|0:0,0:0:0:0:
353,5,95600,2,0,B|332:9|332:9|311:6|311:6|280:14,1,75,0|0,1:0|0:0,0:0:0:0:
72,148,95730,6,2,B|91:233|91:233|82:273|82:273|101:298|101:298|116:374,1,225,8|0,0:0|0:0,0:1:0:0:
209,286,95991,2,0,B|254:267|246:213|246:213|154:178|119:277,1,225,0|0,1:0|0:0,0:0:0:0:
113,362,96252,2,0,B|157:336|194:340|194:340|229:376|291:359,1,168.750006437302,2|0,0:3|0:0,0:0:0:0:
392,353,96513,102,0,B|388:327|388:327|392:307|392:307|379:242,1,75,2|0,1:0|0:0,0:0:0:0:
431,38,96643,2,0,B|435:64|435:64|431:84|431:84|444:149,1,75,2|0,1:0|0:0,0:0:0:0:
443,201,96774,2,0,B|365:196|365:196|321:219|321:219|203:212,1,202.499993820191,2|0,1:0|0:0,0:0:0:0:
209,286,97034,2,0,B|247:297|247:297|288:286,1,75,0|0,1:0|0:0,0:0:0:0:
285,143,97165,2,0,B|247:133|247:133|206:143,1,75,0|0,1:0|0:0,0:0:0:0:
48,220,97295,5,8,0:0:0:0:
159,42,97426,1,0,1:0:0:0:
147,187,97556,101,0,1:0:0:0:
291,68,97687,1,0,1:0:0:0:
246,214,97817,5,2,0:0:0:0:
436,111,97948,1,0,1:0:0:0:
282,287,98078,102,0,B|210:290|210:290|203:293|203:293|119:297,1,150,6|0,0:0|1:0,0:0:0:0:
124,307,98469,2,0,B|165:303|165:303|179:307|179:307|214:302,1,75,0|0,1:0|0:0,0:0:0:0:
246,214,98600,2,0,B|286:209|286:209|300:213|300:213|335:208,1,75,0|0,1:0|0:0,0:0:0:0:
352,357,98730,2,0,B|392:352|392:352|406:356|406:356|441:351,1,75,0|0,1:0|0:0,0:0:0:0:
383,167,98861,6,2,B|350:118|380:45|452:57|452:57|434:93|435:132,1,225,8|0,0:0|0:0,0:1:0:0:
464,213,99121,2,0,B|397:204|397:204|359:219|359:219|315:205|315:205|246:214,1,225,0|0,1:0|0:0,0:0:0:0:
234,91,99382,2,0,P|303:62|290:129,1,168.750006437302,2|0,0:3|0:0,0:0:0:0:
157,160,99643,102,0,B|169:232|169:232|185:260|185:260|178:294|178:294|189:371,1,202.499993820191,2|0,0:0|0:0,0:0:0:0:
201,370,99904,2,0,B|235:359|235:359|266:364,1,67.4999979400635,0|0,1:0|0:0,0:0:0:0:
94,274,100034,2,0,B|60:263|60:263|21:270,1,67.4999979400635,0|0,1:0|0:0,0:0:0:0:
246,214,100165,1,0,0:0:0:0:
55,370,100295,1,0,1:0:0:0:
44,149,100426,6,0,B|41:100|41:100|50:69|50:69|45:14,2,134.999995880127,8|0|0,0:0|1:0|0:0,0:0:0:0:
159,226,100817,2,0,P|161:194|155:155,1,67.4999979400635,0|0,1:0|0:0,0:0:0:0:
206,89,100948,2,0,B|199:156|199:156|207:191|207:191|200:230|200:230|220:314,1,202.499993820191,2|0,0:0|0:0,0:0:0:0:
344,375,101208,102,0,B|349:310|349:310|352:304|352:304|359:225,1,150,6|0,0:0|0:0,0:0:0:0:
348,219,101600,2,0,B|339:260|339:260|342:274|342:274|336:301,1,75,0|0,1:0|0:0,0:0:0:0:
464,172,101730,2,0,B|454:212|454:212|457:226|457:226|451:253,1,75,0|0,1:0|0:0,0:0:0:0:
305,80,101861,2,0,B|295:120|295:120|298:134|298:134|292:161,1,75,0|0,1:0|0:0,0:0:0:0:
337,292,101991,22,2,B|264:317|227:279|227:279|198:302|198:302|169:265|132:267|132:267|96:298|35:283,1,309.37501180172,8|0,0:0|0:0,0:1:0:0:
43,292,102774,22,0,L|60:167,2,112.500004291535,2|0|0,0:0|0:0|0:0,0:0:0:0:
33,51,103165,1,8,0:0:0:0:
181,164,103295,1,2,0:0:0:0:
181,164,103361,1,0,0:0:0:0:
181,164,103426,1,0,0:0:0:0:
336,73,103556,5,8,0:0:0:0:
58,180,103817,5,8,0:0:0:0:
336,73,104078,5,2,0:0:0:0:
180,330,104339,6,0,B|173:261|173:261|185:219|185:219|178:136,1,168.750006437302,6|0,0:0|0:0,0:0:0:0:
196,42,104600,2,0,P|139:128|114:78,1,202.499993820191,0|0,1:0|0:0,0:0:0:0:
126,220,104861,2,0,P|153:239|187:241,1,67.4999979400635,0|0,1:0|0:0,0:0:0:0:
258,178,104991,2,0,P|261:145|246:116,1,67.4999979400635,0|0,1:0|0:0,0:0:0:0:
114,91,105121,6,0,B|211:84|211:84|236:74|236:74|265:79|265:79|376:70,1,225,8|0,0:0|0:0,0:0:0:0:
393,168,105382,70,0,P|400:132|479:140,1,112.5,0|0,1:0|0:0,0:0:0:0:
389,259,105643,54,0,L|385:322,1,56.25,2|0,1:0|0:0,0:0:0:0:
483,344,105904,86,0,B|406:340|406:340|384:347|384:347|359:336|359:336|269:331,1,202.499993820191,2|0,0:0|0:0,0:0:0:0:
112,369,106165,2,0,B|105:340|105:340|108:318|108:318|97:277,1,75,2|0,1:0|0:0,0:0:0:0:
28,45,106295,2,0,B|35:74|35:74|32:96|32:96|43:137,1,75,2|0,1:0|0:0,0:0:0:0:
48,223,106426,2,0,P|42:167|117:186,1,134.999995880127,2|0,0:3|0:0,0:0:0:0:
102,295,106687,53,8,0:0:0:0:
172,87,106817,2,0,P|214:94|249:79,1,75,0|0,1:0|0:0,0:0:0:0:
174,213,106948,2,0,P|210:205|253:213,1,67.4999979400635,0|0,1:0|0:0,0:0:0:0:
342,109,107078,2,0,P|372:117|402:105,1,56.2500021457673,0|0,1:0|0:0,0:0:0:0:
347,211,107208,37,2,0:0:0:0:
424,108,107339,1,2,0:3:0:0:
491,295,107469,6,0,B|429:286|429:286|388:301|388:301|303:291,1,168.750006437302,6|0,0:0|0:0,0:0:0:0:
259,351,107730,2,0,P|282:264|209:302,1,202.499993820191,0|0,1:0|0:0,0:0:0:0:
347,211,107991,2,0,P|386:230|409:283,1,67.4999979400635
392,354,108121,2,0,P|356:378|298:371,1,67.4999979400635,0|0,1:0|0:0,0:0:0:0:
212,286,108252,6,0,B|220:212|220:212|214:177|214:177|228:148|228:148|235:59,1,225,8|0,0:0|0:0,0:0:0:0:
104,39,108513,70,0,P|148:85|117:138,1,112.5,0|0,1:0|0:0,0:0:0:0:
17,22,108774,54,0,L|29:88,1,56.25,2|0,1:0|0:0,0:0:0:0:
45,168,109034,101,2,0:0:0:0:
25,364,109165,1,2,1:0:0:0:
212,286,109295,2,0,B|261:278|261:278|292:282|292:282|322:272|322:272|388:273,1,168.750006437302,2|0,1:0|0:0,0:0:0:0:
465,301,109556,70,0,P|417:303|405:369,1,112.5,0|0,1:0|0:0,0:0:0:0:
289,238,109817,38,0,B|285:193|285:193|290:165|290:165|281:82,2,134.999995880127,8|0|0,0:0|0:0|0:0,0:0:0:0:
264,344,110208,2,0,P|296:334|329:336,1,67.4999979400635
478,187,110339,2,0,L|406:193,1,56.2500021457673,2|0,0:0|0:0,0:0:0:0:
378,272,110469,1,0,1:0:0:0:
448,103,110600,102,0,B|377:95|377:95|343:110|343:110|235:99,1,168.750006437302,6|0,0:0|0:0,0:0:0:0:
204,41,110861,2,0,P|265:86|172:109,1,202.499993820191,0|0,1:0|0:0,0:0:0:0:
303,181,111121,2,0,P|341:158|360:117,1,67.4999979400635,0|0,1:0|0:0,0:0:0:0:
341,47,111252,2,0,P|302:24|256:28,1,67.4999979400635,0|0,1:0|0:0,0:0:0:0:
182,123,111382,6,0,B|187:188|187:188|181:211|181:211|190:231|190:231|195:291,1,168.750006437302,8|0,0:0|0:0,0:0:0:0:
108,264,111643,70,0,P|92:218|102:170,1,84.3750032186509
181,211,111904,22,0,B|187:248|187:248|106:251|28:257|28:257|36:314,1,225,2|0,1:0|0:0,0:0:0:0:
42,365,112165,5,2,0:0:0:0:
178,49,112426,102,0,B|176:81|176:81|183:101|183:101|180:144,1,75,2|0,1:0|0:0,0:0:0:0:
198,362,112556,2,0,B|200:330|200:330|193:310|193:310|196:267,1,75,2|0,1:0|0:0,0:0:0:0:
181,211,112687,2,0,P|176:154|97:196,1,168.750006437302,2|0,0:3|0:0,0:0:0:0:
108,264,112948,53,8,0:0:0:0:
258,85,113078,2,0,P|288:102|337:94,1,75,0|0,1:0|0:0,0:0:0:0:
272,255,113208,2,0,P|305:245|342:252,1,67.4999979400635,0|0,1:0|0:0,0:0:0:0:
407,117,113339,2,0,P|439:125|468:121,1,56.2500021457673,0|0,1:0|0:0,0:0:0:0:
430,236,113469,37,2,0:0:0:0:
481,117,113600,1,2,0:3:0:0:
260,174,113730,6,0,B|203:168|203:168|162:187|162:187|85:182,1,168.750006437302,2|0,0:0|0:0,0:0:0:0:
93,297,113991,2,0,P|26:253|26:341,1,202.499993820191
29,174,114252,2,0,P|68:174|102:186,1,67.4999979400635,0|0,1:0|0:0,0:0:0:0:
157,242,114382,2,0,P|169:282|166:325,1,67.4999979400635,0|0,1:0|0:0,0:0:0:0:
22,339,114513,6,0,B|139:332|139:332|169:341|169:341|201:329|201:329|267:325,1,225,8|0,0:0|0:0,0:0:0:0:
348,352,114774,102,0,B|343:284|343:284|353:244|353:244|333:206|333:206|339:175|339:175|332:100,1,247.500007553101,2|0,1:0|0:0,0:0:0:0:
416,81,115034,6,0,B|390:32|331:25|331:25|268:42|251:94|251:94|252:127|264:153,1,269.999991760254,2|0,1:0|0:0,0:0:0:0:
375,221,115295,38,0,B|251:196|281:271|151:240,1,225.000008583069,2|0,0:0|1:0,0:0:0:0:
18,45,115687,1,8,0:0:0:0:
158,115,115817,1,2,0:0:0:0:
158,115,115882,1,0,0:0:0:0:
158,115,115948,1,0,1:0:0:0:
33,278,116078,6,0,P|40:210|55:154,1,112.500004291535,8|8,0:0|0:0,0:0:0:0:
114,16,116339,1,8,0:0:0:0:
261,146,116469,1,8,0:0:0:0:
268,119,116534,1,8,0:0:0:0:
276,92,116600,1,8,0:0:0:0:
51,167,116730,1,8,0:0:0:0:
375,221,116861,5,6,0:0:0:0:
375,221,126252,6,0,P|286:214|196:209,1,168.750006437302,6|2,0:0|0:0,0:0:0:0:
111,282,126774,1,8,0:0:0:0:
432,124,127034,102,0,B|300:87|339:162|189:121,1,225,6|2,0:0|0:0,0:0:0:0:
96,296,127556,1,8,0:0:0:0:
298,342,127687,1,2,0:0:0:0:
281,64,127817,86,0,P|194:34|121:145,1,225.000008583069,6|0,0:0|1:0,0:0:0:0:
81,310,128208,1,8,0:0:0:0:
211,126,128339,1,2,0:0:0:0:
211,126,128469,1,2,0:0:0:0:
298,342,128600,5,8,0:0:0:0:
395,77,128861,5,8,0:0:0:0:
118,125,129121,5,2,0:0:0:0:
102,111,129382,69,2,0:0:0:0:
186,302,129513,1,0,1:0:0:0:
205,76,129643,2,0,P|148:92|84:99,1,120,0|0,0:0|1:0,0:0:0:0:
79,340,129904,2,0,P|136:324|200:317,1,120,0|0,1:0|0:0,0:0:0:0:
409,82,130165,5,8,0:0:0:0:
391,323,130295,1,0,1:0:0:0:
298,103,130426,1,0,0:0:0:0:
279,273,130556,1,0,1:0:0:0:
485,204,130687,2,0,L|273:189,1,180,0|0,1:0|0:0,0:0:0:0:
100,306,130948,6,0,P|178:225|279:273,1,240,2|0,0:0|0:0,0:0:0:0:
197,317,131339,1,0,1:0:0:0:
379,199,131469,2,0,P|414:222|492:197,1,120,0|0,1:0|0:0,0:0:0:0:
431,373,131730,6,0,P|383:263|261:294,1,240,8|0,0:0|0:0,0:0:0:0:
173,85,132121,1,0,1:0:0:0:
437,148,132252,1,2,0:0:0:0:
437,148,132382,1,0,1:0:0:0:
196,316,132513,6,0,B|178:272|174:235|174:235|194:180|194:180|194:134|161:54,2,240,2|0|0,0:0|1:0|0:0,0:0:0:0:
78,161,133165,1,0,1:0:0:0:
277,246,133295,5,8,0:0:0:0:
101,324,133426,1,0,0:0:0:0:
173,85,133556,2,0,L|310:61,1,120,0|0,1:0|0:0,0:0:0:0:
432,172,133817,1,0,1:0:0:0:
488,12,133948,1,0,0:0:0:0:
233,149,134078,70,0,B|141:128|141:128|101:140|101:140|43:111|-18:148,1,240,2|0,0:0|1:0,0:0:0:0:
158,236,134469,1,0,0:0:0:0:
291,64,134600,2,0,P|351:57|429:51,1,120,0|0,1:0|0:0,0:0:0:0:
485,268,134861,6,0,P|417:259|344:250,1,120,8|0,0:0|0:0,0:0:0:0:
267,364,135121,1,0,1:0:0:0:
353,118,135252,1,0,1:0:0:0:
485,268,135382,1,2,0:0:0:0:
512,108,135513,1,0,1:0:0:0:
366,253,135643,69,2,0:0:0:0:
291,64,135774,1,0,0:0:0:0:
255,287,135904,2,0,P|324:272|393:268,1,120,0|0,0:0|1:0,0:0:0:0:
395,32,136165,2,0,P|326:47|257:51,1,120,0|0,1:0|0:0,0:0:0:0:
53,289,136426,5,8,0:0:0:0:
124,109,136556,1,0,1:0:0:0:
255,287,136687,1,0,0:0:0:0:
276,50,136817,1,0,1:0:0:0:
453,224,136948,2,0,P|362:174|283:242,1,180,0|0,1:0|0:0,0:0:0:0:
171,336,137208,102,0,P|178:256|185:203,1,120,2|0,0:0|0:0,0:0:0:0:
453,224,137469,70,0,P|439:144|427:92,1,120,0|0,1:0|1:0,0:0:0:0:
0,128,137730,102,0,P|20:50|36:-1,1,120,0|0,0:0|1:0,0:0:0:0:
385,0,137991,5,8,0:0:0:0:
362,163,138121,1,0,0:0:0:0:
269,65,138252,101,0,1:0:0:0:
176,211,138382,1,0,1:0:0:0:
142,81,138513,5,2,0:0:0:0:
261,281,138643,1,0,1:0:0:0:
374,78,138774,38,0,B|316:65|270:64|270:64|221:90|221:90|181:82|119:79,1,240,6|0,0:0|0:0,0:0:0:0:
8,142,139165,1,2,0:0:0:0:
141,322,139295,2,0,P|159:234|168:197,1,120,8|0,0:0|1:0,0:0:0:0:
303,32,139556,6,0,P|425:10|450:117,1,240,6|8,0:0|0:3,0:0:0:0:
285,209,139948,1,2,0:0:0:0:
142,80,140078,2,0,P|208:87|296:102,1,120,8|0,0:0|0:0,0:0:0:0:
465,276,140339,6,0,B|328:243|375:334|214:293,1,240,6|0,0:0|0:0,0:0:0:0:
14,152,140730,1,8,0:0:0:0:
260,95,140861,1,2,0:0:0:0:
260,95,140991,1,2,0:0:0:0:
67,366,141121,5,8,0:0:0:0:
465,276,141382,85,8,0:0:0:0:
481,281,141643,101,2,0:0:0:0:
376,130,141774,1,0,0:0:0:0:
300,340,141904,70,0,B|171:312|194:395|60:364,1,240,6|0,0:0|1:0,0:0:0:0:
209,225,142295,1,0,1:0:0:0:
9,117,142426,1,0,0:0:0:0:
9,117,142491,1,0,0:0:0:0:
9,117,142556,1,0,1:0:0:0:
67,365,142687,38,0,P|121:301|221:325,1,180,8|0,0:0|0:0,0:0:0:0:
329,226,142948,2,0,P|390:254|453:236,1,120,0|0,1:0|0:0,0:0:0:0:
507,149,143208,1,0,1:0:0:0:
427,363,143339,1,0,0:0:0:0:
209,225,143469,6,0,B|293:218|293:218|349:249|349:249|475:243,1,240,2|0,0:0|1:0,0:0:0:0:
507,149,143861,1,0,1:0:0:0:
319,337,143992,1,0,0:0:0:0:
511,306,144122,1,0,1:0:0:0:
299,135,144252,102,0,L|314:-3,1,120,8|0,0:0|0:0,0:0:0:0:
440,244,144513,2,0,L|425:382,1,120,0|0,1:0|0:0,0:0:0:0:
209,224,144774,1,2,0:0:0:0:
402,93,144904,1,0,0:0:0:0:
165,142,145034,70,0,P|113:227|224:319,1,240,6|0,0:0|1:0,0:0:0:0:
427,363,145426,1,0,1:0:0:0:
186,345,145556,1,0,0:0:0:0:
440,244,145687,1,0,1:0:0:0:
175,371,145817,38,0,B|157:291|157:291|174:249|174:249|135:195|174:119,1,240,8|0,0:0|1:0,0:0:0:0:
406,139,146208,1,0,1:0:0:0:
222,269,146339,1,0,0:0:0:0:
427,363,146469,1,0,1:0:0:0:
175,118,146600,6,0,B|235:92|289:126|289:126|343:159|417:135,1,240,6|0,0:0|1:0,0:0:0:0:
442,8,146991,1,8,0:0:0:0:
259,200,147121,1,2,0:0:0:0:
259,200,147252,1,0,1:0:0:0:
372,320,147382,37,8,0:0:0:0:
113,170,147513,1,0,0:0:0:0:
405,138,147643,1,2,0:0:0:0:
187,336,147774,1,0,1:0:0:0:
248,47,147904,1,4,0:0:0:0:
274,276,148165,37,2,0:0:0:0:
199,146,148296,1,0,1:0:0:0:
334,205,148426,1,0,0:0:0:0:
190,237,148557,1,0,1:0:0:0:
288,127,148687,1,2,0:0:0:0:
274,276,148817,1,0,1:0:0:0:
259,200,148948,1,8,0:0:0:0:
259,200,149600,6,0,L|247:144,3,40,2|2|2|6,0:0|0:0|0:0|0:0,0:0:0:0:
256,192,149795,12,0,155208,0:0:0:0:
