osu file format v14

[General]
AudioFilename: audio.mp3
AudioLeadIn: 0
PreviewTime: 58952
Countdown: 0
SampleSet: Soft
StackLeniency: 0.4
Mode: 0
LetterboxInBreaks: 0
WidescreenStoryboard: 1

[Editor]
Bookmarks: 147909
DistanceSpacing: 1.1
BeatDivisor: 2
GridSize: 4
TimelineZoom: 1.2

[Metadata]
Title:Sky of the Ocean
TitleUnicode:Sky of the Ocean
Artist:Memme
ArtistUnicode:Memme
Creator:Syph
Version:Curi's Advanced.
Source:O2Jam U
Tags:parkmemme m2u cheesecake [c_u_r_i] -tochi snownino_ emilia xlolicore- hikaru_rose moecho moeri derandom_otaku
BeatmapID:1429742
BeatmapSetID:668888

[Difficulty]
HPDrainRate:3
CircleSize:3.5
OverallDifficulty:4
ApproachRate:5
SliderMultiplier:0.8
SliderTickRate:1

[Events]
//Background and Video events
0,0,"bg.jpg",0,0
//Break Periods
2,117061,125052
//Storyboard Layer 0 (Background)
//Storyboard Layer 1 (Fail)
//Storyboard Layer 2 (Pass)
//Storyboard Layer 3 (Foreground)
//Storyboard Sound Samples

[TimingPoints]
1035,260.869565217391,3,2,1,70,1,0
1035,-100,3,2,1,70,0,0
3382,-100,3,2,1,70,0,0
10426,-100,3,2,1,70,0,0
11208,-100,3,2,0,50,0,0
11991,-100,3,2,0,70,0,0
24513,-100,3,2,0,60,0,0
37034,-100,3,2,1,70,0,0
51839,-100,3,2,1,5,0,0
51904,-100,3,2,1,70,0,0
54969,-100,3,2,1,5,0,0
55034,-100,3,2,1,70,0,0
58948,-100,3,2,1,85,0,1
70621,-100,3,2,1,85,0,0
70687,-100,3,2,1,85,0,1
71404,-100,3,2,1,85,0,0
71469,-100,3,2,1,85,0,1
77665,-100,3,2,1,5,0,1
77731,-100,3,2,1,85,0,1
81056,-100,3,2,1,5,0,1
81121,-100,3,2,1,85,0,1
81578,-100,3,2,1,5,0,1
81643,-100,3,2,1,85,0,1
83991,-100,3,2,1,70,0,0
84187,-100,3,2,1,5,0,0
84252,-100,3,2,1,70,0,0
89991,-100,3,2,1,70,0,0
90252,-100,3,2,1,75,0,1
90448,-100,3,2,1,5,0,1
90513,-100,3,2,1,75,0,1
90969,-100,3,2,1,5,0,1
91034,-100,3,2,1,75,0,1
91882,-100,3,2,1,5,0,1
91948,-100,3,2,1,75,0,1
92274,-100,3,2,1,5,0,1
92339,-100,3,2,1,75,0,1
92534,-100,3,2,1,5,0,1
92600,-100,3,2,1,75,0,1
92795,-100,3,2,1,5,0,1
92861,-100,3,2,1,75,0,1
93056,-100,3,2,1,5,0,1
93121,-100,3,2,1,75,0,1
93317,-100,3,2,1,5,0,1
93382,-100,3,2,1,75,0,1
93448,-100,3,2,1,5,0,1
93513,-100,3,2,1,75,0,1
93578,-100,3,2,1,5,0,1
93643,-100,3,2,1,75,0,1
93708,-100,3,2,1,5,0,1
93773,-100,3,2,1,75,0,1
93839,-100,3,2,1,5,0,1
93904,-100,3,2,1,75,0,1
94100,-100,3,2,1,5,0,1
94165,-100,3,2,1,75,0,1
94230,-100,3,2,1,5,0,1
94295,-100,3,2,1,75,0,1
94361,-100,3,2,1,5,0,1
94426,-100,3,2,1,75,0,1
94491,-100,3,2,1,5,0,1
94556,-100,3,2,1,75,0,1
94621,-100,3,2,1,5,0,1
94687,-100,3,2,1,75,0,1
94882,-100,3,2,1,5,0,1
94948,-100,3,2,1,75,0,1
95013,-100,3,2,1,5,0,1
95078,-100,3,2,1,75,0,1
95404,-100,3,2,1,5,0,1
95470,-100,3,2,1,75,0,1
95665,-100,3,2,1,5,0,1
95730,-100,3,2,1,75,0,1
95926,-100,3,2,1,5,0,1
95991,-100,3,2,1,75,0,1
96187,-100,3,2,1,5,0,1
96251,-100,3,2,1,75,0,1
96448,-100,3,2,1,5,0,1
96513,-100,3,2,1,75,0,1
96578,-100,3,2,1,5,0,1
96643,-100,3,2,1,75,0,1
96708,-100,3,2,1,5,0,1
96774,-100,3,2,1,75,0,1
96969,-100,3,2,1,5,0,1
97034,-100,3,2,1,75,0,1
97230,-100,3,2,1,5,0,1
97295,-100,3,2,1,75,0,1
98143,-100,3,2,1,5,0,1
98208,-100,3,2,1,75,0,1
98534,-100,3,2,1,5,0,1
98600,-100,3,2,1,75,0,1
98795,-100,3,2,1,5,0,1
98861,-100,3,2,1,75,0,1
99056,-100,3,2,1,5,0,1
99122,-100,3,2,1,75,0,1
99317,-100,3,2,1,5,0,1
99383,-100,3,2,1,75,0,1
99578,-100,3,2,1,5,0,1
99643,-100,3,2,1,75,0,1
99708,-100,3,2,1,5,0,1
99774,-100,3,2,1,75,0,1
99839,-100,3,2,1,5,0,1
99905,-100,3,2,1,75,0,1
99969,-100,3,2,1,5,0,1
100035,-100,3,2,1,75,0,1
100100,-100,3,2,1,5,0,1
100166,-100,3,2,1,75,0,1
100361,-100,3,2,1,5,0,1
100426,-100,3,2,1,75,0,1
100491,-100,3,2,1,5,0,1
100556,-100,3,2,1,75,0,1
100621,-100,3,2,1,5,0,1
100686,-100,3,2,1,75,0,1
100752,-100,3,2,1,5,0,1
100817,-100,3,2,1,75,0,1
100882,-100,3,2,1,5,0,1
100948,-100,3,2,1,75,0,1
101143,-100,3,2,1,5,0,1
101208,-100,3,2,1,75,0,1
101274,-100,3,2,1,5,0,1
101339,-100,3,2,1,75,0,1
101665,-100,3,2,1,5,0,1
101730,-100,3,2,1,75,0,1
101926,-100,3,2,1,5,0,1
101991,-100,3,2,1,75,0,0
102708,-100,3,2,1,5,0,0
102774,-100,3,2,1,70,0,1
104339,-100,3,2,1,70,0,1
104600,-100,3,2,1,75,0,1
104795,-100,3,2,1,5,0,1
104861,-100,3,2,1,75,0,1
104926,-100,3,2,1,5,0,1
104991,-100,3,2,1,75,0,1
105056,-100,3,2,1,5,0,1
105121,-100,3,2,1,75,0,1
105317,-100,3,2,1,5,0,1
105382,-100,3,2,1,75,0,1
105578,-100,3,2,1,5,0,1
105643,-100,3,2,1,75,0,1
105839,-100,3,2,1,5,0,1
105904,-100,3,2,1,75,0,1
106230,-100,3,2,1,5,0,1
106295,-100,3,2,1,75,0,1
106361,-100,3,2,1,5,0,1
106426,-100,3,2,1,75,0,1
106621,-100,3,2,1,5,0,1
106687,-100,3,2,1,75,0,1
106752,-100,3,2,1,5,0,1
106817,-100,3,2,1,75,0,1
106882,-100,3,2,1,5,0,1
106947,-100,3,2,1,75,0,1
107013,-100,3,2,1,5,0,1
107078,-100,3,2,1,75,0,1
107143,-100,3,2,1,5,0,1
107208,-100,3,2,1,75,0,1
107926,-100,3,2,1,5,0,1
107991,-100,3,2,1,75,0,1
108056,-100,3,2,1,5,0,1
108121,-100,3,2,1,75,0,1
108187,-100,3,2,1,5,0,1
108251,-100,3,2,1,75,0,1
108448,-100,3,2,1,5,0,1
108512,-100,3,2,1,75,0,1
108708,-100,3,2,1,5,0,1
108774,-100,3,2,1,75,0,1
108969,-100,3,2,1,5,0,1
109034,-100,3,2,1,75,0,1
109491,-100,3,2,1,5,0,1
109557,-100,3,2,1,75,0,1
109752,-100,3,2,1,5,0,1
109817,-100,3,2,1,75,0,1
109882,-100,3,2,1,5,0,1
109948,-100,3,2,1,75,0,1
110013,-100,3,2,1,5,0,1
110079,-100,3,2,1,75,0,1
110143,-100,3,2,1,5,0,1
110209,-100,3,2,1,75,0,1
110274,-100,3,2,1,5,0,1
110340,-100,3,2,1,75,0,1
110404,-100,3,2,1,5,0,1
110470,-100,3,2,1,75,0,1
110534,-100,3,2,1,5,0,1
110600,-100,3,2,1,75,0,1
111056,-100,3,2,1,5,0,1
111121,-100,3,2,1,75,0,1
111187,-100,3,2,1,5,0,1
111252,-100,3,2,1,75,0,1
111317,-100,3,2,1,5,0,1
111382,-100,3,2,1,75,0,1
111578,-100,3,2,1,5,0,1
111643,-100,3,2,1,75,0,1
111839,-100,3,2,1,5,0,1
111904,-100,3,2,1,75,0,1
112100,-100,3,2,1,5,0,1
112165,-100,3,2,1,75,0,1
112491,-100,3,2,1,5,0,1
112556,-100,3,2,1,75,0,1
112621,-100,3,2,1,5,0,1
112687,-100,3,2,1,75,0,1
112882,-100,3,2,1,5,0,1
112948,-100,3,2,1,75,0,1
114187,-100,3,2,1,5,0,1
114252,-100,3,2,1,75,0,1
114317,-100,3,2,1,5,0,1
114382,-100,3,2,1,75,0,1
114448,-100,3,2,1,5,0,1
114513,-100,3,2,1,75,0,1
114708,-100,3,2,1,5,0,1
114774,-100,3,2,1,75,0,1
114969,-100,3,2,1,5,0,1
115034,-100,3,2,1,75,0,1
115230,-100,3,2,1,5,0,1
115296,-100,3,2,1,85,0,1
116861,-100,3,2,1,60,0,0
123121,-100,3,2,1,60,0,0
123122,-100,3,2,0,60,0,0
126252,-100,3,2,1,70,0,0
126448,-100,3,2,1,5,0,0
126513,-100,3,2,1,70,0,0
127361,-100,3,2,1,5,0,0
127426,-100,3,2,1,70,0,0
128143,-100,3,2,1,5,0,0
128208,-100,3,2,1,70,0,0
129382,-100,3,2,1,75,0,1
138969,-100,3,2,1,5,0,1
139034,-100,3,2,1,75,0,1
139752,-100,3,2,1,5,0,1
139817,-100,3,2,1,75,0,1
140665,-100,3,2,1,5,0,1
140730,-100,3,2,1,75,0,1
141904,-100,3,2,1,70,0,0
144708,-100,3,2,1,5,0,0
144774,-100,3,2,1,70,0,0
148165,-100,3,2,1,50,0,0
148295,-100,3,2,1,56,0,0
148426,-100,3,2,1,62,0,0
148556,-100,3,2,1,66,0,0
148687,-100,3,2,1,71,0,0
148817,-100,3,2,1,66,0,0
148948,-100,3,2,1,75,0,0
155208,-100,3,2,1,5,0,0

[Colours]
Combo1 : 82,179,186
Combo2 : 112,142,173
Combo3 : 115,157,155
Combo4 : 16,154,237
Combo5 : 33,199,222
Combo6 : 73,141,197

[HitObjects]
116,345,4165,6,0,L|228:330,2,80,6|4|4,0:0|3:1|0:1,0:0:0:0:
31,371,4948,1,8,0:0:0:0:
5,287,5208,2,0,P|-7:216|44:158,1,120,4|4,0:1|0:1,0:0:0:0:
56,159,5730,6,0,L|211:144,1,120,2|4,0:0|0:1,0:0:0:0:
219,147,6252,2,0,L|209:205,1,40,2|4,0:0|0:1,0:0:0:0:
207,230,6513,1,8,0:0:0:0:
294,241,6774,2,0,L|309:140,1,80,0|2,3:0|0:0,0:0:0:0:
393,173,7295,6,0,L|366:365,1,160,2|4,0:0|3:1,0:0:0:0:
284,351,8078,2,0,P|196:312|124:352,1,160,8|4,0:0|0:1,0:0:0:0:
62,373,8861,6,0,L|50:233,1,120,2|0,0:0|0:0,0:0:0:0:
50,209,9382,1,2,0:0:0:0:
78,125,9643,2,0,P|49:119|16:128,2,40,8|4|2,0:0|3:1|0:0,0:0:0:0:
111,153,10034,1,4,0:1:0:0:
155,151,10165,1,4,0:1:0:0:
155,151,11730,5,4,3:0:0:0:
217,88,11991,6,0,L|316:81,2,80,2|0|0,0:0|0:0|0:0,0:0:0:0:
155,151,12774,1,8,0:0:0:0:
215,214,13035,1,0,0:0:0:0:
381,270,13556,6,0,L|480:262,2,80,2|0|0,0:0|0:0|0:0,0:0:0:0:
300,307,14339,2,0,P|213:343|135:292,1,160,8|0,0:0|0:0,0:0:0:0:
140,277,14991,1,0,0:0:0:0:
140,277,15121,6,0,L|155:106,1,160,2|0,0:0|0:0,0:0:0:0:
230,161,15904,2,0,L|221:261,2,80,8|0|2,0:0|0:0|0:0,0:0:0:0:
306,116,16687,5,2,0:0:0:0:
272,34,16948,1,0,0:0:0:0:
185,19,17208,1,0,0:0:0:0:
117,75,17469,1,10,0:0:0:0:
10,219,17991,2,0,L|21:271,1,40,0|0,0:0|0:0,0:0:0:0:
29,300,18252,6,0,P|92:318|171:263,1,160,2|0,0:0|0:0,0:0:0:0:
209,193,19034,2,0,P|284:176|347:223,1,160,10|0,0:0|0:0,0:0:0:0:
396,296,19817,6,0,L|381:125,1,160,2|0,0:0|0:0,0:0:0:0:
305,91,20600,2,0,P|262:82|206:89,2,80,8|2|0,0:0|0:0|0:0,0:0:0:0:
382,136,21382,2,0,P|440:132|450:32,1,160,2|2,0:0|0:0,0:0:0:0:
372,34,22165,5,10,0:0:0:0:
305,91,22426,1,0,0:0:0:0:
308,178,22687,1,2,3:0:0:0:
376,232,22948,2,0,P|422:234|478:219,2,80,2|0|2,0:0|0:0|0:0,0:0:0:0:
308,178,23730,1,12,0:3:0:0:
229,138,23991,2,0,P|189:131|149:133,1,80,8|2,0:3|0:0,0:0:0:0:
87,196,24513,6,0,L|97:289,2,80,2|0|0,0:0|0:0|0:0,0:0:0:0:
65,110,25295,1,8,0:0:0:0:
149,133,25556,1,0,0:0:0:0:
321,166,26078,6,0,P|391:157|425:135,2,80,2|0|0,0:0|0:0|0:0,0:0:0:0:
254,108,26861,2,0,P|237:193|299:253,1,160,8|0,0:0|0:0,0:0:0:0:
322,256,27513,1,0,0:0:0:0:
322,256,27643,6,0,P|399:250|483:205,1,160,2|2,0:0|0:0,0:0:0:0:
485,126,28426,2,0,P|435:132|401:158,2,80,8|0|0,0:0|0:0|0:0,0:0:0:0:
472,213,29208,5,2,0:0:0:0:
495,297,29469,1,0,0:0:0:0:
411,323,29730,1,0,0:0:0:0:
387,237,29991,2,0,P|310:274|222:229,1,160,8|0,0:0|0:0,0:0:0:0:
165,209,30774,6,0,L|151:48,1,160,2|0,0:0|0:0,0:0:0:0:
235,75,31556,2,0,L|241:155,2,80,8|0|0,0:0|0:0|0:0,0:0:0:0:
314,36,32339,6,0,P|386:22|460:101,1,160,2|0,0:0|0:0,0:0:0:0:
424,155,33121,2,0,P|469:157|509:131,2,80,8|0|2,0:0|0:0|0:0,0:0:0:0:
341,122,33904,6,0,L|173:116,1,160,2|0,0:0|0:0,0:0:0:0:
93,103,34687,2,0,P|83:59|93:16,2,80,8|0|0,0:0|0:0|0:0,0:0:0:0:
107,144,35339,1,0,0:0:0:0:
107,144,35469,6,0,P|111:203|111:213,1,40,2|0,0:0|0:0,0:0:0:0:
70,262,35861,2,0,P|122:272|167:250,1,80,0|0,3:0|0:0,0:0:0:0:
180,236,36252,2,0,P|232:226|277:248,1,80,8|8,3:0|0:0,0:0:0:0:
272,274,36643,1,8,0:0:0:0:
272,274,36774,2,0,L|279:349,1,40,10|10,0:0|0:0,0:0:0:0:
282,357,37034,6,0,P|350:368|382:343,1,80,6|0,0:0|3:0,0:0:0:0:
401,288,37556,1,4,0:1:0:0:
414,201,37817,2,0,L|386:33,1,160,8|4,0:0|0:1,0:0:0:0:
360,8,38469,1,4,0:1:0:0:
360,8,38600,6,0,P|311:10|265:26,1,80,2|4,0:0|0:1,0:0:0:0:
236,94,39121,1,4,0:1:0:0:
188,168,39382,2,0,P|122:194|48:138,1,160,8|2,0:0|0:0,0:0:0:0:
32,108,40034,1,4,0:1:0:0:
32,108,40165,6,0,P|28:166|26:219,1,80,2|0,0:0|3:0,0:0:0:0:
19,275,40687,1,4,0:1:0:0:
3,361,40948,2,0,B|34:370|79:345|79:345|121:321|180:349,1,160,8|4,0:0|0:1,0:0:0:0:
238,371,41730,6,0,P|303:370|336:348,1,80,2|4,0:0|0:1,0:0:0:0:
379,302,42252,1,0,3:0:0:0:
402,217,42513,2,0,L|382:41,1,160,8|2,0:0|0:0,0:0:0:0:
300,86,43295,6,0,L|312:181,2,80,2|0|4,0:0|3:0|0:1,0:0:0:0:
224,40,44078,2,0,P|130:33|70:103,1,160,8|4,3:2|0:1,0:0:0:0:
66,113,44730,1,4,0:1:0:0:
66,113,44861,6,0,P|68:178|96:220,2,80,2|4|4,0:0|3:1|0:1,0:0:0:0:
148,144,45643,1,8,0:0:0:0:
223,189,45904,2,0,P|226:228|215:266,1,80,0|2,3:0|0:0,0:0:0:0:
141,315,46426,6,0,P|245:293|326:290,1,160,2|4,0:0|0:1,0:0:0:0:
376,330,47208,2,0,P|464:338|488:336,2,80,8|0|4,0:0|3:0|3:1,0:0:0:0:
298,289,47991,6,0,L|306:200,1,80,6|0,0:0|3:0,0:0:0:0:
310,165,48382,1,8,0:0:0:0:
310,165,48513,1,2,0:0:0:0:
356,89,48774,1,12,0:0:0:0:
441,99,49034,2,0,P|429:137|400:164,1,80,8|2,0:0|0:0,0:0:0:0:
310,165,49556,5,6,0:0:0:0:
229,128,49817,1,0,3:0:0:0:
147,160,50078,1,4,0:1:0:0:
69,117,50339,2,0,P|57:172|133:253,1,160,8|4,0:0|0:1,0:0:0:0:
203,266,51121,6,0,L|307:251,2,80,2|0|0,0:0|3:0|3:0,0:0:0:0:
180,351,51904,2,0,L|356:325,1,160,8|2,0:0|0:0,0:0:0:0:
382,324,52556,1,4,0:1:0:0:
382,324,52687,6,0,P|384:274|386:223,2,80,6|4|4,0:0|0:1|0:1,0:0:0:0:
460,363,53469,2,0,P|464:303|465:195,1,160,8|4,0:0|0:1,0:0:0:0:
422,125,54252,6,0,P|348:94|266:147,1,160,2|4,0:0|0:1,0:0:0:0:
226,196,55034,2,0,L|114:177,1,80,8|4,0:0|0:1,0:0:0:0:
59,169,55556,1,2,0:0:0:0:
2,101,55817,6,0,P|57:90|143:73,1,120,6|2,0:0|0:0,0:0:0:0:
163,68,56339,1,8,0:0:0:0:
243,31,56600,2,0,P|298:42|384:59,1,120,6|2,0:0|0:0,0:0:0:0:
392,85,57121,2,0,L|446:77,1,40,8|2,0:0|3:2,0:0:0:0:
475,74,57382,6,0,P|505:132|464:204,1,120,6|8,0:0|0:0,0:0:0:0:
459,213,57904,1,2,0:0:0:0:
378,176,58165,1,6,0:0:0:0:
305,225,58426,1,8,0:0:0:0:
318,311,58687,1,2,0:0:0:0:
398,347,58948,6,0,L|479:336,2,80,6|4|4,0:0|0:1|0:1,0:0:0:0:
318,311,59730,2,0,L|238:300,1,80,8|4,0:0|0:1,0:0:0:0:
151,286,60252,1,0,3:0:0:0:
65,263,60513,6,0,P|39:191|115:127,1,160,2|4,0:0|3:1,0:0:0:0:
173,112,61295,2,0,L|336:94,1,160,8|2,0:0|0:0,0:0:0:0:
376,90,61948,1,4,0:1:0:0:
376,90,62078,5,2,0:0:0:0:
449,40,62339,1,4,3:1:0:0:
490,117,62600,1,4,3:1:0:0:
416,166,62861,2,0,L|307:180,2,80,8|4|2,0:0|3:1|0:0,0:0:0:0:
457,187,63513,1,0,3:0:0:0:
457,187,63643,6,0,P|453:269|437:376,1,160,2|0,0:0|3:0,0:0:0:0:
356,367,64426,2,0,P|274:363|167:347,1,160,8|2,0:0|0:0,0:0:0:0:
130,307,65208,6,0,P|117:357|125:390,2,80,2|4|4,0:0|0:1|3:1,0:0:0:0:
203,257,65991,1,8,0:0:0:0:
234,174,66252,1,4,3:1:0:0:
187,99,66513,1,4,0:1:0:0:
100,85,66774,6,0,L|16:95,2,80,2|4|4,0:0|3:1|3:1,0:0:0:0:
187,99,67556,2,0,B|261:128|261:128|360:81,1,160,8|2,0:0|0:0,0:0:0:0:
365,62,68208,1,4,0:1:0:0:
365,62,68339,6,0,P|357:141|358:204,1,120,6|2,0:0|0:0,0:0:0:0:
360,225,68861,1,8,0:0:0:0:
415,292,69121,2,0,P|359:313|300:292,1,120,6|2,0:0|0:0,0:0:0:0:
279,258,69643,2,0,P|258:255|223:260,1,40,8|2,0:0|0:0,0:0:0:0:
202,280,69904,6,0,P|144:304|77:273,1,120,6|8,0:0|0:0,0:0:0:0:
60,255,70426,1,2,0:0:0:0:
108,181,70687,1,6,0:0:0:0:
59,107,70948,1,12,0:0:0:0:
103,31,71208,1,2,0:0:0:0:
186,57,71469,6,0,P|223:49|274:38,2,80,6|4|4,0:0|3:1|0:1,0:0:0:0:
202,143,72252,2,0,P|239:135|290:124,1,80,8|4,0:0|3:1,0:0:0:0:
368,127,72774,1,2,3:0:0:0:
447,162,73034,6,0,P|486:236|438:315,1,160,2|4,0:0|3:1,0:0:0:0:
376,335,73817,2,0,L|209:315,1,160,8|2,0:0|0:0,0:0:0:0:
173,310,74469,1,4,0:1:0:0:
173,310,74600,5,2,0:0:0:0:
93,346,74861,1,4,3:1:0:0:
51,268,75121,1,4,0:1:0:0:
123,218,75382,2,0,L|208:229,2,80,8|4|4,0:0|3:1|3:1,0:0:0:0:
89,189,76034,1,0,0:0:0:0:
89,189,76165,6,0,P|66:131|130:60,1,160,2|2,0:0|3:0,0:0:0:0:
205,92,76948,2,0,P|284:83|367:66,1,160,8|2,0:0|0:0,0:0:0:0:
439,23,77730,6,0,P|448:75|436:110,1,80,2|4,0:0|3:1,0:0:0:0:
393,174,78252,1,4,0:1:0:0:
318,221,78513,2,0,P|309:273|321:308,2,80,8|4|0,0:0|0:1|3:0,0:0:0:0:
393,174,79295,5,2,0:0:0:0:
439,248,79556,1,4,3:1:0:0:
424,334,79817,1,0,3:0:0:0:
348,376,80078,2,0,B|309:387|270:368|270:368|230:348|192:364,1,160,8|2,0:0|0:0,0:0:0:0:
151,379,80730,1,4,3:1:0:0:
151,379,80861,6,0,P|154:314|155:228,1,120,6|0,0:0|0:0,0:0:0:0:
154,215,81382,1,8,0:0:0:0:
79,170,81643,2,0,P|76:113|91:40,1,120,6|2,0:0|0:0,0:0:0:0:
109,13,82165,1,8,0:0:0:0:
186,54,82426,6,0,B|223:69|263:49|263:49|302:30|341:41,1,160,6|2,0:0|0:0,0:0:0:0:
407,99,83208,2,0,P|421:158|403:205,1,80,12|12,0:0|0:0,0:0:0:0:
356,240,83730,2,0,L|295:235,1,40,2|4,0:0|3:1,0:0:0:0:
279,212,83991,6,0,L|194:219,2,80,6|4|4,0:0|0:1|0:1,0:0:0:0:
340,149,84774,1,2,0:0:0:0:
255,126,85034,2,0,L|111:138,1,120,4|4,3:1|0:1,0:0:0:0:
91,141,85556,6,0,P|61:200|104:285,1,160,2|4,0:0|0:1,0:0:0:0:
134,304,86208,1,2,0:0:0:0:
134,304,86339,2,0,P|182:302|223:282,1,80,8|4,0:0|3:1,0:0:0:0:
271,225,86861,1,2,0:0:0:0:
298,141,87121,6,0,P|339:111|463:152,1,160,2|4,0:0|0:1,0:0:0:0:
490,200,87904,2,0,P|496:269|485:364,1,160,2|4,0:0|0:1,0:0:0:0:
397,358,88687,6,0,P|352:348|258:327,1,120,2|8,0:0|0:0,0:0:0:0:
237,320,89208,1,2,0:0:0:0:
158,281,89469,2,0,P|140:288|113:292,2,40,12|4|2,0:0|0:1|0:0,0:0:0:0:
184,244,89861,1,4,0:1:0:0:
226,233,89991,1,4,3:1:0:0:
312,239,90252,6,0,P|344:203|331:128,1,120,6|8,0:0|0:0,0:0:0:0:
304,105,90774,1,2,0:0:0:0:
216,113,91034,2,0,L|117:128,2,80,8|8|8,0:0|0:0|0:0,0:0:0:0:
304,105,91817,6,0,P|394:106|425:163,1,160,6|2,0:0|0:0,0:0:0:0:
410,247,92600,2,0,L|423:335,2,80,8|2|0,0:0|0:0|3:0,0:0:0:0:
340,193,93382,6,0,B|309:181|262:200|262:200|219:216|183:200,1,160,2|0,0:0|3:0,0:0:0:0:
122,137,94165,2,0,P|96:194|147:283,1,160,8|2,0:0|0:0,0:0:0:0:
216,313,94948,6,0,P|289:316|350:292,1,120,2|0,0:0|0:0,0:0:0:0:
369,278,95469,1,2,0:0:0:0:
403,197,95730,2,0,P|403:146|398:106,2,80,8|2|0,0:0|0:0|3:0,0:0:0:0:
369,278,96513,6,0,L|316:269,1,40,2|2,1:0|0:1,0:0:0:0:
299,238,96774,2,0,L|198:254,1,80,2|2,0:1|0:0,0:0:0:0:
159,314,97295,1,8,0:0:0:0:
136,228,97556,1,4,3:1:0:0:
202,170,97817,1,2,0:0:0:0:
287,150,98078,6,0,L|418:135,1,120,2|0,0:0|0:0,0:0:0:0:
450,131,98600,1,2,0:0:0:0:
433,44,98861,2,0,L|512:34,2,80,8|2|0,0:0|0:0|3:0,0:0:0:0:
345,50,99643,6,0,B|293:45|293:45|240:67|240:67|161:61,1,160,2|2,0:0|0:0,0:0:0:0:
102,49,100426,2,0,P|46:86|63:192,1,160,8|2,0:0|0:0,0:0:0:0:
80,252,101208,6,0,P|148:262|235:254,1,120,2|0,0:0|0:0,0:0:0:0:
243,255,101730,1,2,0:0:0:0:
307,194,101991,2,0,P|360:188|412:190,2,80,8|0|0,0:0|0:0|0:0,0:0:0:0:
243,255,102774,5,6,0:0:0:0:
287,330,103034,1,4,3:1:0:0:
374,339,103295,1,2,0:0:0:0:
428,269,103556,2,0,P|467:263|507:263,2,80,12|8|2,0:0|0:0|0:0,0:0:0:0:
374,339,104339,6,0,P|307:351|186:350,1,160,6|0,0:0|0:0,0:0:0:0:
141,305,105121,2,0,P|129:238|130:117,1,160,8|0,0:0|3:0,0:0:0:0:
171,71,105904,6,0,P|227:56|296:59,1,120,2|2,0:0|0:1,0:0:0:0:
331,69,106426,1,2,0:0:0:0:
396,127,106687,2,0,P|438:115|477:95,2,80,8|0|2,0:0|0:0|0:0,0:0:0:0:
312,154,107469,6,0,P|264:211|310:290,1,160,2|0,0:0|0:0,0:0:0:0:
377,313,108252,2,0,P|439:302|471:285,2,80,8|2|0,0:0|0:0|3:0,0:0:0:0:
294,282,109034,6,0,P|209:265|145:277,1,120,2|0,0:0|0:0,0:0:0:0:
134,281,109556,1,2,0:0:0:0:
65,336,109817,2,0,P|44:277|50:253,2,80,8|0|2,0:0|3:0|0:0,0:0:0:0:
134,281,110600,6,0,P|153:205|115:125,1,160,2|0,0:0|0:0,0:0:0:0:
40,98,111382,2,0,L|208:78,1,160,8|0,0:0|3:0,0:0:0:0:
270,27,112165,6,0,L|389:40,1,120,2|2,0:0|0:1,0:0:0:0:
432,47,112687,1,2,0:0:0:0:
485,116,112948,2,0,P|492:184|474:222,1,80,8|2,0:0|0:0,0:0:0:0:
421,249,113469,2,0,L|373:243,1,40,2|4,0:0|0:1,0:0:0:0:
362,204,113730,6,0,L|273:214,1,80,2|2,0:0|3:0,0:0:0:0:
197,237,114252,1,0,0:0:0:0:
111,258,114513,2,0,L|22:248,2,80,8|2|0,0:0|0:0|1:0,0:0:0:0:
196,237,115295,5,6,0:0:0:0:
216,151,115556,1,2,0:0:0:0:
150,94,115817,1,2,3:2:0:0:
66,122,116078,2,0,L|-32:105,2,80,8|8|8,0:0|0:0|0:0,0:0:0:0:
150,94,116861,5,6,0:0:0:0:
97,326,126252,6,0,P|159:337|222:301,1,120,6|2,0:0|0:0,0:0:0:0:
239,282,126774,1,8,0:0:0:0:
296,215,127034,2,0,P|358:204|421:240,1,120,6|2,0:0|0:0,0:0:0:0:
438,259,127556,1,8,0:0:0:0:
468,341,127817,6,0,P|400:353|346:288,1,160,6|4,0:0|3:1,0:0:0:0:
408,226,128600,2,0,P|412:186|397:139,1,80,6|8,0:0|0:0,0:0:0:0:
346,79,129121,1,2,0:0:0:0:
423,36,129382,6,0,L|504:47,2,80,6|4|4,0:0|3:1|0:1,0:0:0:0:
346,79,130165,2,0,L|266:90,1,80,8|4,0:0|0:1,0:0:0:0:
178,96,130686,1,0,3:0:0:0:
91,114,130947,6,0,P|65:186|141:250,1,160,2|4,0:0|3:1,0:0:0:0:
198,271,131730,2,0,L|361:289,1,160,8|2,0:0|0:0,0:0:0:0:
401,293,132382,1,4,0:1:0:0:
401,293,132513,5,2,0:0:0:0:
460,228,132774,1,4,3:1:0:0:
439,142,133034,1,4,3:1:0:0:
354,118,133295,2,0,L|265:109,2,80,8|2|2,0:0|0:0|0:0,0:0:0:0:
391,95,133947,1,4,0:1:0:0:
391,95,134078,6,0,L|204:76,1,160,2|0,0:0|3:0,0:0:0:0:
158,128,134861,2,0,P|162:210|178:317,1,160,8|2,0:0|0:0,0:0:0:0:
223,358,135643,6,0,P|172:372|139:365,2,80,2|4|4,0:0|0:1|0:1,0:0:0:0:
258,277,136425,1,8,0:0:0:0:
235,191,136686,1,4,0:1:0:0:
148,174,136947,1,4,0:1:0:0:
78,228,137208,6,0,L|-6:218,2,80,2|0|4,0:0|3:0|3:1,0:0:0:0:
148,174,137991,2,0,B|222:145|222:145|321:192,1,160,8|2,0:0|0:0,0:0:0:0:
329,206,138642,1,4,0:1:0:0:
329,206,138773,6,0,P|321:127|322:64,1,120,6|2,0:0|0:0,0:0:0:0:
336,45,139295,1,8,0:0:0:0:
247,46,139556,2,0,P|189:55|123:15,1,120,6|2,0:0|0:0,0:0:0:0:
96,9,140077,2,0,P|75:6|40:11,1,40,8|4,0:0|0:1,0:0:0:0:
19,31,140338,6,0,P|-5:89|26:156,1,120,6|8,0:0|0:0,0:0:0:0:
44,170,140860,1,2,0:0:0:0:
113,224,141121,2,0,P|105:284|97:315,1,80,8|8,0:0|0:0,0:0:0:0:
58,380,141643,1,2,0:0:0:0:
146,378,141904,6,0,L|258:363,2,80,6|4|4,0:0|3:1|3:1,0:0:0:0:
100,302,142687,1,10,0:0:0:0:
55,226,142947,2,0,P|126:214|184:265,1,120,4|4,0:1|0:1,0:0:0:0:
198,265,143469,6,0,L|353:250,1,120,2|4,0:0|0:1,0:0:0:0:
361,251,143991,2,0,L|351:309,1,40,2|4,0:0|0:1,0:0:0:0:
352,334,144252,1,8,0:0:0:0:
439,347,144513,2,0,L|454:246,1,80,4|8,3:1|0:0,0:0:0:0:
450,179,145034,6,0,P|381:157|267:190,1,160,2|4,0:0|3:1,0:0:0:0:
218,213,145817,2,0,P|149:235|35:202,1,160,2|8,1:2|0:0,0:0:0:0:
3,155,146600,6,0,P|5:93|26:37,1,120,2|8,0:0|0:0,0:0:0:0:
62,16,147121,1,2,0:0:0:0:
134,66,147382,2,0,L|174:60,1,40,8|4,0:0|0:1,0:0:0:0:
213,41,147643,2,0,L|253:47,1,40,2|4,0:0|0:1,0:0:0:0:
296,53,147904,1,4,3:1:0:0:
360,112,148165,6,0,P|373:171|304:250,1,160,0|0,3:0|3:0,0:0:0:0:
289,161,148948,1,0,3:0:0:0:
256,192,149730,12,0,155208,0:0:0:0:
