osu file format v14

[General]
AudioFilename: audio.mp3
AudioLeadIn: 0
PreviewTime: 58952
Countdown: 0
SampleSet: Soft
StackLeniency: 0.4
Mode: 0
LetterboxInBreaks: 0
WidescreenStoryboard: 1

[Editor]
Bookmarks: 147909
DistanceSpacing: 0.2
BeatDivisor: 4
GridSize: 32
TimelineZoom: 1.2

[Metadata]
Title:Sky of the Ocean
TitleUnicode:Sky of the Ocean
Artist:Memme
ArtistUnicode:Memme
Creator:Syph
Version:Air of the Sea.
Source:O2Jam U
Tags:parkmemme m2u cheesecake [c_u_r_i] -tochi snownino_ emilia xlolicore- hikaru_rose moecho moeri derandom_otaku
BeatmapID:1414928
BeatmapSetID:668888

[Difficulty]
HPDrainRate:6.8
CircleSize:4
OverallDifficulty:10
ApproachRate:9.8
SliderMultiplier:1.8
SliderTickRate:1

[Events]
//Background and Video events
0,0,"bg.jpg",0,0
//Break Periods
2,117061,122626
//Storyboard Layer 0 (Background)
//Storyboard Layer 1 (Fail)
//Storyboard Layer 2 (Pass)
//Storyboard Layer 3 (Foreground)
//Storyboard Sound Samples

[TimingPoints]
1035,260.869565217391,3,2,1,70,1,0
3382,-100,3,2,1,65,0,0
6708,-100,3,2,1,70,0,0
6774,-100,3,2,1,70,0,0
11208,-100,3,2,0,50,0,0
11991,-175.438596491228,3,2,0,70,0,0
24513,-156.25,3,2,0,60,0,0
37034,-100,3,2,1,70,0,0
51839,-100,3,2,1,5,0,0
51904,-100,3,2,1,70,0,0
54969,-100,3,2,1,5,0,0
55034,-100,3,2,1,70,0,0
55817,-100,3,2,1,80,0,0
58948,-100,3,2,1,85,0,1
69121,-83.3333333333333,3,2,1,85,0,1
69905,-76.9230769230769,3,2,1,85,0,1
70426,-100,3,2,1,85,0,1
77665,-100,3,2,1,5,0,1
77731,-100,3,2,1,85,0,1
81056,-100,3,2,1,5,0,1
81121,-100,3,2,1,85,0,1
81578,-100,3,2,1,5,0,1
81643,-100,3,2,1,85,0,1
83991,-100,3,2,1,70,0,0
84187,-100,3,2,1,5,0,0
84252,-100,3,2,1,70,0,0
89992,-76.9230769230769,3,2,1,70,0,0
90252,-100,3,2,1,75,0,1
90448,-100,3,2,1,5,0,1
90513,-100,3,2,1,75,0,1
90969,-100,3,2,1,5,0,1
91034,-100,3,2,1,75,0,1
91882,-100,3,2,1,5,0,1
91948,-100,3,2,1,75,0,1
92209,-83.3333333333333,3,2,1,75,0,1
92274,-83.3333333333333,3,2,1,5,0,1
92339,-71.4285714285714,3,2,1,75,0,1
92534,-71.4285714285714,3,2,1,5,0,1
92600,-80,3,2,1,75,0,1
92795,-80,3,2,1,5,0,1
92861,-86.9565217391304,3,2,1,75,0,1
93056,-86.9565217391304,3,2,1,5,0,1
93121,-100,3,2,1,75,0,1
93317,-100,3,2,1,5,0,1
93382,-71.4285714285714,3,2,1,75,0,1
93448,-71.4285714285714,3,2,1,5,0,1
93513,-71.4285714285714,3,2,1,75,0,1
93578,-71.4285714285714,3,2,1,5,0,1
93643,-71.4285714285714,3,2,1,75,0,1
93708,-71.4285714285714,3,2,1,5,0,1
93773,-71.4285714285714,3,2,1,75,0,1
93839,-71.4285714285714,3,2,1,5,0,1
93904,-71.4285714285714,3,2,1,75,0,1
94100,-71.4285714285714,3,2,1,5,0,1
94165,-66.6666666666667,3,2,1,75,0,1
94230,-66.6666666666667,3,2,1,5,0,1
94295,-66.6666666666667,3,2,1,75,0,1
94361,-66.6666666666667,3,2,1,5,0,1
94426,-66.6666666666667,3,2,1,75,0,1
94491,-66.6666666666667,3,2,1,5,0,1
94556,-66.6666666666667,3,2,1,75,0,1
94621,-66.6666666666667,3,2,1,5,0,1
94687,-100,3,2,1,75,0,1
94882,-100,3,2,1,5,0,1
94948,-100,3,2,1,75,0,1
95013,-100,3,2,1,5,0,1
95078,-100,3,2,1,75,0,1
95339,-83.3333333333333,3,2,1,75,0,1
95404,-83.3333333333333,3,2,1,5,0,1
95470,-71.4285714285714,3,2,1,75,0,1
95665,-71.4285714285714,3,2,1,5,0,1
95730,-80,3,2,1,75,0,1
95926,-80,3,2,1,5,0,1
95991,-86.9565217391304,3,2,1,75,0,1
96187,-86.9565217391304,3,2,1,5,0,1
96251,-100,3,2,1,75,0,1
96448,-100,3,2,1,5,0,1
96513,-55.5555555555556,3,2,1,75,0,1
96578,-55.5555555555556,3,2,1,5,0,1
96643,-55.5555555555556,3,2,1,75,0,1
96708,-55.5555555555556,3,2,1,5,0,1
96774,-90.9090909090909,3,2,1,75,0,1
96969,-90.9090909090909,3,2,1,5,0,1
97034,-100,3,2,1,75,0,1
97230,-100,3,2,1,5,0,1
97295,-100,3,2,1,75,0,1
98143,-100,3,2,1,5,0,1
98208,-100,3,2,1,75,0,1
98469,-83.3333333333333,3,2,1,75,0,1
98534,-83.3333333333333,3,2,1,5,0,1
98600,-71.4285714285714,3,2,1,75,0,1
98795,-71.4285714285714,3,2,1,5,0,1
98861,-80,3,2,1,75,0,1
99056,-80,3,2,1,5,0,1
99122,-86.9565217391304,3,2,1,75,0,1
99317,-86.9565217391304,3,2,1,5,0,1
99383,-100,3,2,1,75,0,1
99578,-100,3,2,1,5,0,1
99643,-71.4285714285714,3,2,1,75,0,1
99708,-71.4285714285714,3,2,1,5,0,1
99774,-71.4285714285714,3,2,1,75,0,1
99839,-71.4285714285714,3,2,1,5,0,1
99905,-71.4285714285714,3,2,1,75,0,1
99969,-71.4285714285714,3,2,1,5,0,1
100035,-71.4285714285714,3,2,1,75,0,1
100100,-71.4285714285714,3,2,1,5,0,1
100166,-71.4285714285714,3,2,1,75,0,1
100361,-71.4285714285714,3,2,1,5,0,1
100426,-66.6666666666667,3,2,1,75,0,1
100491,-66.6666666666667,3,2,1,5,0,1
100556,-66.6666666666667,3,2,1,75,0,1
100621,-66.6666666666667,3,2,1,5,0,1
100686,-66.6666666666667,3,2,1,75,0,1
100752,-66.6666666666667,3,2,1,5,0,1
100817,-66.6666666666667,3,2,1,75,0,1
100882,-66.6666666666667,3,2,1,5,0,1
100948,-100,3,2,1,75,0,1
101143,-100,3,2,1,5,0,1
101208,-100,3,2,1,75,0,1
101274,-100,3,2,1,5,0,1
101339,-100,3,2,1,75,0,1
101600,-71.4285714285714,3,2,1,75,0,1
101665,-71.4285714285714,3,2,1,5,0,1
101730,-71.4285714285714,3,2,1,75,0,1
101926,-71.4285714285714,3,2,1,5,0,1
101991,-153.846153846154,3,2,1,75,0,1
102708,-166.666666666667,3,2,1,5,0,1
102774,-100,3,2,1,70,0,0
104600,-90.9090909090909,3,2,1,75,0,1
104795,-90.9090909090909,3,2,1,5,0,1
104861,-83.3333333333333,3,2,1,75,0,1
104926,-83.3333333333333,3,2,1,5,0,1
104991,-83.3333333333333,3,2,1,75,0,1
105056,-83.3333333333333,3,2,1,5,0,1
105121,-76.9230769230769,3,2,1,75,0,1
105317,-76.9230769230769,3,2,1,5,0,1
105382,-90.9090909090909,3,2,1,75,0,1
105578,-90.9090909090909,3,2,1,5,0,1
105643,-74.0740740740741,3,2,1,75,0,1
105839,-74.0740740740741,3,2,1,5,0,1
105904,-74.0740740740741,3,2,1,75,0,1
106165,-55.5555555555556,3,2,1,75,0,1
106230,-55.5555555555556,3,2,1,5,0,1
106295,-55.5555555555556,3,2,1,75,0,1
106361,-55.5555555555556,3,2,1,5,0,1
106426,-100,3,2,1,75,0,1
106621,-100,3,2,1,5,0,1
106687,-71.4285714285714,3,2,1,75,0,1
106752,-71.4285714285714,3,2,1,5,0,1
106817,-71.4285714285714,3,2,1,75,0,1
106882,-71.4285714285714,3,2,1,5,0,1
106947,-71.4285714285714,3,2,1,75,0,1
107013,-71.4285714285714,3,2,1,5,0,1
107078,-71.4285714285714,3,2,1,75,0,1
107143,-71.4285714285714,3,2,1,5,0,1
107208,-71.4285714285714,3,2,1,75,0,1
107469,-100,3,2,1,75,0,1
107730,-90.9090909090909,3,2,1,75,0,1
107926,-90.9090909090909,3,2,1,5,0,1
107991,-83.3333333333333,3,2,1,75,0,1
108056,-83.3333333333333,3,2,1,5,0,1
108121,-83.3333333333333,3,2,1,75,0,1
108187,-83.3333333333333,3,2,1,5,0,1
108251,-76.9230769230769,3,2,1,75,0,1
108448,-76.9230769230769,3,2,1,5,0,1
108512,-90.9090909090909,3,2,1,75,0,1
108708,-90.9090909090909,3,2,1,5,0,1
108774,-74.0740740740741,3,2,1,75,0,1
108969,-74.0740740740741,3,2,1,5,0,1
109034,-74.0740740740741,3,2,1,75,0,1
109295,-100,3,2,1,75,0,1
109491,-100,3,2,1,5,0,1
109557,-125,3,2,1,75,0,1
109752,-125,3,2,1,5,0,1
109817,-71.4285714285714,3,2,1,75,0,1
109882,-71.4285714285714,3,2,1,5,0,1
109948,-71.4285714285714,3,2,1,75,0,1
110013,-71.4285714285714,3,2,1,5,0,1
110079,-71.4285714285714,3,2,1,75,0,1
110143,-71.4285714285714,3,2,1,5,0,1
110209,-71.4285714285714,3,2,1,75,0,1
110274,-71.4285714285714,3,2,1,5,0,1
110340,-71.4285714285714,3,2,1,75,0,1
110404,-71.4285714285714,3,2,1,5,0,1
110470,-71.4285714285714,3,2,1,75,0,1
110534,-71.4285714285714,3,2,1,5,0,1
110600,-100,3,2,1,75,0,1
110861,-90.9090909090909,3,2,1,75,0,1
111056,-90.9090909090909,3,2,1,5,0,1
111121,-83.3333333333333,3,2,1,75,0,1
111187,-83.3333333333333,3,2,1,5,0,1
111252,-83.3333333333333,3,2,1,75,0,1
111317,-83.3333333333333,3,2,1,5,0,1
111382,-76.9230769230769,3,2,1,75,0,1
111578,-76.9230769230769,3,2,1,5,0,1
111643,-90.9090909090909,3,2,1,75,0,1
111839,-90.9090909090909,3,2,1,5,0,1
111904,-74.0740740740741,3,2,1,75,0,1
112100,-71.4285714285714,3,2,1,5,0,1
112165,-71.4285714285714,3,2,1,75,0,1
112426,-55.5555555555556,3,2,1,75,0,1
112491,-55.5555555555556,3,2,1,5,0,1
112556,-55.5555555555556,3,2,1,75,0,1
112621,-55.5555555555556,3,2,1,5,0,1
112687,-100,3,2,1,75,0,1
112882,-100,3,2,1,5,0,1
112948,-71.4285714285714,3,2,1,75,0,1
113730,-100,3,2,1,75,0,1
113991,-90.9090909090909,3,2,1,75,0,1
114187,-90.9090909090909,3,2,1,5,0,1
114252,-83.3333333333333,3,2,1,75,0,1
114317,-83.3333333333333,3,2,1,5,0,1
114382,-83.3333333333333,3,2,1,75,0,1
114448,-83.3333333333333,3,2,1,5,0,1
114513,-76.9230769230769,3,2,1,75,0,1
114708,-76.9230769230769,3,2,1,5,0,1
114774,-90.9090909090909,3,2,1,75,0,1
114969,-90.9090909090909,3,2,1,5,0,1
115034,-66.6666666666667,3,2,1,75,0,1
115230,-66.6666666666667,3,2,1,5,0,1
115296,-83.3333333333333,3,2,1,85,0,1
116861,-100,3,2,1,60,0,0
123121,-200,3,2,0,60,0,0
123904,-158.730158730159,3,2,0,60,0,0
124687,-133.333333333333,3,2,0,60,0,0
126252,-90.9090909090909,3,2,1,70,0,0
126448,-90.9090909090909,3,2,1,5,0,0
126513,-90.9090909090909,3,2,1,70,0,0
127034,-83.3333333333333,3,2,1,70,0,0
127361,-83.3333333333333,3,2,1,5,0,0
127426,-83.3333333333333,3,2,1,70,0,0
127817,-76.9230769230769,3,2,1,70,0,0
128143,-76.9230769230769,3,2,1,5,0,0
128208,-76.9230769230769,3,2,1,70,0,0
128600,-100,3,2,1,70,0,0
128861,-90.9090909090909,3,2,1,70,0,0
129121,-83.3333333333333,3,2,1,70,0,0
129382,-90.9090909090909,3,2,1,75,0,1
138969,-90.9090909090909,3,2,1,5,0,1
139034,-90.9090909090909,3,2,1,75,0,1
139752,-90.9090909090909,3,2,1,5,0,1
139817,-90.9090909090909,3,2,1,75,0,1
140665,-90.9090909090909,3,2,1,5,0,1
140730,-90.9090909090909,3,2,1,75,0,1
141904,-100,3,2,1,70,0,0
144708,-100,3,2,1,5,0,0
144774,-100,3,2,1,70,0,0
148165,-100,3,2,1,50,0,0
148295,-100,3,2,1,56,0,0
148426,-100,3,2,1,62,0,0
148556,-100,3,2,1,66,0,0
148687,-100,3,2,1,71,0,0
148817,-100,3,2,1,66,0,0
148948,-100,3,2,1,75,0,0
155208,-100,3,2,1,5,0,0

[Colours]
Combo1 : 82,179,186
Combo2 : 112,142,173
Combo3 : 115,157,155
Combo4 : 16,154,237
Combo5 : 33,199,222
Combo6 : 73,141,197

[HitObjects]
256,192,1035,12,0,3121,3:0:0:0:
256,192,3382,5,8,0:3:0:0:
264,314,3512,1,0,0:0:0:0:
274,299,3578,1,0,0:0:0:0:
283,285,3643,1,2,0:3:0:0:
346,197,3773,1,8,0:3:0:0:
180,143,3904,1,0,0:0:0:0:
180,251,4034,1,0,0:0:0:0:
283,110,4165,6,0,B|350:100|350:100|396:115|396:115|462:106,1,180,6|4,0:0|3:1,0:0:0:0:
346,197,4556,1,0,0:0:0:0:
348,188,4621,1,0,0:0:0:0:
351,179,4686,2,0,L|357:278,1,90,4|2,0:1|0:0,0:0:0:0:
185,340,4947,6,0,L|179:241,1,90,8|0,0:0|0:0,0:0:0:0:
345,89,5208,2,0,L|356:271,1,180,4|0,0:1|3:0,0:0:0:0:
445,161,5599,1,4,0:1:0:0:
291,314,5730,6,0,P|277:270|364:187,1,180,2|0,0:0|3:0,0:0:0:0:
509,221,6121,1,4,0:1:0:0:
355,268,6251,1,2,0:0:0:0:
384,108,6382,1,4,0:1:0:0:
425,317,6512,6,0,B|382:343|382:343|289:336,1,135,8|0,0:0|0:0,0:0:0:0:
263,333,6773,2,0,P|248:293|267:241,1,90,0|0,3:0|0:0,0:0:0:0:
384,108,7034,1,2,0:0:0:0:
185,62,7164,1,4,0:1:0:0:
260,248,7295,6,0,B|288:200|288:200|277:65,1,180,2|0,0:0|3:0,0:0:0:0:
158,46,7686,1,2,3:0:0:0:
265,177,7817,1,4,3:1:0:0:
342,21,7947,1,4,0:1:0:0:
136,30,8078,6,0,B|100:70|100:70|101:212,1,180,8|0,0:0|3:0,0:0:0:0:
147,332,8469,1,4,0:1:0:0:
181,194,8599,1,4,0:1:0:0:
45,241,8730,1,4,0:1:0:0:
357,198,8860,6,0,B|298:186|298:186|237:203|237:203|168:193,1,180,2|0,0:0|3:0,0:0:0:0:
19,164,9251,1,8,0:0:0:0:
170,281,9382,2,0,B|187:240|187:240|180:191,1,90,2|0,0:0|3:0,0:0:0:0:
65,103,9643,5,8,0:0:0:0:
297,124,9773,1,4,3:1:0:0:
98,243,9904,1,2,0:0:0:0:
189,29,10034,1,4,0:1:0:0:
242,257,10164,1,4,0:1:0:0:
85,264,11208,5,8,3:0:0:0:
150,177,11338,1,2,3:0:0:0:
150,177,11404,1,2,0:0:0:0:
150,177,11469,1,2,3:0:0:0:
51,185,11599,1,8,3:0:0:0:
181,261,11730,1,4,3:0:0:0:
196,109,11860,1,8,3:0:0:0:
185,291,11991,6,0,L|295:279,2,102.599998747559,2|0|0,0:0|0:0|0:0,0:0:0:0:
286,279,12773,5,8,0:0:0:0:
286,279,13034,1,0,0:0:0:0:
357,308,13295,2,0,P|363:277|357:251,1,51.2999993737793,2|0,0:0|0:0,0:0:0:0:
336,161,13556,6,0,L|456:151,2,102.599998747559,2|0|0,0:0|0:0|0:0,0:0:0:0:
219,172,14339,5,8,0:0:0:0:
219,172,14861,2,0,P|224:146|219:117,1,51.2999993737793
140,59,15121,6,0,L|16:50,2,102.599998747559,2|0|0,0:0|0:0|0:0,0:0:0:0:
238,91,15904,6,0,L|243:27,1,51.2999993737793,8|0,0:0|0:0,0:0:0:0:
140,59,16165,2,0,L|134:122,1,51.2999993737793
213,185,16425,2,0,P|243:192|274:186,1,51.2999993737793,2|0,0:0|0:0,0:0:0:0:
368,186,16686,6,0,L|364:310,2,102.599998747559,2|0|0,0:0|0:0|0:0,0:0:0:0:
371,107,17469,5,10,0:0:0:0:
197,164,17991,2,0,L|271:158,1,51.2999993737793
170,239,18252,6,0,L|392:220,1,205.199997495117,2|0,0:0|0:0,0:0:0:0:
441,190,19034,6,0,P|350:150|304:239,1,205.199997495117,10|0,0:0|0:0,0:0:0:0:
374,222,19817,6,0,B|383:96,2,102.599998747559,2|0|0,0:0|0:0|0:0,0:0:0:0:
298,243,20599,6,0,P|295:214|303:185,1,51.2999993737793,8|0,0:0|0:0,0:0:0:0:
381,119,20860,2,0,L|309:108,1,51.2999993737793,2|0,0:0|0:0,0:0:0:0:
233,144,21121,2,0,L|172:153,1,51.2999993737793
115,199,21382,6,0,P|103:145|134:89,1,102.599998747559,2|0,0:0|3:0,0:0:0:0:
200,68,21774,1,0,0:0:0:0:
200,68,21904,1,2,0:0:0:0:
182,151,22164,6,0,L|253:140,1,51.2999993737793,10|0,0:0|0:0,0:0:0:0:
390,111,22425,2,0,L|317:100,1,51.2999993737793
188,47,22686,2,0,L|255:36,1,51.2999993737793,2|0,3:0|0:0,0:0:0:0:
317,102,22947,5,2,0:0:0:0:
337,198,23078,1,8,0:0:0:0:
246,169,23208,1,0,0:0:0:0:
327,92,23338,1,8,0:0:0:0:
225,190,23469,1,2,0:0:0:0:
335,82,23599,1,8,0:0:0:0:
271,262,23730,5,12,0:3:0:0:
344,74,23991,1,8,0:3:0:0:
351,67,24251,1,2,0:0:0:0:
358,59,24513,6,0,L|236:45,2,115.2,2|0|0,0:0|0:0|0:0,0:0:0:0:
161,77,25295,6,0,L|164:17,1,57.6,8|0,0:0|0:0,0:0:0:0:
243,45,25556,1,0,0:0:0:0:
182,153,25817,2,0,P|145:156|118:144,1,57.6,2|0,0:0|0:0,0:0:0:0:
243,45,26078,6,0,L|241:110,1,57.6,2|0,0:0|0:0,0:0:0:0:
276,180,26338,2,0,L|338:174,1,57.6
216,265,26599,2,0,L|296:258,1,57.6
159,334,26860,5,8,0:0:0:0:
216,265,27383,1,0,0:0:0:0:
216,265,27513,1,0,0:0:0:0:
216,265,27643,6,0,L|349:253,1,115.2,2|0,0:0|0:0,0:0:0:0:
230,191,28165,1,2,0:0:0:0:
230,191,28425,6,0,P|188:193|166:208,1,57.6,8|0,0:0|0:0,0:0:0:0:
216,265,28686,2,0,P|257:262|278:250,1,57.6
311,181,28947,2,0,L|309:113,1,57.6
230,191,29208,6,0,L|234:323,2,115.2,2|0|0,0:0|0:0|0:0,0:0:0:0:
139,128,29991,5,8,0:0:0:0:
68,201,30382,1,0,0:0:0:0:
68,201,30773,6,0,B|146:204|146:204|213:182|213:182|296:187,1,230.4,2|0,0:0|0:0,0:0:0:0:
294,187,31556,5,8,0:0:0:0:
369,218,31817,1,0,0:0:0:0:
224,157,32078,1,0,0:0:0:0:
294,187,32339,6,0,L|298:60,2,115.2,2|0|0,0:0|0:0|0:0,0:0:0:0:
294,187,33121,5,8,0:0:0:0:
224,157,33382,1,0,0:0:0:0:
369,218,33643,1,2,0:0:0:0:
294,187,33904,6,0,L|286:310,2,115.2,2|0|0,0:0|0:0|0:0,0:0:0:0:
294,187,34687,5,8,0:0:0:0:
159,230,34948,1,0,0:0:0:0:
57,133,35208,1,0,0:0:0:0:
57,133,35469,6,0,B|143:113|137:185|239:150,1,172.8,2|2,0:0|3:0,0:0:0:0:
223,155,36251,5,8,3:0:0:0:
252,272,36512,5,8,0:0:0:0:
126,98,36643,1,8,0:0:0:0:
329,164,36773,1,10,0:0:0:0:
126,231,36904,1,10,0:0:0:0:
252,57,37034,6,0,L|349:52,1,90,6|0,0:0|0:0,0:0:0:0:
122,134,37295,2,0,L|25:129,1,90,0|0,3:0|3:0,0:0:0:0:
198,221,37556,1,4,0:1:0:0:
164,28,37687,1,2,0:0:0:0:
17,115,37817,6,0,L|107:120,1,90,8|0,0:0|3:0,0:0:0:0:
198,221,38078,2,0,L|109:217,1,90,0|0,3:0|3:0,0:0:0:0:
50,298,38339,1,4,0:1:0:0:
2,97,38469,1,4,0:1:0:0:
267,263,38599,6,0,P|279:220|266:178,1,90,2|0,0:0|0:0,0:0:0:0:
104,52,38861,2,0,P|134:83|178:93,1,90,4|0,0:1|0:0,0:0:0:0:
368,26,39121,2,0,P|324:36|294:69,1,90,4|0,0:1|3:0,0:0:0:0:
167,209,39382,6,0,L|362:202,1,180,8|0,0:0|3:0,0:0:0:0:
464,199,39773,1,2,0:0:0:0:
362,99,39904,1,2,0:0:0:0:
340,309,40034,1,4,0:1:0:0:
370,70,40164,6,0,P|325:57|273:73,1,90,2|0,0:0|3:0,0:0:0:0:
137,230,40425,2,0,P|182:243|234:227,1,90,0|0,3:0|3:0,0:0:0:0:
103,68,40687,2,0,P|58:55|6:71,1,90,4|2,0:1|0:0,0:0:0:0:
223,233,40947,6,0,B|235:172|235:172|226:116|226:116|238:48,2,180,8|0|4,0:0|3:0|0:1,0:0:0:0:
317,151,41599,1,2,0:0:0:0:
150,273,41730,6,0,P|139:229|155:184,1,90,2|0,0:0|0:0,0:0:0:0:
387,110,41991,2,0,P|398:154|382:199,1,90,4|0,0:1|0:0,0:0:0:0:
347,37,42251,2,0,P|391:26|436:42,1,90,0|2,3:0|3:2,0:0:0:0:
216,109,42512,5,8,0:0:0:0:
432,39,42773,1,0,3:0:0:0:
320,260,43034,1,2,0:0:0:0:
387,110,43295,6,0,L|480:108,1,90,2|0,0:0|0:0,0:0:0:0:
242,203,43556,2,0,L|149:201,1,90,0|0,3:0|3:0,0:0:0:0:
388,305,43817,2,0,P|401:258|389:220,1,90,4|2,0:1|0:0,0:0:0:0:
152,115,44078,6,0,P|139:162|151:200,1,90,8|0,3:2|3:0,0:0:0:0:
320,260,44339,1,0,3:0:0:0:
151,200,44599,5,4,0:1:0:0:
309,154,44730,1,4,0:1:0:0:
212,343,44860,6,0,P|201:294|212:255,1,90,2|0,0:0|0:0,0:0:0:0:
381,195,45121,2,0,P|392:152|381:109,1,90,4|2,3:1|0:0,0:0:0:0:
305,44,45382,1,4,0:1:0:0:
372,221,45512,1,2,3:2:0:0:
473,12,45643,5,8,0:0:0:0:
468,32,45904,2,0,L|374:24,1,90,0|0,3:0|0:0,0:0:0:0:
176,99,46164,1,2,0:0:0:0:
350,25,46295,1,4,0:1:0:0:
234,250,46425,6,0,P|222:204|232:163,1,90,2|0,0:0|0:0,0:0:0:0:
350,25,46686,1,4,3:1:0:0:
176,99,46817,1,0,3:0:0:0:
310,297,46947,2,0,P|322:251|312:210,1,90,4|2,0:1|0:0,0:0:0:0:
108,58,47208,6,0,L|210:51,1,90,8|0,0:0|3:0,0:0:0:0:
425,107,47469,2,0,L|323:100,1,90,0|2,3:0|0:0,0:0:0:0:
88,41,47730,2,0,L|190:34,1,90,4|0,3:1|0:0,0:0:0:0:
396,15,47991,5,6,0:0:0:0:
238,209,48251,5,0,3:0:0:0:
177,34,48382,1,8,0:0:0:0:
335,100,48512,1,2,0:0:0:0:
158,21,48643,1,2,3:2:0:0:
242,299,48773,5,12,0:0:0:0:
351,77,49034,1,8,0:0:0:0:
179,131,49295,1,2,0:0:0:0:
180,162,49556,6,0,P|136:172|82:157,1,90,6|0,0:0|0:0,0:0:0:0:
347,54,49817,2,0,P|391:44|445:59,1,90,0|0,3:0|3:0,0:0:0:0:
268,94,50078,2,0,P|259:47|275:3,1,90,4|2,0:1|0:0,0:0:0:0:
446,176,50338,6,0,P|455:223|439:267,1,90,8|0,0:0|3:0,0:0:0:0:
356,317,50599,1,0,3:0:0:0:
356,317,50730,1,0,3:0:0:0:
262,230,50861,2,0,L|154:224,1,90,4|0,0:1|0:0,0:0:0:0:
24,338,51121,6,0,L|30:230,1,90,2|0,0:0|0:0,0:0:0:0:
212,97,51382,2,0,L|206:205,1,90,0|2,3:0|0:0,0:0:0:0:
356,317,51643,2,0,L|361:224,1,90,0|2,3:0|0:0,0:0:0:0:
212,97,51904,6,0,B|175:72|175:72|35:82,2,180,8|0|2,0:0|3:0|0:0,0:0:0:0:
351,210,52556,1,4,0:1:0:0:
315,29,52687,6,0,L|310:147,1,90,6|0,0:0|3:0,0:0:0:0:
205,323,52947,2,0,L|210:205,1,90,4|0,0:1|3:0,0:0:0:0:
392,102,53208,2,0,L|387:220,1,90,4|2,0:1|0:0,0:0:0:0:
68,262,53469,6,0,L|75:77,1,180,8|0,0:0|3:0,0:0:0:0:
190,161,53860,1,0,3:0:0:0:
31,21,53991,2,0,P|76:7|117:18,1,90,4|0,0:1|3:0,0:0:0:0:
183,340,54252,6,0,L|190:155,1,180,2|0,0:0|3:0,0:0:0:0:
151,88,54643,1,0,0:0:0:0:
265,131,54774,2,0,P|227:90|146:92,1,135,4|0,0:1|0:0,0:0:0:0:
189,160,55034,6,0,B|236:187|236:187|382:168,1,180,8|4,0:0|0:1,0:0:0:0:
302,251,55425,1,0,0:0:0:0:
329,93,55556,2,0,P|374:85|414:103,1,90,2|0,0:0|0:0,0:0:0:0:
206,55,55817,5,6,0:0:0:0:
360,170,55947,1,0,0:0:0:0:
216,250,56078,1,4,3:1:0:0:
204,31,56208,1,2,0:0:0:0:
216,275,56338,1,8,0:0:0:0:
383,152,56469,1,4,0:1:0:0:
94,217,56599,5,6,0:0:0:0:
198,9,56730,1,4,0:1:0:0:
35,93,56860,1,4,3:1:0:0:
216,303,56991,1,2,0:0:0:0:
15,77,57121,1,8,0:0:0:0:
285,38,57252,1,2,3:2:0:0:
217,327,57382,5,6,0:0:0:0:
268,122,57512,1,4,3:1:0:0:
72,227,57643,1,2,0:0:0:0:
354,312,57774,1,8,0:0:0:0:
136,382,57904,1,2,0:0:0:0:
82,199,58034,1,4,3:1:0:0:
397,228,58164,5,6,0:0:0:0:
183,258,58295,1,4,0:1:0:0:
284,24,58425,1,8,0:0:0:0:
345,329,58556,1,0,3:0:0:0:
477,68,58686,1,2,0:0:0:0:
248,109,58817,1,0,3:0:0:0:
339,346,58948,6,0,L|345:254,1,90,6|0,0:0|0:0,0:0:0:0:
232,92,59208,2,0,L|226:184,1,90,4|0,0:1|3:0,0:0:0:0:
288,7,59469,1,4,0:1:0:0:
94,78,59599,1,2,0:0:0:0:
282,226,59730,6,0,P|298:185|280:133,1,90,8|0,0:0|3:0,0:0:0:0:
76,212,59991,2,0,P|61:253|78:305,1,90,4|0,0:1|3:0,0:0:0:0:
201,133,60251,2,0,L|112:125,1,90,0|0,3:0|3:0,0:0:0:0:
265,368,60513,6,0,B|261:313|261:313|284:256|284:256|280:170,1,180,2|0,0:0|3:0,0:0:0:0:
179,271,60904,1,0,3:0:0:0:
375,329,61034,2,0,P|410:302|423:259,1,90,4|0,3:1|3:0,0:0:0:0:
265,368,61295,6,0,B|264:278,1,90,8|0,0:0|0:0,0:0:0:0:
197,48,61556,2,0,B|198:138,1,90,2|0,0:0|0:0,0:0:0:0:
403,131,61817,1,2,0:0:0:0:
139,212,61947,1,4,0:1:0:0:
288,20,62078,6,0,L|273:114,1,90,2|0,0:0|0:0,0:0:0:0:
265,186,62273,1,4,0:1:0:0:
265,186,62339,2,0,B|304:197|304:197|358:184,1,90,4|0,3:1|3:0,3:0:0:0:
169,71,62600,2,0,B|130:60|130:60|76:73,1,90,4|0,3:1|0:0,3:0:0:0:
32,237,62860,5,8,0:0:0:0:
169,71,62991,1,4,0:1:0:0:
198,308,63121,1,4,3:1:0:0:
32,237,63251,1,0,3:0:0:0:
265,186,63382,1,2,0:0:0:0:
135,157,63512,1,0,3:0:0:0:
324,243,63643,6,0,P|346:178|272:103,1,180,2|0,0:0|3:0,0:0:0:0:
141,171,64034,1,0,3:0:0:0:
265,186,64164,1,0,3:0:0:0:
220,59,64295,1,2,0:0:0:0:
284,307,64425,6,0,P|330:320|372:304,1,90,8|0,0:0|3:0,0:0:0:0:
416,124,64687,2,0,P|369:110|327:126,1,90,4|0,3:1|0:0,0:0:0:0:
197,229,64948,1,2,0:0:0:0:
373,186,65078,1,4,0:1:0:0:
275,11,65208,6,0,L|266:106,1,90,2|0,0:0|3:0,0:0:0:0:
115,291,65469,2,0,L|124:196,1,90,4|0,0:1|3:0,0:0:0:0:
381,96,65730,2,0,L|372:191,1,90,4|2,3:1|3:2,0:0:0:0:
29,213,65991,6,0,L|38:118,1,90,8|0,0:0|3:0,0:0:0:0:
312,256,66252,2,0,L|303:351,1,90,4|0,3:1|3:0,0:0:0:0:
130,128,66513,2,0,L|139:33,1,90,4|0,0:1|0:0,0:0:0:0:
312,256,66774,6,0,B|250:260|250:260|194:237|194:237|126:242,2,180,2|4|4,0:0|3:1|3:1,0:0:0:0:
258,143,67425,1,0,3:0:0:0:
398,360,67556,6,0,P|409:316|309:256,1,180,8|0,0:0|3:0,0:0:0:0:
226,381,67947,1,2,0:0:0:0:
148,221,68078,1,2,0:0:0:0:
312,256,68208,1,4,0:1:0:0:
63,203,68339,6,0,P|88:158|208:157,1,180,6|0,0:0|3:0,0:0:0:0:
312,256,68730,1,2,0:0:0:0:
387,72,68861,1,8,0:0:0:0:
459,312,68991,1,2,0:0:0:0:
225,228,69121,6,0,B|293:215|293:215|350:233|350:233|439:221,1,215.999993408203,6|2,0:0|0:0,0:0:0:0:
292,384,69512,1,2,0:0:0:0:
166,153,69643,1,8,0:0:0:0:
436,221,69773,1,2,0:0:0:0:
145,44,69904,6,0,B|129:98|129:98|154:271,1,215.999993408203,6|0,0:0|3:0,0:0:0:0:
173,383,70295,1,8,0:0:0:0:
27,179,70426,2,0,P|67:157|127:172,1,90,2|4,0:0|0:1,0:0:0:0:
323,207,70686,5,6,0:0:0:0:
151,256,70817,1,0,3:0:0:0:
414,182,70947,1,12,0:0:0:0:
269,129,71078,1,0,3:0:0:0:
335,360,71208,1,2,0:0:0:0:
376,47,71339,1,2,3:0:0:0:
158,306,71469,6,0,B|155:241|155:241|175:192|175:192|175:124,1,180,6|4,0:0|3:1,0:0:0:0:
172,0,71860,1,0,3:0:0:0:
62,79,71991,2,0,L|-28:72,1,90,4|2,0:1|0:0,0:0:0:0:
234,178,72251,6,0,P|252:133|239:91,1,90,8|0,0:0|0:0,0:0:0:0:
48,162,72512,2,0,P|30:207|43:249,1,90,4|0,3:1|3:0,0:0:0:0:
151,85,72774,2,0,L|61:78,1,90,2|0,3:0|0:0,0:0:0:0:
300,327,73034,6,0,B|328:278|328:278|316:142,1,180,2|0,0:0|3:0,0:0:0:0:
423,212,73425,1,0,3:0:0:0:
267,96,73556,2,0,P|303:78|351:84,1,90,4|0,3:1|3:0,0:0:0:0:
300,327,73817,6,0,P|256:333|215:315,1,90,8|4,0:0|0:1,0:0:0:0:
56,155,74078,2,0,P|100:149|141:167,1,90,2|4,0:0|0:1,0:0:0:0:
128,309,74338,1,2,0:0:0:0:
186,62,74469,1,4,0:1:0:0:
306,185,74600,6,0,L|201:180,1,90,2|0,0:0|0:0,0:0:0:0:
43,292,74861,2,0,L|148:287,1,90,4|0,3:1|3:0,0:0:0:0:
323,163,75121,2,0,L|218:158,1,90,4|0,0:1|0:0,0:0:0:0:
385,219,75382,5,8,0:0:0:0:
281,43,75512,1,4,0:1:0:0:
215,258,75643,1,4,3:1:0:0:
290,18,75773,1,4,0:1:0:0:
97,116,75904,1,4,3:1:0:0:
309,2,76034,1,0,0:0:0:0:
54,185,76164,6,0,L|60:96,1,90,2|0,0:0|0:0,0:0:0:0:
259,244,76425,2,0,L|253:154,1,90,0|0,3:0|0:0,0:0:0:0:
345,189,76687,1,2,3:0:0:0:
140,241,76817,1,2,0:0:0:0:
345,189,76947,6,0,L|339:99,1,90,8|0,0:0|0:0,0:0:0:0:
259,244,77208,2,0,L|253:154,1,90,4|0,3:1|0:0,0:0:0:0:
140,241,77469,2,0,B|145:151|145:151|105:190,1,135,2|0,0:0|0:0,0:0:0:0:
104,310,77730,6,0,P|148:319|194:298,1,90,2|0,0:0|0:0,0:0:0:0:
291,86,77991,2,0,P|247:77|201:98,1,90,4|0,3:1|3:0,0:0:0:0:
259,244,78251,2,0,L|253:154,1,90,4|2,0:1|0:0,0:0:0:0:
346,306,78513,6,0,B|378:318|378:318|439:308,1,90,8|0,0:0|3:0,0:0:0:0:
253,154,78774,2,0,B|221:142|221:142|160:152,1,90,4|0,0:1|0:0,0:0:0:0:
352,203,79034,2,0,B|364:171|364:171|354:110,1,90,0|4,3:0|0:1,0:0:0:0:
84,157,79295,6,0,B|69:211|69:211|94:363,2,180,2|4|0,0:0|3:1|3:0,0:0:0:0:
175,38,79947,1,0,0:0:0:0:
119,227,80078,6,0,P|50:227|11:131,1,180,8|4,0:0|0:1,0:0:0:0:
179,335,80469,1,2,0:0:0:0:
114,112,80600,1,2,0:0:0:0:
325,168,80730,1,4,3:1:0:0:
179,335,80860,6,0,B|161:286|161:286|177:203,1,135,6|0,0:0|0:0,0:0:0:0:
195,131,81121,1,0,3:0:0:0:
384,269,81251,1,2,0:0:0:0:
179,335,81382,2,0,B|161:286|161:286|177:203,1,135,8|0,0:0|0:0,0:0:0:0:
195,131,81643,5,6,0:0:0:0:
307,260,81773,1,0,3:0:0:0:
391,69,81904,1,2,0:0:0:0:
195,131,82034,1,2,0:0:0:0:
417,51,82164,1,8,0:0:0:0:
380,309,82295,1,4,0:1:0:0:
442,34,82426,6,0,B|395:20|395:20|257:30,1,180,6|0,0:0|3:0,0:0:0:0:
85,86,82817,1,8,0:0:0:0:
183,260,82947,1,2,0:0:0:0:
264,29,83078,1,0,0:0:0:0:
171,286,83208,5,12,0:0:0:0:
276,9,83469,1,12,0:0:0:0:
164,99,83730,5,2,0:0:0:0:
276,9,83860,1,4,3:1:0:0:
241,193,83991,6,0,B|279:168|279:168|368:178,1,135,6|0,0:0|0:0,0:0:0:0:
395,184,84252,2,0,P|386:142|408:98,1,90,4|0,0:1|3:0,0:0:0:0:
496,171,84513,1,4,0:1:0:0:
480,162,84578,1,4,0:1:0:0:
464,153,84643,1,2,0:0:0:0:
360,42,84774,6,0,P|404:26|447:39,1,90,2|0,0:0|3:0,0:0:0:0:
391,278,85034,2,0,B|403:223|403:223|395:153|395:153|408:87,1,180,4|0,3:1|3:0,0:0:0:0:
496,171,85426,1,4,0:1:0:0:
319,319,85556,6,0,P|307:270|401:195,1,180,2|0,0:0|3:0,0:0:0:0:
391,278,85948,1,0,0:0:0:0:
336,108,86078,1,4,0:1:0:0:
496,171,86208,1,2,0:0:0:0:
240,239,86339,6,0,B|230:201|230:201|237:139,1,90,8|0,0:0|3:0,0:0:0:0:
85,27,86600,2,0,B|95:65|95:65|88:127,1,90,4|0,3:1|3:0,0:0:0:0:
65,269,86861,1,2,0:0:0:0:
8,135,86991,1,4,0:1:0:0:
130,316,87121,6,0,P|146:258|52:187,1,180,2|0,0:0|3:0,0:0:0:0:
65,269,87513,1,0,3:0:0:0:
213,110,87643,1,4,0:1:0:0:
8,135,87774,1,2,0:0:0:0:
238,189,87904,6,0,P|296:126|266:46,1,180,2|0,0:0|3:0,0:0:0:0:
99,74,88295,1,4,3:1:0:0:
346,7,88426,1,4,0:1:0:0:
292,269,88556,1,4,3:1:0:0:
213,110,88687,6,0,B|253:89|253:89|389:104,1,180,2|2,0:0|3:2,0:0:0:0:
175,206,89078,1,8,0:0:0:0:
220,20,89208,2,0,L|212:121,1,90,2|0,0:0|3:0,0:0:0:0:
192,299,89469,5,12,0:0:0:0:
59,116,89600,1,4,0:1:0:0:
273,186,89730,1,2,0:0:0:0:
59,255,89861,1,4,0:1:0:0:
220,20,89991,1,4,3:1:0:0:
220,20,90252,6,0,L|361:17,1,135,6|0,0:0|0:0,0:0:0:0:
443,14,90513,1,2,0:0:0:0:
256,109,90643,1,8,0:0:0:0:
415,240,90774,2,0,P|437:176|412:115,1,135,2|0,0:0|0:0,0:0:0:0:
337,89,91034,5,8,0:0:0:0:
299,309,91165,1,8,0:0:0:0:
179,22,91295,1,8,0:0:0:0:
412,116,91426,1,8,0:0:0:0:
418,96,91491,1,8,0:0:0:0:
424,76,91556,1,8,0:0:0:0:
370,265,91687,1,8,0:0:0:0:
430,58,91817,6,0,L|361:49,1,45,6|0,0:0|0:0,0:0:0:0:
266,122,91948,2,0,B|259:158|259:158|262:175|262:175|259:210,1,90,0|0,0:0|3:0,0:0:0:0:
360,183,92208,1,0,0:0:0:0:
303,53,92339,2,0,P|245:43|193:145,1,188.999994232178,2|0,0:0|0:0,0:0:0:0:
71,249,92600,6,0,B|99:222|99:222|230:241,1,168.75,8|0,0:0|0:0,0:0:0:0:
330,317,92861,2,0,B|290:327|290:327|172:312,1,155.250002961159,2|0,0:0|0:0,0:0:0:0:
374,247,93121,2,0,P|402:276|395:368,1,135,0|0,3:0|0:0,0:0:0:0:
299,244,93382,6,0,P|308:210|329:185,1,62.9999980773926,2|0,0:0|0:0,0:0:0:0:
399,173,93513,2,0,P|430:188|450:214,1,62.9999980773926,4|0,0:1|0:0,0:0:0:0:
288,227,93643,2,0,P|297:193|318:168,1,62.9999980773926
400,154,93774,2,0,P|431:169|451:195,1,62.9999980773926,4|0,0:1|0:0,0:0:0:0:
108,252,93904,6,0,B|130:244|149:228|149:228|182:223|218:235|218:235|242:221|300:228,1,188.999994232178,0|0,3:0|0:0,0:0:0:0:
374,247,94165,6,0,B|375:274|375:274|372:287|372:287|374:315,1,67.5000025749208,8|0,0:0|0:0,0:0:0:0:
251,381,94295,2,0,B|252:353|252:353|250:340|250:340|251:313,1,67.5000025749208,4|0,0:1|0:0,0:0:0:0:
387,234,94426,2,0,B|388:261|388:261|385:274|385:274|387:302,1,67.5000025749208
264,368,94556,2,0,B|265:340|265:340|263:327|263:327|264:300,1,67.5000025749208,4|0,0:1|0:0,0:0:0:0:
254,109,94687,6,0,P|189:109|144:167,1,135,2|0,0:0|0:0,0:0:0:0:
229,229,94948,6,0,L|223:184,1,45,2|0,0:0|0:0,0:0:0:0:
265,20,95078,2,0,B|256:56|256:56|258:73|258:73|253:109,1,90,0|0,0:0|3:0,0:0:0:0:
394,171,95339,1,0,0:0:0:0:
453,127,95469,2,0,P|405:97|324:148,1,161.999995056153,2|0,0:0|0:0,0:0:0:0:
234,273,95730,6,0,B|235:205|235:205|252:165|252:165|253:96,1,168.75,8|0,0:0|0:0,0:0:0:0:
149,231,95991,2,0,B|150:293|150:293|166:329|166:329|167:382,1,155.250002961159,2|0,0:0|0:0,0:0:0:0:
314,289,96252,2,0,P|300:222|242:190,1,135,0|0,3:0|0:0,0:0:0:0:
149,231,96513,6,0,B|117:225|117:225|100:228|100:228|69:221,1,80.9999975280763,2|0,1:0|0:0,0:0:0:0:
252,107,96643,2,0,B|284:113|284:113|301:110|301:110|332:117,1,80.9999975280763,2|0,0:1|0:0,0:0:0:0:
149,231,96774,6,0,B|130:182|130:182|145:138|145:138|146:78,1,148.50000453186,2|0,0:1|0:0,0:0:0:0:
91,291,97034,2,0,B|126:310|126:310|161:314|161:314|185:304|185:304|219:278,1,135,2|0,0:0|0:0,0:0:0:0:
338,194,97295,5,8,0:0:0:0:
185,156,97426,1,0,0:0:0:0:
229,308,97556,1,4,3:1:0:0:
361,177,97687,1,0,3:0:0:0:
107,223,97817,1,2,0:0:0:0:
247,338,97948,1,0,3:0:0:0:
186,111,98078,6,0,L|184:161,1,45,2|0,0:0|0:0,0:0:0:0:
265,360,98208,2,0,B|301:351|301:351|318:353|318:353|357:347,1,90,0|0,0:0|3:0,0:0:0:0:
171,286,98469,1,0,0:0:0:0:
263,160,98600,2,0,P|209:231|125:205,1,188.999994232178,2|0,0:0|0:0,0:0:0:0:
259,80,98861,6,0,B|318:88|318:88|375:75|375:75|437:83,1,168.75,8|0,0:0|0:0,0:0:0:0:
437,2,99121,2,0,P|362:28|355:108,1,168.75,2|0,0:0|0:0,0:0:0:0:
426,234,99382,2,0,B|405:139|448:170|424:78,1,155.250002961159,0|0,3:0|0:0,0:0:0:0:
386,304,99643,6,0,P|417:317|454:310,1,62.9999980773926,2|0,0:0|0:0,0:0:0:0:
265,218,99774,2,0,P|234:205|197:212,1,62.9999980773926,4|0,0:1|0:0,0:0:0:0:
388,295,99904,2,0,P|419:308|456:301,1,62.9999980773926
267,209,100035,2,0,P|236:196|199:203,1,62.9999980773926,4|0,0:1|0:0,0:0:0:0:
287,353,100165,2,0,B|312:310|312:310|297:260|297:260|314:223|303:159,1,188.999994232178,2|0,0:0|0:0,0:0:0:0:
125,69,100426,6,0,B|153:71|153:71|166:68|166:68|193:69,1,67.5000025749208,8|0,0:0|0:0,0:0:0:0:
379,103,100556,2,0,B|352:102|352:102|339:105|339:105|311:103,1,67.5000025749208,4|0,0:1|0:0,0:0:0:0:
127,53,100687,2,0,B|155:55|155:55|168:52|168:52|195:53,1,67.5000025749208
381,87,100817,2,0,B|354:86|354:86|341:89|341:89|313:87,1,67.5000025749208,4|0,0:1|0:0,0:0:0:0:
73,0,100948,2,0,P|51:61|85:117,1,135,2|0,0:0|0:0,0:0:0:0:
193,180,101208,6,0,L|249:172,1,45,2|0,0:0|0:0,0:0:0:0:
85,117,101339,2,0,B|43:115|43:115|27:120|27:120|-6:118,1,90,0|0,0:0|3:0,0:0:0:0:
123,269,101600,1,0,0:0:0:0:
320,153,101730,2,0,B|326:198|308:221|308:221|321:235|321:235|287:270|308:343,1,188.999994232178,2|0,0:0|0:0,0:0:0:0:
376,289,101991,6,0,B|320:221|238:256|225:307|225:307|208:264|180:252|180:252|149:278|108:266,1,321.749985271455,8|0,0:0|0:0,0:0:0:0:
40,248,102774,5,6,0:0:0:0:
317,134,102904,1,4,0:1:0:0:
79,170,103034,1,4,3:1:0:0:
360,220,103164,1,8,0:0:0:0:
188,50,103295,1,2,0:0:0:0:
176,37,103361,1,4,0:1:0:0:
164,24,103426,1,4,3:1:0:0:
247,367,103556,5,12,0:0:0:0:
389,119,103817,1,8,0:0:0:0:
133,174,104078,1,2,0:0:0:0:
463,103,104339,5,6,0:0:0:0:
84,233,104600,6,0,P|57:187|113:102,1,148.50000453186
261,190,104861,2,0,B|238:189|238:189|227:191|227:191|207:190,1,53.9999983520508
123,318,104991,2,0,B|146:317|146:317|157:319|157:319|177:318,1,53.9999983520508
330,248,105121,6,0,P|351:193|288:105,1,175.499991966248,8|0,0:0|0:0,0:0:0:0:
245,272,105382,2,0,B|283:298|283:298|385:291,1,148.50000453186,2|0,0:0|0:0,0:0:0:0:
442,173,105643,2,0,L|277:188,1,182.250000695229,0|0,3:0|0:0,0:0:0:0:
62,209,105904,5,2,0:0:0:0:
81,189,106165,6,0,B|82:222|82:222|79:236|79:236|78:274,1,80.9999975280763,2|0,1:0|0:0,0:0:0:0:
192,106,106295,2,0,B|192:72|192:72|195:58|195:58|194:25,1,80.9999975280763,2|0,0:1|0:0,0:0:0:0:
309,246,106426,2,0,P|335:195|302:130,1,135,2|0,0:0|0:0,0:0:0:0:
198,186,106687,6,0,B|229:193|229:193|259:189,1,62.9999980773926,8|0,0:0|0:0,0:0:0:0:
440,108,106817,2,0,B|409:101|409:101|379:105,1,62.9999980773926,4|0,0:1|0:0,0:0:0:0:
192,199,106948,2,0,B|223:206|223:206|253:202,1,62.9999980773926
434,121,107078,2,0,B|403:114|403:114|373:118,1,62.9999980773926,4|0,0:1|0:0,0:0:0:0:
187,213,107208,5,2,0:0:0:0:
400,299,107339,1,4,0:1:0:0:
232,108,107469,6,0,P|232:152|258:188,1,90,2|0,0:0|0:0,0:0:0:0:
498,175,107730,2,0,P|518:129|469:44,1,148.50000453186
318,118,107991,2,0,B|341:117|341:117|352:119|352:119|372:118,1,53.9999983520508
449,251,108121,2,0,B|426:250|426:250|415:252|415:252|395:251,1,53.9999983520508
258,188,108252,6,0,P|226:138|271:39,1,175.499991966248,8|0,0:0|0:0,0:0:0:0:
330,200,108513,2,0,B|292:226|292:226|190:219,1,148.50000453186,2|0,0:0|0:0,0:0:0:0:
136,101,108774,2,0,L|301:116,1,182.250000695229,0|0,3:0|0:0,0:0:0:0:
512,132,109034,5,2,0:0:0:0:
330,200,109165,1,2,0:1:0:0:
412,25,109295,6,0,B|427:64|427:64|414:163,1,135,2|0,0:0|0:0,0:0:0:0:
327,281,109556,2,0,P|277:264|251:182,1,135,2|0,0:0|0:0,0:0:0:0:
317,117,109817,6,0,B|290:116|290:116|276:112|276:112|252:111,1,62.9999980773926,8|0,0:0|0:0,0:0:0:0:
97,167,109948,2,0,B|124:168|124:168|138:172|138:172|162:173,1,62.9999980773926,4|0,0:1|0:0,0:0:0:0:
315,102,110078,2,0,B|288:101|288:101|274:97|274:97|250:96,1,62.9999980773926,0|0,3:0|0:0,0:0:0:0:
95,152,110209,2,0,B|122:153|122:153|136:157|136:157|160:158,1,62.9999980773926,4|0,0:1|0:0,0:0:0:0:
243,254,110339,2,0,B|244:227|244:227|248:213|248:213|249:189,1,62.9999980773926,2|0,0:0|0:0,0:0:0:0:
170,20,110469,2,0,B|169:47|169:47|165:61|165:61|164:85,1,62.9999980773926,4|0,0:1|0:0,0:0:0:0:
214,325,110600,6,0,P|258:329|303:302,1,90,2|0,0:0|0:0,0:0:0:0:
485,198,110861,2,0,B|436:201|436:201|397:188|397:188|336:192,1,148.50000453186
195,191,111121,2,0,B|218:190|218:190|229:192|229:192|249:191,1,53.9999983520508
351,308,111251,2,0,B|328:307|328:307|317:309|317:309|297:308,1,53.9999983520508
122,248,111382,6,0,P|101:193|164:105,1,175.499991966248,8|0,0:0|0:0,0:0:0:0:
207,272,111643,2,0,B|169:298|169:298|67:291,1,148.50000453186,2|0,0:0|0:0,0:0:0:0:
13,174,111904,2,0,L|178:189,1,182.250000695229,0|0,3:0|0:0,0:0:0:0:
413,207,112165,5,2,0:0:0:0:
425,180,112426,6,0,B|458:179|458:179|472:176|472:176|505:177,1,80.9999975280763,2|0,1:0|0:0,0:0:0:0:
287,270,112556,2,0,B|254:270|254:270|240:273|240:273|207:272,1,80.9999975280763,2|0,0:1|0:0,0:0:0:0:
251,73,112687,2,0,P|311:75|353:134,1,135,2|0,0:0|0:0,0:0:0:0:
356,220,112948,5,8,0:0:0:0:
138,142,113078,1,0,3:0:0:0:
219,349,113208,1,2,0:0:0:0:
124,119,113339,1,0,3:0:0:0:
279,189,113469,5,2,0:0:0:0:
99,276,113600,1,4,0:1:0:0:
356,220,113730,6,0,P|362:181|342:134,1,90,2|0,0:0|0:0,0:0:0:0:
110,42,113991,2,0,P|62:71|62:167,1,148.50000453186,2|0,3:0|0:0,0:0:0:0:
279,189,114252,2,0,B|259:188|259:188|248:190|248:190|225:189,1,53.9999983520508
45,276,114382,2,0,B|68:277|68:277|79:275|79:275|99:276,1,53.9999983520508
345,248,114513,6,0,P|364:196|299:106,1,175.499991966248,8|0,0:0|0:0,0:0:0:0:
275,335,114774,2,0,B|278:282|278:282|268:251|268:251|275:227|275:227|281:176,1,148.50000453186,2|0,0:0|0:0,0:0:0:0:
79,193,115034,2,0,B|152:183|152:183|206:197|206:197|282:189,1,202.500007724762,0|0,1:0|1:0,1:0:0:0:
417,179,115295,5,6,0:0:0:0:
197,100,115426,1,4,3:1:0:0:
287,345,115556,1,2,0:0:0:0:
391,26,115687,1,8,0:0:0:0:
207,185,115817,1,2,3:2:0:0:
459,101,115948,1,4,3:1:0:0:
122,223,116078,5,8,0:0:0:0:
494,203,116208,1,8,0:0:0:0:
119,58,116339,1,8,0:0:0:0:
296,357,116469,1,8,0:0:0:0:
304,365,116534,1,8,0:0:0:0:
311,372,116600,1,8,0:0:0:0:
347,0,116730,1,8,0:0:0:0:
5,190,116861,5,6,0:0:0:0:
241,302,123121,6,0,L|131:308,2,90,4|0|0,0:0|0:0|0:0,0:0:0:0:
322,197,123904,6,0,L|456:203,2,113.399996539307,0|2|2,1:2|0:0|0:0,0:0:0:0:
217,115,124687,6,0,L|73:122,2,135.000005149842,2|2|0,0:0|0:0|0:0,0:0:0:0:
398,107,125469,5,2,0:0:0:0:
348,178,125991,5,2,0:0:0:0:
382,257,126121,1,0,0:0:0:0:
398,107,126252,6,0,B|354:124|354:124|241:111,1,148.50000453186,6|0,0:0|0:0,0:0:0:0:
180,103,126513,1,0,3:0:0:0:
239,246,126643,1,2,0:0:0:0:
311,19,126774,1,8,0:0:0:0:
153,110,126904,1,2,0:0:0:0:
335,8,127034,6,0,B|359:64|359:64|326:277,1,269.999991760254,6|0,0:0|0:0,0:0:0:0:
315,345,127426,1,2,0:0:0:0:
217,180,127556,1,8,0:0:0:0:
457,126,127687,1,2,0:0:0:0:
199,360,127817,6,0,B|175:304|175:304|211:75,1,292.499986610413,6|0,0:0|0:0,0:0:0:0:
225,0,128208,1,8,0:0:0:0:
271,228,128339,1,4,3:1:0:0:
53,104,128469,1,2,0:0:0:0:
320,289,128600,6,0,P|348:242|341:197,1,90,6|0,0:0|0:0,0:0:0:0:
2,161,128861,2,0,P|52:181|95:168,1,99.0000030212403,8|0,0:0|0:0,0:0:0:0:
287,7,129121,2,0,P|246:49|243:97,1,107.999996704102,2|0,0:0|0:0,0:0:0:0:
87,255,129382,5,6,0:0:0:0:
34,84,129513,1,0,0:0:0:0:
204,154,129643,2,0,L|316:143,1,99.0000030212403,4|0,3:1|3:0,0:0:0:0:
87,255,129904,2,0,B|76:208|76:208|89:151,1,99.0000030212403,4|2,0:1|0:0,0:0:0:0:
373,100,130165,6,0,B|384:147|384:147|371:204,1,99.0000030212403,8|2,0:0|0:0,0:0:0:0:
210,354,130426,2,0,B|199:307|199:307|212:250,1,99.0000030212403,4|0,0:1|0:0,0:0:0:0:
372,196,130687,1,0,3:0:0:0:
200,104,130817,1,0,0:0:0:0:
372,280,130948,6,0,P|451:231|436:140,1,198.000006042481,2|0,0:0|3:0,0:0:0:0:
317,43,131339,1,0,0:0:0:0:
142,158,131469,2,0,P|186:182|234:176,1,99.0000030212403,4|0,3:1|3:0,0:0:0:0:
450,65,131730,6,0,P|400:75|367:110,1,99.0000030212403,8|0,0:0|3:0,0:0:0:0:
425,238,131991,2,0,L|437:125,1,99.0000030212403,0|4,3:1|0:1,0:0:0:0:
354,284,132252,1,2,0:0:0:0:
512,160,132382,1,4,0:1:0:0:
265,229,132513,6,0,L|161:218,1,99.0000030212403,2|0,0:0|0:0,0:0:0:0:
95,158,132708,1,0,0:0:0:0:
88,142,132774,2,0,L|192:131,1,99.0000030212403,4|0,3:1|3:0,0:0:0:0:
370,111,133034,2,0,P|386:61|367:11,1,99.0000030212403,4|0,3:1|3:0,0:0:0:0:
174,5,133295,5,8,0:0:0:0:
301,66,133426,1,4,0:1:0:0:
88,142,133556,1,2,0:0:0:0:
174,5,133687,1,4,0:1:0:0:
204,302,133817,1,2,0:0:0:0:
310,153,133948,1,4,0:1:0:0:
16,188,134078,6,0,P|4:128|118:62,1,198.000006042481,2|0,0:0|3:0,0:0:0:0:
239,117,134469,1,0,3:0:0:0:
189,253,134600,1,0,3:0:0:0:
88,142,134730,1,2,0:0:0:0:
264,349,134861,6,0,P|281:301|260:248,1,99.0000030212403,8|0,0:0|3:0,0:0:0:0:
88,142,135121,2,0,P|71:190|92:243,1,99.0000030212403,4|0,0:1|3:0,0:0:0:0:
211,74,135382,1,2,0:0:0:0:
152,190,135513,1,0,3:0:0:0:
356,110,135643,6,0,B|368:60|368:60|357:9,1,99.0000030212403,2|0,0:0|0:0,0:0:0:0:
152,190,135904,2,0,B|140:240|140:240|151:291,1,99.0000030212403,4|0,0:1|3:0,0:0:0:0:
205,107,136165,2,0,B|155:95|155:95|104:106,1,99.0000030212403,4|2,0:1|0:0,0:0:0:0:
351,290,136426,6,0,B|401:302|401:302|452:291,1,99.0000030212403,8|0,0:0|0:0,0:0:0:0:
270,243,136687,2,0,B|258:293|258:293|269:344,1,99.0000030212403,4|0,0:1|0:0,0:0:0:0:
452,142,136948,2,0,B|464:92|464:92|453:41,1,99.0000030212403,4|0,0:1|0:0,0:0:0:0:
233,84,137208,5,2,0:0:0:0:
380,211,137339,1,0,0:0:0:0:
447,24,137469,1,0,3:0:0:0:
379,229,137600,1,0,3:0:0:0:
185,21,137730,2,0,P|233:4|281:19,1,99.0000030212403,4|0,3:1|3:0,0:0:0:0:
430,288,137991,6,0,P|377:306|304:207,1,198.000006042481,8|4,0:0|0:1,0:0:0:0:
423,141,138382,1,0,0:0:0:0:
261,364,138513,1,2,0:0:0:0:
233,84,138643,1,4,0:1:0:0:
430,288,138774,6,0,B|393:265|393:265|281:275,1,148.50000453186,6|0,0:0|0:0,0:0:0:0:
213,282,139034,1,0,3:0:0:0:
233,84,139165,1,2,0:0:0:0:
41,174,139295,1,8,0:0:0:0:
260,73,139426,1,2,0:0:0:0:
141,316,139556,6,0,B|118:274|118:274|138:165,1,148.50000453186,6|0,0:0|0:0,0:0:0:0:
152,94,139817,1,0,3:0:0:0:
329,217,139948,1,2,0:0:0:0:
17,313,140078,1,8,0:0:0:0:
163,69,140208,1,4,0:1:0:0:
395,270,140339,6,0,P|412:204|274:155,1,247.500007553101,6|0,0:0|0:0,0:0:0:0:
329,217,140730,1,8,0:0:0:0:
386,73,140861,1,2,0:0:0:0:
237,96,140991,1,0,3:0:0:0:
417,7,141121,5,8,0:0:0:0:
333,347,141382,1,8,0:0:0:0:
333,347,141643,5,2,0:0:0:0:
407,203,141774,1,4,0:1:0:0:
226,270,141904,6,0,B|292:263|292:263|330:276|330:276|406:272,1,180,6|4,0:0|3:1,0:0:0:0:
149,214,142295,1,0,3:0:0:0:
144,199,142360,1,0,0:0:0:0:
138,186,142426,2,0,L|132:285,1,90,4|2,3:1|0:0,0:0:0:0:
343,149,142687,6,0,L|349:50,1,90,10|0,0:0|3:0,0:0:0:0:
278,204,142948,2,0,P|332:235|424:171,1,180,4|0,0:1|3:0,0:0:0:0:
348,59,143339,1,4,0:1:0:0:
480,228,143469,6,0,P|498:184|412:104,1,180,2|0,0:0|3:0,0:0:0:0:
212,172,143861,1,4,0:1:0:0:
348,59,143991,1,2,0:0:0:0:
322,324,144121,1,4,0:1:0:0:
346,32,144252,6,0,P|302:20|254:30,1,90,8|0,0:0|0:0,0:0:0:0:
160,228,144513,2,0,B|184:191|184:191|166:91,1,135,4|0,3:1|0:0,0:0:0:0:
160,66,144774,1,8,0:0:0:0:
22,141,144904,1,4,0:1:0:0:
234,281,145034,6,0,P|249:218|167:142,1,180,2|0,0:0|3:0,0:0:0:0:
160,228,145426,1,0,3:0:0:0:
83,71,145556,1,4,3:1:0:0:
326,118,145687,1,4,0:1:0:0:
55,0,145817,6,0,P|11:43|51:142,1,180,2|0,1:2|3:0,0:0:0:0:
255,84,146208,1,4,0:1:0:0:
198,300,146339,1,8,0:0:0:0:
133,31,146469,1,4,0:1:0:0:
318,164,146600,6,0,B|385:151|385:151|432:165|432:165|505:151,1,180,2|0,0:0|3:0,0:0:0:0:
245,117,146991,1,8,0:0:0:0:
322,334,147121,1,2,0:0:0:0:
330,311,147382,5,8,0:0:0:0:
170,120,147513,1,4,0:1:0:0:
410,181,147643,1,2,0:0:0:0:
181,273,147774,1,4,0:1:0:0:
312,63,147904,1,4,3:1:0:0:
314,39,148165,5,0,3:0:0:0:
314,147,148295,1,0,3:0:0:0:
407,93,148426,1,0,3:0:0:0:
246,102,148556,1,0,3:0:0:0:
389,184,148686,1,0,3:0:0:0:
388,18,148817,1,0,3:0:0:0:
261,223,148948,5,0,3:0:0:0:
261,223,149556,6,0,L|276:173,4,30,0|0|0|0|6,0:0|0:0|0:0|0:0|0:0,0:0:0:0:
256,192,149795,12,0,155208,0:0:0:0:
