osu file format v14

[General]
AudioFilename: audio.mp3
AudioLeadIn: 0
PreviewTime: 58952
Countdown: 0
SampleSet: Soft
StackLeniency: 0.4
Mode: 0
LetterboxInBreaks: 0
WidescreenStoryboard: 0

[Editor]
Bookmarks: 1035,4165,11991,37034,58948,83991,90252,102774,126252,129382,141904,149730
DistanceSpacing: 0.8
BeatDivisor: 2
GridSize: 8
TimelineZoom: 2.1

[Metadata]
Title:Sky of the Ocean
TitleUnicode:Sky of the Ocean
Artist:Memme
ArtistUnicode:Memme
Creator:Syph
Version:-Tochi's Hard.
Source:O2Jam U
Tags:parkmemme m2u cheesecake [c_u_r_i] -tochi snownino_ emilia xlolicore- hikaru_rose moecho moeri derandom_otaku
BeatmapID:1429748
BeatmapSetID:668888

[Difficulty]
HPDrainRate:5
CircleSize:4
OverallDifficulty:7
ApproachRate:8
SliderMultiplier:1.4
SliderTickRate:1

[Events]
//Background and Video events
0,0,"bg.jpg",0,0
//Break Periods
2,117061,125502
//Storyboard Layer 0 (Background)
//Storyboard Layer 1 (Fail)
//Storyboard Layer 2 (Pass)
//Storyboard Layer 3 (Foreground)
//Storyboard Sound Samples

[TimingPoints]
1035,260.869565217391,3,2,1,60,1,0
1035,-142.857142857143,3,2,1,60,0,0
4165,-166.666666666667,3,2,1,60,0,1
10165,-166.666666666667,3,2,1,50,0,0
11991,-200,3,2,1,50,0,0
37034,-153.846153846154,3,2,1,50,0,0
58948,-133.333333333333,3,2,1,70,0,1
80861,-133.333333333333,3,2,1,70,0,0
83991,-166.666666666667,3,2,1,60,0,1
90252,-142.857142857143,3,2,1,60,0,0
91817,-111.111111111111,3,2,1,70,0,1
101991,-200,3,2,1,70,0,1
102643,-200,3,2,1,15,0,1
102774,-111.111111111111,3,2,1,70,0,0
104339,-111.111111111111,3,2,1,70,0,1
109687,-111.111111111111,3,2,1,15,0,1
109817,-111.111111111111,3,2,1,70,0,1
113730,-111.111111111111,3,2,1,70,0,0
115295,-99.9999999999999,3,2,1,70,0,1
116861,-99.9999999999999,3,2,1,70,0,0
126252,-153.846153846154,3,2,1,50,0,0
129382,-125,3,2,1,70,0,1
140339,-125,3,2,1,70,0,0
141904,-166.666666666667,3,2,1,60,0,1
142034,-166.666666666667,3,2,1,60,0,0
154426,-166.666666666667,3,2,1,5,0,0

[Colours]
Combo1 : 82,179,186
Combo2 : 112,142,173
Combo3 : 115,157,155
Combo4 : 16,154,237
Combo5 : 33,199,222
Combo6 : 73,141,197

[HitObjects]
256,192,1035,12,4,3382,3:0:0:0:
365,247,3904,5,4,0:1:0:0:
365,247,4034,1,4,1:0:0:0:
365,247,4165,6,0,L|278:235,1,83.9999974365235,6|0,0:0|1:0,0:0:0:0:
181,178,4687,2,0,L|189:233,1,41.9999987182617,0|0,0:0|1:0,0:0:0:0:
168,257,4948,2,0,P|93:231|14:275,1,167.999994873047,8|0,0:0|0:0,0:0:0:0:
99,338,5730,2,0,B|162:343|162:343|196:330|196:330|275:337,1,167.999994873047,2|0,0:0|0:0,0:0:0:0:
285,254,6513,2,0,L|266:166,1,83.9999974365235,8|0,0:0|1:0,0:0:0:0:
323,109,7034,1,2,0:0:0:0:
258,162,7295,6,0,B|197:174|135:142|135:142|101:168,1,167.999994873047,6|0,0:0|0:0,0:0:0:0:
53,235,8078,2,0,P|90:251|134:246,2,83.9999974365235,8|0|0,0:0|0:0|0:0,0:0:0:0:
4,156,8861,2,0,B|18:66,1,83.9999974365235,2|0,0:0|0:0,0:0:0:0:
17,73,9252,2,0,L|65:57,1,41.9999987182618,8|2,0:0|0:0,0:0:0:0:
131,100,9643,2,0,L|224:94,2,83.9999974365235,8|2|2,0:0|0:0|0:0,0:0:0:0:
203,64,11730,1,0,0:0:0:0:
131,100,11991,6,0,L|279:111,1,140,6|0,1:2|0:0,0:0:0:0:
347,103,12774,2,0,B|416:95|416:95|395:126|396:170,1,140,0|2,1:0|0:3,0:0:0:0:
408,240,13556,1,0,0:0:0:0:
408,240,13817,2,0,L|333:233,1,70,0|0,0:0|0:0,0:0:0:0:
266,263,14339,1,0,1:0:0:0:
266,263,14861,2,0,L|230:274,1,35
193,287,15121,6,0,B|203:184|203:184|170:207,1,140,0|0,0:0|0:0,0:0:0:0:
99,229,15904,1,0,1:0:0:0:
22,216,16165,1,0,0:0:0:0:
36,140,16426,1,2,0:3:0:0:
112,153,16687,6,0,P|146:153|183:145,1,70,0|0,0:0|0:0,0:0:0:0:
243,100,17208,2,0,P|257:118|274:148,1,52.5
267,172,17469,2,0,P|283:230|256:315,1,140,0|0,1:0|0:0,0:0:0:0:
186,293,18252,6,0,L|39:309,1,140
118,336,19034,2,0,L|257:351,1,140,0|2,1:0|0:3,0:0:0:0:
323,311,19817,2,0,P|345:246|323:179,1,140,0|0,0:0|0:0,0:0:0:0:
248,197,20600,2,0,L|167:192,2,70,0|0|0,1:0|0:0|0:0,0:0:0:0:
330,155,21382,6,0,L|411:150,2,70,0|0|0,0:0|1:0|0:0,0:0:0:0:
260,120,22165,2,0,L|179:115,1,70,0|0,1:0|0:0,0:0:0:0:
117,142,22687,2,0,L|126:177,1,35,2|0,0:3|0:0,0:0:0:0:
115,213,22948,2,0,B|187:248|269:210|269:210|237:229|230:254,1,210,0|0,3:0|1:0,0:0:0:0:
355,338,24252,5,0,0:0:0:0:
304,281,24513,2,0,L|294:141,1,140,2|0,0:0|0:0,0:0:0:0:
220,119,25295,2,0,L|214:197,1,70,0|0,1:0|0:0,0:0:0:0:
159,243,25817,1,2,0:3:0:0:
234,288,26078,2,0,L|304:281,2,70,0|0|0,0:0|0:0|0:0,0:0:0:0:
159,243,26861,2,0,L|8:227,1,140,0|2,1:0|0:3,0:0:0:0:
46,156,27513,1,0,0:0:0:0:
46,156,27643,6,0,B|69:149|69:149|94:151|94:151|117:145,1,70,2|0,0:0|0:0,0:0:0:0:
191,142,28165,2,0,B|211:143|211:143|234:153|234:153|258:155,1,70,0|0,0:0|1:0,0:0:0:0:
333,136,28687,1,0,0:0:0:0:
278,81,28948,1,2,0:3:0:0:
258,155,29208,2,0,P|262:223|274:299,1,140,0|0,0:0|0:0,0:0:0:0:
218,349,29991,2,0,P|148:338|78:334,1,140,0|2,1:0|0:3,0:0:0:0:
16,289,30643,1,0,0:0:0:0:
16,289,30774,6,0,B|1:220|1:220|51:168,1,140
119,201,31556,2,0,L|192:206,1,70,0|0,1:0|0:0,0:0:0:0:
265,214,32078,1,2,0:3:0:0:
265,214,32339,2,0,P|252:143|272:75,1,140,0|2,0:0|0:3,0:0:0:0:
331,32,33121,6,0,P|346:70|340:109,1,70,0|0,1:0|1:0,0:0:0:0:
309,167,33643,1,0,0:0:0:0:
236,141,33904,2,0,P|166:138|100:171,1,140
129,240,34687,2,0,P|137:275|133:310,2,70,0|0|2,1:0|0:0|0:3,0:0:0:0:
87,174,35469,6,0,P|73:111|114:33,1,140,0|0,0:0|0:0,0:0:0:0:
175,68,36252,1,8,0:3:0:0:
260,48,36513,2,0,L|299:39,1,35,2|2,0:0|0:0,0:0:0:0:
327,60,36774,2,0,L|366:51,1,35,0|0,1:0|1:0,0:0:0:0:
405,41,37034,6,0,P|392:87|399:132,1,90.9999958343508,6|0,0:0|1:0,0:0:0:0:
435,202,37556,1,0,1:0:0:0:
388,269,37817,2,0,L|336:261,1,45.4999979171754,8|0,0:0|0:0,0:0:0:0:
313,275,38078,2,0,L|261:267,1,45.4999979171754
343,360,38339,1,0,0:0:0:0:
343,360,38469,1,0,0:0:0:0:
343,360,38600,2,0,B|388:349|388:349|434:357,1,90.9999958343508,2|0,0:0|1:0,0:0:0:0:
499,310,39121,1,0,1:0:0:0:
438,255,39382,2,0,P|417:210|432:117,1,136.499993751526,8|0,0:0|1:0,0:0:0:0:
427,125,39904,1,2,0:0:0:0:
332,154,40165,6,0,B|260:147|260:147|226:168|226:168|146:161,1,181.999991668702,6|0,0:0|1:0,0:0:0:0:
82,127,40948,2,0,B|65:168|65:168|86:211,1,90.9999958343508,8|0,0:0|1:0,0:0:0:0:
132,277,41469,1,2,0:3:0:0:
51,298,41730,2,0,P|44:208|82:127,1,181.999991668702,6|0,0:0|1:0,0:0:0:0:
159,154,42513,2,0,P|206:158|249:146,1,90.9999958343508,8|2,0:0|0:0,0:0:0:0:
282,143,42904,2,0,L|338:153,2,45.4999979171754
306,63,43295,5,6,0:0:0:0:
225,74,43556,1,0,0:0:0:0:
148,45,43817,1,0,0:0:0:0:
78,87,44078,2,0,P|67:130|79:177,1,90.9999958343508,8|0,0:0|1:0,0:0:0:0:
99,204,44469,1,0,0:0:0:0:
129,224,44600,1,0,0:0:0:0:
164,230,44730,1,0,0:0:0:0:
200,230,44861,6,0,B|292:214,1,90.9999958343508,2|0,0:0|0:0,0:0:0:0:
330,285,45382,1,0,0:0:0:0:
253,312,45643,2,0,L|163:328,1,90.9999958343508,8|0,0:0|1:0,0:0:0:0:
83,308,46165,1,2,0:0:0:0:
114,231,46426,6,0,P|127:147|85:62,1,181.999991668702,6|0,0:0|0:0,0:0:0:0:
22,115,47208,2,0,L|36:214,1,90.9999958343508,8|0,0:0|1:0,0:0:0:0:
114,231,47730,1,0,1:0:0:0:
186,192,47991,2,0,P|248:181|327:201,1,136.499993751526,6|8,0:0|0:0,0:0:0:0:
318,196,48513,1,2,0:0:0:0:
316,291,48774,6,0,L|322:201,1,90.9999958343508,8|8,0:0|0:0,0:0:0:0:
253,155,49295,1,6,0:0:0:0:
222,175,49426,1,2,0:0:0:0:
192,196,49556,6,0,B|103:174|103:174|109:265,1,181.999991668702,6|0,0:0|1:0,0:0:0:0:
55,327,50339,2,0,P|130:286|211:329,1,181.999991668702,8|0,0:0|0:0,0:0:0:0:
282,364,51121,2,0,L|332:358,1,45.4999979171754,2|0,0:0|1:0,0:0:0:0:
368,354,51382,2,0,L|418:348,1,45.4999979171754,0|0,0:0|1:0,0:0:0:0:
383,272,51643,2,0,L|292:281,1,90.9999958343508,0|8,1:0|0:0,0:0:0:0:
213,260,52165,1,2,0:3:0:0:
135,234,52426,1,2,0:0:0:0:
213,260,52687,6,0,P|212:209|196:171,1,90.9999958343508,2|0,0:0|0:0,0:0:0:0:
125,143,53208,1,0,0:0:0:0:
125,143,53469,2,0,L|306:124,1,181.999991668702,8|2,0:0|0:3,0:0:0:0:
376,165,54252,2,0,P|392:206|379:261,1,90.9999958343508,2|0,0:0|1:0,0:0:0:0:
315,296,54774,1,0,0:0:0:0:
239,264,55034,2,0,B|205:261|205:261|186:274|186:274|153:271,2,90.9999958343508,8|0|2,0:0|1:0|0:0,0:0:0:0:
319,317,55817,6,0,L|468:299,1,136.499993751526,6|2,0:0|0:0,0:0:0:0:
454,300,56339,2,0,L|442:254,1,45.4999979171754,8|0,0:0|0:0,0:0:0:0:
497,193,56600,2,2,P|437:173|376:205,1,136.499993751526,6|2,0:0|0:0,0:0:0:0:
375,205,57121,2,0,L|331:216,1,45.4999979171754,8|0,0:0|0:0,0:0:0:0:
278,282,57382,2,2,P|247:226|268:160,1,136.499993751526,6|8,0:0|0:0,0:0:0:0:
269,160,57903,2,0,L|272:114,1,45.4999979171754,2|0,0:0|0:0,0:0:0:0:
184,133,58165,2,0,L|88:150,2,90.9999958343508,2|0|2,0:0|1:0|0:0,0:0:0:0:
331,216,58948,6,0,P|270:207|230:229,1,105.000004005432,6|0,0:0|0:0,0:0:0:0:
190,298,59469,1,0,1:0:0:0:
252,354,59730,2,0,B|294:346|294:346|311:354|311:354|359:345,2,105.000004005432,8|0|0,0:0|0:0|1:0,0:0:0:0:
154,312,60513,2,0,L|170:149,1,157.500006008148,2|0,0:0|0:0,0:0:0:0:
250,169,61034,2,0,L|301:158,1,52.5000020027161,0|0,1:0|1:0,0:0:0:0:
169,155,61295,2,0,L|62:132,1,105.000004005432,8|0,0:0|0:0,0:0:0:0:
79,228,61817,1,2,0:0:0:0:
79,228,61948,1,0,0:0:0:0:
79,228,62078,6,0,L|89:340,2,105.000004005432,6|0|0,0:0|1:0|0:0,0:0:0:0:
135,146,62861,2,0,B|166:100|166:100|182:155,1,105.000004005432,8|0,0:0|1:0,0:0:0:0:
202,238,63382,1,0,1:0:0:0:
214,247,63513,1,0,0:0:0:0:
226,256,63643,2,0,L|67:244,1,157.500006008148,2|0,0:0|0:0,0:0:0:0:
46,258,64165,1,0,1:0:0:0:
119,336,64426,2,0,L|278:348,1,157.500006008148,8|0,0:0|0:0,0:0:0:0:
299,334,64948,1,2,0:0:0:0:
225,255,65208,6,0,P|209:213|224:154,2,105.000004005432,6|0|0,0:0|1:0|0:0,0:0:0:0:
298,204,65991,2,0,L|402:193,1,105.000004005432,8|0,0:0|1:0,0:0:0:0:
384,275,66513,1,0,1:0:0:0:
441,198,66774,2,0,P|454:146|443:88,1,105.000004005432,2|0,0:0|0:0,0:0:0:0:
392,31,67295,1,0,0:0:0:0:
311,53,67556,2,0,B|210:26|210:26|113:78,1,210.000008010865,8|2,0:0|0:0,0:0:0:0:
222,133,68339,6,0,P|248:200|230:287,1,157.500006008148,6|2,0:0|0:0,0:0:0:0:
213,307,68861,1,8,0:0:0:0:
213,307,69121,6,0,P|280:281|367:299,1,157.500006008148,6|2,0:0|0:0,0:0:0:0:
387,316,69643,1,8,0:0:0:0:
411,336,69774,1,0,1:0:0:0:
430,360,69904,6,0,P|414:283|440:210,1,157.500006008148,2|8,0:0|0:0,0:0:0:0:
466,193,70426,1,2,0:0:0:0:
284,178,70687,2,0,P|303:227|299:285,2,105.000004005432,8|12|2,0:0|0:0|0:0,0:0:0:0:
257,160,71339,1,0,0:0:0:0:
226,151,71469,6,0,L|115:171,1,105.000004005432,2|0,0:0|1:0,0:0:0:0:
65,231,71991,1,0,1:0:0:0:
138,271,72252,2,0,B|143:310|143:310|162:328|162:328|167:367,2,105.000004005432,8|0|0,0:0|0:0|0:0,0:0:0:0:
194,183,73034,2,0,P|175:142|206:35,1,157.500006008148,2|0,0:0|1:0,0:0:0:0:
285,60,73556,2,0,L|343:75,1,52.5000020027161,0|0,0:0|1:0,0:0:0:0:
409,36,73817,2,0,B|428:91|428:91|394:131|394:131|409:238,1,210.000008010865,8|2,0:0|0:0,0:0:0:0:
362,300,74469,1,0,1:0:0:0:
362,300,74600,6,0,B|313:279|313:279|261:299,1,105.000004005432,6|0,0:0|1:0,0:0:0:0:
190,337,75121,1,0,0:0:0:0:
149,263,75382,2,0,B|128:214|128:214|148:162,1,105.000004005432,8|0,0:0|0:0,0:0:0:0:
61,274,75904,1,0,0:0:0:0:
61,274,76034,1,0,1:0:0:0:
61,274,76165,6,0,P|123:256|221:266,1,157.500006008148,2|0,0:0|1:0,0:0:0:0:
243,276,76687,1,2,0:0:0:0:
359,317,76948,2,0,B|386:286|386:286|327:305|271:288,1,157.500006008148,8|0,0:0|0:0,0:0:0:0:
243,276,77469,1,2,0:0:0:0:
261,160,77730,6,0,L|277:54,2,105.000004005432,2|0|0,0:0|1:0|0:0,0:0:0:0:
166,265,78513,2,0,B|124:230|153:174|153:174|225:178|261:160,1,210.000008010865,8|0,0:0|1:0,0:0:0:0:
289,148,79165,1,0,0:0:0:0:
314,129,79295,6,0,P|302:178|305:245,1,105.000004005432,2|0,0:0|0:0,0:0:0:0:
177,368,79817,2,0,P|178:315|166:265,1,105.000004005432,0|8,0:0|0:0,0:0:0:0:
61,140,80339,1,0,1:0:0:0:
47,168,80469,1,0,1:0:0:0:
40,198,80600,1,2,0:0:0:0:
38,229,80730,1,0,0:0:0:0:
41,260,80861,6,0,B|144:237|144:237|205:250,1,157.500006008148,6|2,0:0|0:0,0:0:0:0:
224,257,81382,1,8,0:0:0:0:
334,122,81643,2,0,B|284:199|284:199|310:226|306:272,1,157.500006008148,6|2,0:0|0:0,0:0:0:0:
302,290,82165,1,8,0:0:0:0:
148,345,82426,2,0,P|108:278|144:208,1,157.500006008148,2|8,0:0|0:0,0:0:0:0:
169,203,82948,1,2,0:0:0:0:
302,290,83208,5,8,0:0:0:0:
189,275,83469,1,8,0:0:0:0:
340,226,83730,1,2,0:0:0:0:
333,211,83861,1,0,0:0:0:0:
326,196,83991,6,0,L|338:112,1,83.9999974365235,6|0,0:0|1:0,0:0:0:0:
183,233,84513,2,0,L|189:278,1,41.9999987182618,0|0,0:0|1:0,0:0:0:0:
166,310,84774,2,0,B|249:288|249:288|327:320,1,167.999994873047,8|0,0:0|0:0,0:0:0:0:
447,302,85556,2,0,B|463:326|463:326|325:319,1,167.999994873047,2|0,0:0|0:0,0:0:0:0:
253,273,86339,2,0,P|246:228|260:189,1,83.9999974365235,8|0,0:0|1:0,0:0:0:0:
330,148,86861,1,2,0:0:0:0:
201,208,87121,6,0,P|209:134|141:69,1,167.999994873047,6|0,0:0|0:0,0:0:0:0:
67,97,87904,2,0,P|63:55|80:17,2,83.9999974365235,8|0|0,0:0|0:0|0:0,0:0:0:0:
106,171,88687,2,0,P|121:234|99:295,1,125.999996154785,2|8,0:0|0:0,0:0:0:0:
102,290,89208,1,2,0:0:0:0:
207,274,89469,2,0,L|298:283,2,83.9999974365235,8|2|0,0:0|0:0|0:0,0:0:0:0:
16,228,90252,6,0,P|70:220|119:195,1,97.9999970092774,6|0,0:0|1:0,0:0:0:0:
135,180,90643,1,8,0:0:0:0:
156,152,90774,1,2,0:0:0:0:
322,74,91034,5,8,0:0:0:0:
313,121,91164,1,8,0:0:0:0:
338,163,91294,1,8,0:0:0:0:
385,177,91426,2,0,L|416:177,2,24.4999992523194,8|8|8,0:0|0:0|0:0,0:0:0:0:
342,247,91687,5,8,0:0:0:0:
342,247,91817,2,0,B|246:231|246:231|220:255,1,125.999996154785,6|0,0:0|0:0,0:0:0:0:
211,272,92208,1,0,1:0:0:0:
165,332,92339,2,0,L|98:319,1,62.9999980773926,0|0,1:0|1:0,0:0:0:0:
52,260,92600,2,0,B|51:239|68:220|68:220|55:195|60:164|60:164|80:143,2,125.999996154785,8|0|2,0:0|1:0|0:3,0:0:0:0:
245,347,93382,6,0,P|245:312|228:278,1,62.9999980773926,2|0,0:0|0:0,0:0:0:0:
173,240,93643,1,0,1:0:0:0:
173,240,93774,1,0,1:0:0:0:
240,206,93904,2,0,L|308:218,1,62.9999980773926,0|0,0:0|1:0,0:0:0:0:
425,246,94165,5,8,0:0:0:0:
360,287,94295,1,0,1:0:0:0:
298,242,94426,1,0,1:0:0:0:
234,286,94556,1,0,1:0:0:0:
172,241,94687,1,2,0:0:0:0:
252,61,94948,5,6,0:0:0:0:
252,61,95079,2,0,P|228:107|239:187,1,125.999996154785,0|0,1:0|1:0,0:0:0:0:
250,238,95469,2,0,P|248:207|235:179,1,62.9999980773926,0|0,1:0|1:0,0:0:0:0:
145,151,95730,2,0,B|120:164|118:202|118:202|159:207|177:228,1,125.999996154785,8|0,0:0|1:0,0:0:0:0:
252,343,96252,2,0,P|220:345|184:332,1,62.9999980773926,2|0,0:3|0:0,0:0:0:0:
113,290,96513,5,2,1:0:0:0:
117,295,96643,1,2,1:0:0:0:
176,227,96774,2,0,P|233:223|298:246,1,125.999996154785,2|0,1:0|1:0,0:0:0:0:
315,271,97165,1,0,1:0:0:0:
360,329,97295,2,0,P|354:267|359:200,2,125.999996154785,8|0|2,0:0|1:0|0:0,0:0:0:0:
377,362,98078,5,6,0:0:0:0:
377,362,98208,2,0,L|249:348,1,125.999996154785,0|0,1:0|1:0,0:0:0:0:
188,353,98600,2,0,L|251:348,1,62.9999980773926,0|0,1:0|1:0,0:0:0:0:
315,271,98861,2,0,B|414:281|414:281|440:303,2,125.999996154785,8|0|2,0:0|1:0|0:3,0:0:0:0:
239,267,99513,1,0,0:0:0:0:
239,267,99643,6,0,B|249:175|249:175|224:200,1,125.999996154785,2|0,0:0|1:0,0:0:0:0:
151,217,100034,1,0,1:0:0:0:
151,217,100165,2,0,B|117:221|117:221|87:204,1,62.9999980773926,0|0,0:0|1:0,0:0:0:0:
9,151,100426,5,8,0:0:0:0:
68,102,100556,1,0,1:0:0:0:
134,141,100687,1,0,0:0:0:0:
193,93,100817,1,0,1:0:0:0:
259,131,100948,1,2,0:0:0:0:
135,263,101208,5,6,0:0:0:0:
135,263,101339,2,0,P|122:202|134:141,1,125.999996154785,0|0,0:0|1:0,0:0:0:0:
157,83,101730,2,0,P|150:114|134:140,1,62.9999980773926,0|0,1:0|1:0,0:0:0:0:
47,189,101991,6,2,B|51:154|63:122|63:122|131:121|157:83,1,175,8|0,0:0|0:0,0:0:0:0:
230,48,102774,6,0,B|300:60|300:60|336:42|336:42|415:56,1,188.999994232178,2|8,0:0|0:0,0:0:0:0:
390,86,103295,1,2,0:0:0:0:
431,222,103556,2,0,B|383:230|383:230|359:218|359:218|307:227,2,125.999996154785,8|8|2,0:0|0:0|0:0,0:0:0:0:
342,320,104339,6,0,P|281:303|207:304,2,125.999996154785,6|0|0,0:0|1:0|1:0,0:0:0:0:
366,339,104991,1,0,1:0:0:0:
437,312,105121,2,0,B|465:299|473:269|473:269|435:274|396:241,1,125.999996154785,8|0,0:0|1:0,0:0:0:0:
349,118,105643,2,0,P|363:151|362:186,1,62.9999980773926,2|0,1:0|0:0,0:0:0:0:
327,250,105904,6,0,P|294:264|259:263,1,62.9999980773926,2|0,0:0|0:0,0:0:0:0:
195,233,106165,1,2,1:0:0:0:
195,233,106295,1,2,1:0:0:0:
248,170,106426,2,0,P|262:137|261:102,1,62.9999980773926,2|0,0:3|0:0,0:0:0:0:
173,110,106687,5,8,0:0:0:0:
141,179,106817,1,0,1:0:0:0:
195,233,106948,1,0,1:0:0:0:
164,303,107078,1,0,1:0:0:0:
218,356,107208,2,0,P|188:344|157:344,2,62.9999980773926,2|2|6,0:0|0:3|0:0,0:0:0:0:
76,372,107730,6,0,P|60:316|82:244,1,125.999996154785,0|0,1:0|0:0,0:0:0:0:
101,232,108121,1,0,1:0:0:0:
177,218,108252,2,0,B|224:226|224:226|243:254|243:254|291:262,2,125.999996154785,8|0|2,0:0|1:0|1:0,0:0:0:0:
55,155,109034,2,0,L|120:144,1,62.9999980773926,2|2,0:0|1:0,0:0:0:0:
260,153,109295,2,0,B|196:142|196:142|238:93|321:107,1,188.999994232178,2|0,1:0|0:0,0:0:0:0:
377,152,109817,2,0,P|365:182|366:214,1,62.9999980773926,8|0,0:0|0:0,0:0:0:0:
402,289,110078,5,0,0:0:0:0:
335,325,110208,1,0,0:0:0:0:
261,305,110339,1,2,0:0:0:0:
234,234,110469,1,0,1:0:0:0:
267,165,110600,6,0,B|297:117|285:81|285:81|264:84|239:77,2,125.999996154785,6|0|0,0:0|1:0|1:0,0:0:0:0:
248,190,111252,1,0,1:0:0:0:
182,223,111382,2,0,L|311:231,2,125.999996154785,8|0|2,0:0|0:0|1:0,0:0:0:0:
87,289,112165,5,2,0:0:0:0:
236,323,112426,2,0,P|206:311|168:315,1,62.9999980773926,2|2,1:0|1:0,0:0:0:0:
98,350,112687,2,0,P|99:318|87:289,1,62.9999980773926,2|0,0:3|0:0,0:0:0:0:
17,236,112948,5,8,0:0:0:0:
89,255,113078,1,0,1:0:0:0:
146,206,113208,1,0,1:0:0:0:
218,225,113338,1,0,1:0:0:0:
275,176,113469,2,0,L|342:185,1,62.9999980773926,2|2,0:0|0:3,0:0:0:0:
379,121,113730,6,0,L|394:255,2,125.999996154785,2|0|0,0:0|0:0|1:0,0:0:0:0:
289,50,114513,2,0,L|275:176,1,125.999996154785,8|2,0:0|1:0,0:0:0:0:
260,315,115034,1,2,1:0:0:0:
244,175,115295,6,0,L|260:315,1,140,2|0,0:0|1:0,0:0:0:0:
204,370,115687,1,8,0:0:0:0:
204,370,115817,2,0,B|172:355|172:355|131:359,1,70,2|0,0:0|1:0,0:0:0:0:
61,371,116078,2,0,P|60:338|80:299,1,70,8|8,0:0|0:0,0:0:0:0:
122,243,116339,2,0,P|123:210|103:171,1,70,8|8,0:0|0:0,0:0:0:0:
44,132,116600,1,8,0:0:0:0:
244,175,116861,1,6,0:0:0:0:
408,261,126252,6,0,P|350:241|277:275,1,136.499993751526,6|2,0:0|0:0,0:0:0:0:
283,268,126774,2,0,L|236:262,1,45.4999979171754,8|0,0:0|0:0,0:0:0:0:
179,318,127034,2,0,B|117:292|117:292|52:325,1,136.499993751526,6|2,0:0|0:0,0:0:0:0:
55,323,127556,2,0,L|63:273,1,45.4999979171754,8|2,0:0|0:0,0:0:0:0:
109,206,127817,2,0,P|127:151|106:67,1,136.499993751526,6|8,0:0|0:0,0:0:0:0:
111,75,128339,2,0,L|158:81,1,45.4999979171754,2|2,0:0|0:0,0:0:0:0:
231,126,128600,2,0,L|324:118,2,90.9999958343508,8|8|2,0:0|0:0|0:0,0:0:0:0:
109,206,129382,6,0,P|168:206|211:241,1,112,2|0,0:0|0:0,0:0:0:0:
245,319,129904,1,0,1:0:0:0:
311,259,130165,2,0,P|360:234|414:245,2,112,8|0|0,0:0|0:0|1:0,0:0:0:0:
241,330,130948,2,0,L|58:313,1,168,2|0,0:0|1:0,0:0:0:0:
27,242,131469,2,0,L|40:184,1,56,0|0,1:0|0:0,0:0:0:0:
119,157,131730,2,0,B|109:67|109:67|135:85,1,112,8|0,0:0|0:0,0:0:0:0:
142,246,132252,1,2,0:0:0:0:
142,246,132382,1,0,1:0:0:0:
142,246,132513,6,0,L|159:364,2,112,2|0|0,0:0|1:0|0:0,0:0:0:0:
119,157,133295,2,0,B|136:118|120:71|120:71|139:84,1,112,8|0,0:0|1:0,0:0:0:0:
234,137,133817,1,0,1:0:0:0:
248,145,133948,1,0,0:0:0:0:
262,154,134078,6,0,P|239:227|264:328,1,168,2|0,0:0|0:0,0:0:0:0:
272,338,134600,1,0,1:0:0:0:
135,303,134861,2,0,P|150:249|136:195,2,112,8|0|2,0:0|1:0|0:0,0:0:0:0:
41,344,135643,6,0,L|152:335,1,112,2|0,0:0|0:0,0:0:0:0:
224,281,136165,1,0,1:0:0:0:
296,334,136426,2,0,P|315:297|313:224,1,112,8|0,0:0|1:0,0:0:0:0:
268,150,136948,1,0,0:0:0:0:
178,161,137208,2,0,B|82:212|27:126|27:126|83:136,1,224,2|0,0:0|0:0,0:0:0:0:
137,261,137991,2,0,B|196:256|241:221|241:221|342:283,1,224,8|2,0:0|0:0,0:0:0:0:
318,355,138643,1,0,0:0:0:0:
318,355,138774,6,0,P|304:285|356:205,1,168,6|2,0:0|0:0,0:0:0:0:
379,198,139295,1,8,0:0:0:0:
343,49,139556,6,0,P|331:130|378:197,1,168,6|2,0:0|0:0,0:0:0:0:
404,206,140078,2,0,P|409:234|403:269,1,56,8|0,0:0|0:0,0:0:0:0:
363,329,140339,6,0,B|266:300|266:300|199:321,1,168,6|8,0:0|0:0,0:0:0:0:
176,330,140861,1,2,0:0:0:0:
196,202,141121,5,8,0:0:0:0:
267,301,141382,1,8,0:0:0:0:
129,259,141643,1,2,0:0:0:0:
129,259,141774,1,0,0:0:0:0:
129,259,141904,6,0,P|144:218|141:172,1,83.9999974365235,6|0,0:0|1:0,0:0:0:0:
218,76,142426,2,0,P|221:99|232:122,1,41.9999987182618,0|0,0:0|1:0,0:0:0:0:
225,158,142687,2,0,P|287:132|374:177,1,167.999994873047,8|0,0:0|1:0,0:0:0:0:
326,307,143469,6,0,B|291:230|291:230|266:309,1,167.999994873047,2|0,0:0|0:0,0:0:0:0:
197,358,144252,2,0,L|107:347,1,83.9999974365235,8|0,0:0|1:0,0:0:0:0:
31,366,144774,1,2,0:0:0:0:
62,288,145034,6,0,P|71:200|43:127,1,167.999994873047,2|0,0:0|0:0,0:0:0:0:
95,61,145817,2,0,P|133:78|183:75,2,83.9999974365235,8|0|0,0:0|1:0|0:0,0:0:0:0:
29,114,146600,2,0,B|16:199,1,83.9999974365235,2|2,0:0|0:0,0:0:0:0:
16,197,146991,2,0,L|54:234,1,41.9999987182618,8|2,0:0|0:0,0:0:0:0:
130,229,147382,2,0,P|168:212|218:215,2,83.9999974365235,8|2|0,0:0|0:0|0:0,0:0:0:0:
256,192,149730,12,0,154426,0:0:0:0:
