osu file format v14

[General]
AudioFilename: audio.mp3
AudioLeadIn: 0
PreviewTime: 58952
Countdown: 0
SampleSet: Soft
StackLeniency: 0.3
Mode: 0
LetterboxInBreaks: 0
WidescreenStoryboard: 0

[Editor]
DistanceSpacing: 1
BeatDivisor: 4
GridSize: 4
TimelineZoom: 3.299999

[Metadata]
Title:Sky of the Ocean
TitleUnicode:Sky of the Ocean
Artist:Memme
ArtistUnicode:Memme
Creator:Syph
Version:Ren's Extra.
Source:O2Jam U
Tags:parkmemme m2u cheesecake [c_u_r_i] -tochi snownino_ emilia xlolicore- hikaru_rose moecho moeri derandom_otaku
BeatmapID:1485333
BeatmapSetID:668888

[Difficulty]
HPDrainRate:5.8
CircleSize:4
OverallDifficulty:8.5
ApproachRate:9.4
SliderMultiplier:2.1
SliderTickRate:1

[Events]
//Background and Video events
0,0,"bg.jpg",0,0
//Break Periods
2,117061,122581
//Storyboard Layer 0 (Background)
//Storyboard Layer 1 (Fail)
//Storyboard Layer 2 (Pass)
//Storyboard Layer 3 (Foreground)
//Storyboard Sound Samples

[TimingPoints]
1035,260.869565217391,3,2,1,70,1,0
3382,-111.111111111111,3,2,1,70,0,0
4165,-111.111111111111,3,2,1,70,0,0
10165,-133.333333333333,3,2,1,70,0,0
10361,-111.111111111111,3,2,1,70,0,0
10426,-111.111111111111,3,2,1,70,0,0
11208,-111.111111111111,3,2,0,50,0,0
11991,-200,3,2,0,70,0,0
24513,-153.846153846154,3,2,0,60,0,0
36252,-111.111111111111,3,2,0,60,0,0
37034,-111.111111111111,3,2,1,70,0,0
51839,-111.111111111111,3,2,1,5,0,0
51904,-111.111111111111,3,2,1,70,0,0
54969,-111.111111111111,3,2,1,5,0,0
55034,-111.111111111111,3,2,1,70,0,0
58948,-100,3,2,1,85,0,1
77665,-100,3,2,1,5,0,1
77731,-100,3,2,1,85,0,1
81056,-100,3,2,1,5,0,1
81121,-100,3,2,1,85,0,1
81578,-100,3,2,1,5,0,1
81643,-100,3,2,1,85,0,1
83991,-111.111111111111,3,2,1,70,0,0
84187,-111.111111111111,3,2,1,5,0,0
84252,-111.111111111111,3,2,1,70,0,0
90187,-111.111111111111,3,2,1,70,0,0
90252,-100,3,2,1,75,0,0
90448,-100,3,2,1,5,0,0
90513,-100,3,2,1,75,0,0
90969,-100,3,2,1,5,0,0
91034,-100,3,2,1,75,0,0
91817,-71.4285714285714,3,2,1,75,0,1
91882,-100,3,2,1,5,0,1
91948,-100,3,2,1,75,0,1
92209,-83.3333333333333,3,2,1,75,0,1
92274,-83.3333333333333,3,2,1,5,0,1
92339,-100,3,2,1,75,0,1
92534,-71.4285714285714,3,2,1,5,0,1
92600,-80,3,2,1,75,0,1
92795,-80,3,2,1,5,0,1
92861,-80,3,2,1,75,0,1
93056,-86.9565217391304,3,2,1,5,0,1
93121,-100,3,2,1,75,0,1
93317,-100,3,2,1,5,0,1
93382,-90.9090909090909,3,2,1,75,0,1
93448,-90.9090909090909,3,2,1,5,0,1
93513,-90.9090909090909,3,2,1,75,0,1
93578,-90.9090909090909,3,2,1,5,0,1
93643,-90.9090909090909,3,2,1,75,0,1
93708,-90.9090909090909,3,2,1,5,0,1
93773,-90.9090909090909,3,2,1,75,0,1
93839,-90.9090909090909,3,2,1,5,0,1
93904,-90.9090909090909,3,2,1,75,0,1
94100,-71.4285714285714,3,2,1,5,0,1
94165,-90.9090909090909,3,2,1,75,0,1
94230,-66.6666666666667,3,2,1,5,0,1
94295,-90.9090909090909,3,2,1,75,0,1
94361,-66.6666666666667,3,2,1,5,0,1
94426,-90.9090909090909,3,2,1,75,0,1
94491,-66.6666666666667,3,2,1,5,0,1
94556,-66.6666666666667,3,2,1,75,0,1
94621,-66.6666666666667,3,2,1,5,0,1
94687,-100,3,2,1,75,0,1
94882,-100,3,2,1,5,0,1
94948,-68.9655172413793,3,2,1,75,0,1
95013,-100,3,2,1,5,0,1
95078,-100,3,2,1,75,0,1
95339,-83.3333333333333,3,2,1,75,0,1
95404,-83.3333333333333,3,2,1,5,0,1
95470,-71.4285714285714,3,2,1,75,0,1
95665,-71.4285714285714,3,2,1,5,0,1
95730,-80,3,2,1,75,0,1
95926,-80,3,2,1,5,0,1
95991,-86.9565217391304,3,2,1,75,0,1
96187,-86.9565217391304,3,2,1,5,0,1
96251,-100,3,2,1,75,0,1
96448,-100,3,2,1,5,0,1
96513,-55.5555555555556,3,2,1,75,0,1
96578,-55.5555555555556,3,2,1,5,0,1
96643,-55.5555555555556,3,2,1,75,0,1
96708,-55.5555555555556,3,2,1,5,0,1
96774,-90.9090909090909,3,2,1,75,0,1
96969,-90.9090909090909,3,2,1,5,0,1
97034,-90.9090909090909,3,2,1,75,0,1
97230,-100,3,2,1,5,0,1
97295,-100,3,2,1,75,0,1
98078,-66.6666666666667,3,2,1,75,0,1
98143,-100,3,2,1,5,0,1
98208,-100,3,2,1,75,0,1
98469,-83.3333333333333,3,2,1,75,0,1
98534,-83.3333333333333,3,2,1,5,0,1
98600,-71.4285714285714,3,2,1,75,0,1
98795,-71.4285714285714,3,2,1,5,0,1
98861,-80,3,2,1,75,0,1
99056,-80,3,2,1,5,0,1
99122,-86.9565217391304,3,2,1,75,0,1
99317,-86.9565217391304,3,2,1,5,0,1
99383,-100,3,2,1,75,0,1
99578,-100,3,2,1,5,0,1
99643,-100,3,2,1,75,0,1
99708,-100,3,2,1,5,0,1
99774,-100,3,2,1,75,0,1
99839,-100,3,2,1,5,0,1
99905,-100,3,2,1,75,0,1
99969,-100,3,2,1,5,0,1
100035,-100,3,2,1,75,0,1
100100,-100,3,2,1,5,0,1
100166,-100,3,2,1,75,0,1
100361,-71.4285714285714,3,2,1,5,0,1
100426,-90.9090909090909,3,2,1,75,0,1
100491,-90.9090909090909,3,2,1,5,0,1
100556,-90.9090909090909,3,2,1,75,0,1
100621,-90.9090909090909,3,2,1,5,0,1
100686,-90.9090909090909,3,2,1,75,0,1
100752,-90.9090909090909,3,2,1,5,0,1
100817,-90.9090909090909,3,2,1,75,0,1
100882,-90.9090909090909,3,2,1,5,0,1
100948,-100,3,2,1,75,0,1
101143,-100,3,2,1,5,0,1
101208,-66.6666666666667,3,2,1,75,0,1
101274,-100,3,2,1,5,0,1
101339,-100,3,2,1,75,0,1
101600,-71.4285714285714,3,2,1,75,0,1
101665,-71.4285714285714,3,2,1,5,0,1
101730,-71.4285714285714,3,2,1,75,0,1
101926,-71.4285714285714,3,2,1,5,0,1
101991,-200,3,2,1,75,0,1
102708,-166.666666666667,3,2,1,5,0,1
102774,-100,3,2,1,70,0,0
104339,-100,3,2,1,70,0,1
104600,-80,3,2,1,75,0,1
104795,-90.9090909090909,3,2,1,5,0,1
104861,-100,3,2,1,75,0,1
104926,-100,3,2,1,5,0,1
104991,-100,3,2,1,75,0,1
105056,-100,3,2,1,5,0,1
105121,-86.9565217391304,3,2,1,75,0,1
105317,-86.9565217391304,3,2,1,5,0,1
105382,-86.9565217391304,3,2,1,75,0,1
105578,-86.9565217391304,3,2,1,5,0,1
105643,-86.9565217391304,3,2,1,75,0,1
105839,-86.9565217391304,3,2,1,5,0,1
105904,-83.3333333333333,3,2,1,75,0,1
106100,-83.3333333333333,3,2,1,75,0,1
106165,-66.6666666666667,3,2,1,75,0,1
106230,-66.6666666666667,3,2,1,5,0,1
106295,-66.6666666666667,3,2,1,75,0,1
106361,-66.6666666666667,3,2,1,5,0,1
106426,-83.3333333333333,3,2,1,75,0,1
106621,-100,3,2,1,5,0,1
106687,-71.4285714285714,3,2,1,75,0,1
106752,-71.4285714285714,3,2,1,5,0,1
106817,-71.4285714285714,3,2,1,75,0,1
106882,-71.4285714285714,3,2,1,5,0,1
106947,-71.4285714285714,3,2,1,75,0,1
107013,-71.4285714285714,3,2,1,5,0,1
107078,-71.4285714285714,3,2,1,75,0,1
107143,-71.4285714285714,3,2,1,5,0,1
107208,-71.4285714285714,3,2,1,75,0,1
107469,-100,3,2,1,75,0,1
107730,-90.9090909090909,3,2,1,75,0,1
107926,-90.9090909090909,3,2,1,5,0,1
107991,-83.3333333333333,3,2,1,75,0,1
108056,-83.3333333333333,3,2,1,5,0,1
108121,-83.3333333333333,3,2,1,75,0,1
108187,-83.3333333333333,3,2,1,5,0,1
108251,-76.9230769230769,3,2,1,75,0,1
108448,-76.9230769230769,3,2,1,5,0,1
108512,-90.9090909090909,3,2,1,75,0,1
108708,-90.9090909090909,3,2,1,5,0,1
108774,-74.0740740740741,3,2,1,75,0,1
108969,-74.0740740740741,3,2,1,5,0,1
109034,-74.0740740740741,3,2,1,75,0,1
109295,-100,3,2,1,75,0,1
109491,-100,3,2,1,5,0,1
109557,-125,3,2,1,75,0,1
109752,-125,3,2,1,5,0,1
109817,-71.4285714285714,3,2,1,75,0,1
109882,-71.4285714285714,3,2,1,5,0,1
109948,-71.4285714285714,3,2,1,75,0,1
110013,-71.4285714285714,3,2,1,5,0,1
110079,-71.4285714285714,3,2,1,75,0,1
110143,-71.4285714285714,3,2,1,5,0,1
110209,-71.4285714285714,3,2,1,75,0,1
110274,-71.4285714285714,3,2,1,5,0,1
110340,-71.4285714285714,3,2,1,75,0,1
110404,-71.4285714285714,3,2,1,5,0,1
110470,-71.4285714285714,3,2,1,75,0,1
110534,-71.4285714285714,3,2,1,5,0,1
110600,-100,3,2,1,75,0,1
110861,-90.9090909090909,3,2,1,75,0,1
111056,-90.9090909090909,3,2,1,5,0,1
111121,-83.3333333333333,3,2,1,75,0,1
111187,-100,3,2,1,5,0,1
111252,-83.3333333333333,3,2,1,75,0,1
111317,-83.3333333333333,3,2,1,5,0,1
111382,-76.9230769230769,3,2,1,75,0,1
111578,-76.9230769230769,3,2,1,5,0,1
111643,-90.9090909090909,3,2,1,75,0,1
111839,-90.9090909090909,3,2,1,5,0,1
111904,-71.4285714285714,3,2,1,75,0,1
112100,-71.4285714285714,3,2,1,5,0,1
112165,-80,3,2,1,75,0,1
112361,-80,3,2,1,75,0,1
112426,-55.5555555555556,3,2,1,75,0,1
112491,-55.5555555555556,3,2,1,5,0,1
112556,-55.5555555555556,3,2,1,75,0,1
112621,-55.5555555555556,3,2,1,5,0,1
112687,-100,3,2,1,75,0,1
112882,-100,3,2,1,5,0,1
112948,-71.4285714285714,3,2,1,75,0,1
113730,-100,3,2,1,75,0,1
113991,-90.9090909090909,3,2,1,75,0,1
114187,-90.9090909090909,3,2,1,5,0,1
114252,-83.3333333333333,3,2,1,75,0,1
114317,-83.3333333333333,3,2,1,5,0,1
114382,-83.3333333333333,3,2,1,75,0,1
114448,-83.3333333333333,3,2,1,5,0,1
114513,-76.9230769230769,3,2,1,75,0,1
114708,-76.9230769230769,3,2,1,5,0,1
114774,-90.9090909090909,3,2,1,75,0,1
114969,-90.9090909090909,3,2,1,5,0,1
115034,-90.9090909090909,3,2,1,75,0,1
115230,-66.6666666666667,3,2,1,5,0,1
115295,-100,3,2,1,5,0,1
115296,-100,3,2,1,85,0,1
116861,-117.647058823529,3,2,1,60,0,0
123121,-200,3,2,1,60,0,0
123122,-200,3,2,0,60,0,0
126252,-111.111111111111,3,2,1,70,0,0
126448,-111.111111111111,3,2,1,5,0,0
126513,-111.111111111111,3,2,1,70,0,0
127361,-111.111111111111,3,2,1,5,0,0
127426,-111.111111111111,3,2,1,70,0,0
128143,-111.111111111111,3,2,1,5,0,0
128208,-111.111111111111,3,2,1,70,0,0
129382,-100,3,2,1,75,0,1
138969,-100,3,2,1,5,0,1
139034,-100,3,2,1,75,0,1
139752,-100,3,2,1,5,0,1
139817,-100,3,2,1,75,0,1
140665,-100,3,2,1,5,0,1
140730,-100,3,2,1,75,0,1
141904,-111.111111111111,3,2,1,70,0,0
144708,-111.111111111111,3,2,1,5,0,0
144774,-111.111111111111,3,2,1,70,0,0
147904,-133.333333333333,3,2,1,70,0,0
148100,-133.333333333333,3,2,1,70,0,0
148165,-133.333333333333,3,2,1,50,0,0
148295,-133.333333333333,3,2,1,56,0,0
148426,-133.333333333333,3,2,1,62,0,0
148556,-133.333333333333,3,2,1,66,0,0
148687,-133.333333333333,3,2,1,71,0,0
148817,-133.333333333333,3,2,1,66,0,0
148948,-133.333333333333,3,2,1,75,0,0
149795,-133.333333333333,3,2,1,75,0,0
155208,-133.333333333333,3,2,1,5,0,0

[Colours]
Combo1 : 82,179,186
Combo2 : 112,142,173
Combo3 : 115,157,155
Combo4 : 16,154,237
Combo5 : 33,199,222
Combo6 : 73,141,197

[HitObjects]
151,261,3382,6,0,L|158:158,1,94.499997116089,8|0,0:3|0:0,0:0:0:0:
157,167,3578,1,0,0:0:0:0:
157,167,3643,1,2,0:3:0:0:
37,199,3774,1,8,0:3:0:0:
151,261,3904,2,0,L|249:256,1,94.499997116089,0|0,0:0|0:0,0:0:0:0:
269,129,4165,6,0,P|269:225|330:296,1,188.999994232178,6|4,0:0|3:1,0:0:0:0:
398,176,4556,1,0,0:0:0:0:
269,129,4687,2,0,L|169:138,1,94.499997116089,4|2,0:1|0:0,0:0:0:0:
347,46,4948,6,0,L|447:55,1,94.499997116089,8|0,0:0|0:0,0:0:0:0:
269,129,5208,2,0,L|76:147,1,188.999994232178,4|0,0:1|3:0,0:0:0:0:
166,17,5600,1,4,0:1:0:0:
269,129,5730,6,0,P|269:218|201:292,1,188.999994232178,2|0,0:0|3:0,0:0:0:0:
150,177,6121,1,4,0:1:0:0:
269,129,6252,2,0,P|317:134|373:148,1,94.499997116089,2|4,0:0|0:1,0:0:0:0:
150,177,6513,6,0,P|142:132|158:74,1,94.499997116089,8|0,0:0|0:0,0:0:0:0:
292,231,6774,2,0,P|300:276|284:334,1,94.499997116089,0|0,3:0|0:0,0:0:0:0:
175,274,7034,1,2,0:0:0:0:
175,274,7165,1,4,0:1:0:0:
292,231,7295,6,0,L|486:240,1,188.999994232178,2|0,0:0|3:0,0:0:0:0:
390,113,7687,1,2,3:0:0:0:
292,231,7817,2,0,L|299:338,1,94.499997116089,4|4,3:1|0:1,0:0:0:0:
390,113,8078,6,0,L|191:130,1,188.999994232178,8|0,0:0|3:0,0:0:0:0:
65,98,8469,1,4,0:1:0:0:
193,36,8600,2,0,P|205:81|202:128,1,94.499997116089,0|4,0:0|0:1,0:0:0:0:
105,269,8861,6,0,P|190:233|281:275,1,188.999994232178,2|0,0:0|3:0,0:0:0:0:
189,359,9252,1,8,0:0:0:0:
105,269,9382,2,0,B|97:223|97:223|99:170,1,94.499997116089,2|0,0:0|3:0,0:0:0:0:
195,31,9643,5,8,0:0:0:0:
176,137,9774,1,4,0:1:0:0:
217,48,9904,1,2,0:0:0:0:
198,154,10035,1,4,0:1:0:0:
239,65,10165,2,0,L|353:139,1,118.125004506111,4|0,0:1|0:0,0:0:0:0:
338,129,10426,5,0,0:0:0:0:
271,195,10556,1,0,0:0:0:0:
338,262,10687,1,0,0:0:0:0:
271,328,10817,1,0,0:0:0:0:
203,260,10948,1,0,0:0:0:0:
136,326,11078,1,0,0:0:0:0:
69,259,11208,6,0,L|78:159,1,94.499997116089,8|2,3:0|3:0,0:0:0:0:
77,164,11404,1,2,0:0:0:0:
77,164,11469,1,2,3:0:0:0:
144,97,11600,1,8,3:0:0:0:
210,163,11730,1,4,3:0:0:0:
276,95,11861,1,8,3:0:0:0:
342,161,11991,6,0,L|451:153,2,105,2|0|0,0:0|0:0|0:0,0:0:0:0:
267,235,12774,1,8,0:0:0:0:
267,235,13295,5,2,0:0:0:0:
173,187,13556,2,0,P|161:240|182:298,2,105,2|0|0,0:0|0:0|0:0,0:0:0:0:
205,86,14339,1,8,0:0:0:0:
205,86,15121,6,0,P|262:95|322:94,1,105,2|0,0:0|0:0,0:0:0:0:
414,86,15643,1,0,0:0:0:0:
368,180,15904,1,8,0:0:0:0:
368,180,16426,5,2,0:0:0:0:
461,228,16687,2,0,L|449:345,2,105,2|0|0,0:0|0:0|0:0,0:0:0:0:
475,124,17469,1,10,0:0:0:0:
475,124,17991,6,0,L|414:128,1,52.5,0|0,0:0|0:0,0:0:0:0:
365,80,18252,2,0,P|380:135|366:184,2,105,2|0|0,0:0|0:0|0:0,0:0:0:0:
278,132,19034,2,0,P|263:187|277:236,2,105,10|0|0,0:0|0:0|0:0,0:0:0:0:
306,30,19817,5,2,0:0:0:0:
200,30,20078,1,0,0:0:0:0:
125,104,20339,1,0,0:0:0:0:
312,18,20600,5,8,0:0:0:0:
198,18,20861,1,2,0:0:0:0:
118,97,21122,1,0,0:0:0:0:
125,208,21382,6,0,P|173:200|237:204,2,105,2|0|0,0:0|0:0|0:0,0:0:0:0:
27,249,22165,1,8,0:0:0:0:
27,249,22426,1,0,0:0:0:0:
27,249,22948,6,0,B|18:298|18:298|18:364,2,105,2|0|2,0:0|0:0|0:0,0:0:0:0:
55,147,23730,1,12,0:3:0:0:
55,147,23991,1,8,0:3:0:0:
55,147,24513,6,0,P|122:147|186:103,2,136.499993751526,2|0|0,0:0|0:0|0:0,0:0:0:0:
86,28,25295,1,8,0:0:0:0:
86,28,25817,5,2,0:0:0:0:
180,111,26078,2,0,L|321:95,2,136.499993751526,2|0|0,0:0|0:0|0:0,0:0:0:0:
57,129,26861,1,8,0:0:0:0:
57,129,27643,6,0,B|52:187|52:187|60:215|60:215|54:271,2,136.499993751526,2|0|2,0:0|0:0|0:0,0:0:0:0:
179,147,28426,2,0,B|174:205|174:205|182:233|182:233|176:289,2,136.499993751526,8|0|0,0:0|0:0|0:0,0:0:0:0:
256,51,29208,5,2,0:0:0:0:
377,69,29469,1,0,0:0:0:0:
463,155,29730,1,0,0:0:0:0:
463,277,29991,1,8,0:0:0:0:
463,277,30774,6,0,L|311:284,1,136.499993751526,2|0,0:0|0:0,0:0:0:0:
203,289,31295,1,0,0:0:0:0:
326,283,31556,1,8,0:0:0:0:
253,183,31817,2,0,P|233:117|265:40,1,136.499993751526,0|0,0:0|0:0,0:0:0:0:
357,119,32339,1,2,0:0:0:0:
357,119,33121,6,0,P|376:183|356:247,2,136.499993751526,8|0|0,0:0|0:0|0:0,0:0:0:0:
253,183,33904,1,2,0:0:0:0:
253,183,34687,6,0,L|116:195,2,136.499993751526,8|0|0,0:0|0:0|0:0,0:0:0:0:
357,119,35469,1,2,0:0:0:0:
357,119,36252,6,0,L|361:219,1,94.499997116089,8|0,3:0|0:0,0:0:0:0:
360,213,36448,1,0,0:0:0:0:
360,213,36513,1,8,0:0:0:0:
276,168,36643,1,8,0:0:0:0:
208,235,36774,1,10,0:0:0:0:
131,179,36904,1,10,0:0:0:0:
357,119,37034,6,0,L|469:123,1,94.499997116089,6|0,0:0|0:0,0:0:0:0:
302,238,37295,2,0,L|190:234,1,94.499997116089,0|0,3:0|3:0,0:0:0:0:
82,226,37556,1,4,0:1:0:0:
82,226,37687,1,2,0:0:0:0:
209,142,37817,6,0,P|216:187|206:239,1,94.499997116089,8|0,0:0|3:0,0:0:0:0:
80,318,38078,2,0,P|73:273|83:221,1,94.499997116089,0|0,3:0|3:0,0:0:0:0:
121,67,38339,1,4,0:1:0:0:
20,134,38469,1,4,0:1:0:0:
209,142,38600,6,0,L|318:148,1,94.499997116089,2|0,0:0|0:0,0:0:0:0:
403,304,38861,2,0,L|294:310,1,94.499997116089,4|0,0:1|0:0,0:0:0:0:
412,154,39121,2,0,L|521:160,1,94.499997116089,4|0,0:1|3:0,0:0:0:0:
280,234,39382,6,0,P|280:186|307:143,1,94.499997116089,8|0,0:0|0:0,0:0:0:0:
489,280,39643,2,0,P|489:328|462:371,1,94.499997116089,0|2,3:0|0:0,0:0:0:0:
412,154,39904,1,2,0:0:0:0:
403,304,40034,1,4,0:1:0:0:
303,147,40165,6,0,P|257:135|203:153,1,94.499997116089,2|0,0:0|3:0,0:0:0:0:
403,304,40426,2,0,P|449:316|503:298,1,94.499997116089,0|0,3:0|3:0,0:0:0:0:
257,225,40687,2,0,L|269:329,1,94.499997116089,4|2,0:1|0:0,0:0:0:0:
95,219,40948,6,0,L|113:29,1,188.999994232178,8|0,0:0|3:0,0:0:0:0:
221,137,41339,1,0,0:0:0:0:
95,219,41469,2,0,P|56:202|22:164,1,94.499997116089,4|2,0:1|0:0,0:0:0:0:
221,137,41730,6,0,B|265:137|265:137|312:163,1,94.499997116089,2|0,0:0|0:0,0:0:0:0:
219,316,41991,2,0,B|219:272|219:272|245:225,1,94.499997116089,4|0,0:1|0:0,0:0:0:0:
398,318,42252,2,0,B|354:318|354:318|307:292,1,94.499997116089,0|2,3:0|3:2,0:0:0:0:
400,139,42513,6,0,B|400:183|400:183|374:230,1,94.499997116089,8|0,0:0|0:0,0:0:0:0:
323,58,42774,2,0,P|396:25|488:73,1,188.999994232178,0|2,3:0|0:0,0:0:0:0:
400,139,43165,1,0,0:0:0:0:
237,24,43295,6,0,L|244:130,1,94.499997116089,2|0,0:0|0:0,0:0:0:0:
406,233,43556,2,0,L|399:127,1,94.499997116089,0|0,3:0|3:0,0:0:0:0:
366,314,43817,2,0,P|408:323|463:303,1,94.499997116089,4|2,0:1|0:0,0:0:0:0:
299,198,44078,6,0,L|105:215,1,188.999994232178,8|0,3:2|3:0,0:0:0:0:
22,301,44469,1,0,0:0:0:0:
53,127,44600,1,4,0:1:0:0:
110,215,44730,1,4,0:1:0:0:
151,51,44861,6,0,P|198:43|244:51,1,94.499997116089,2|0,0:0|0:0,0:0:0:0:
392,197,45121,2,0,P|345:206|299:198,1,94.499997116089,4|2,3:1|0:0,0:0:0:0:
345,81,45382,1,4,0:1:0:0:
345,81,45513,1,2,3:2:0:0:
392,197,45643,6,0,L|387:301,1,94.499997116089,8|0,0:0|0:0,0:0:0:0:
206,194,45904,2,0,L|300:198,1,94.499997116089,0|0,3:0|0:0,0:0:0:0:
95,307,46165,2,0,L|189:302,1,94.499997116089,2|4,0:0|0:1,0:0:0:0:
27,246,46426,6,0,P|5:296|13:347,1,94.499997116089,2|0,0:0|0:0,0:0:0:0:
190,302,46687,2,0,P|191:255|171:213,1,94.499997116089,4|0,3:1|3:0,0:0:0:0:
74,132,46948,1,4,0:1:0:0:
105,274,47078,1,2,0:0:0:0:
236,126,47208,6,0,P|283:115|334:130,1,94.499997116089,8|0,0:0|3:0,0:0:0:0:
279,308,47469,2,0,P|267:262|279:216,1,94.499997116089,0|2,3:0|0:0,0:0:0:0:
461,265,47730,2,0,P|415:276|369:264,1,94.499997116089,4|0,3:1|0:0,0:0:0:0:
423,79,47991,6,0,L|416:174,1,94.499997116089,6|0,0:0|0:0,0:0:0:0:
401,357,48252,1,0,3:0:0:0:
491,193,48382,1,8,0:0:0:0:
337,259,48513,1,2,0:0:0:0:
319,267,48774,5,12,0:0:0:0:
473,201,49034,1,8,0:0:0:0:
473,201,49295,1,2,0:0:0:0:
473,201,49556,6,0,B|473:152|473:152|452:93,1,94.499997116089,6|0,0:0|0:0,0:0:0:0:
319,267,49817,2,0,B|319:316|319:316|340:375,1,94.499997116089,0|0,3:0|3:0,0:0:0:0:
380,202,50078,2,0,P|336:179|278:187,1,94.499997116089,4|2,0:1|0:0,0:0:0:0:
193,294,50339,5,8,0:0:0:0:
319,267,50469,1,0,3:0:0:0:
136,238,50600,2,0,P|117:274|122:329,1,94.499997116089,0|0,3:0|3:0,0:0:0:0:
390,300,50861,2,0,P|395:253|374:211,1,94.499997116089,4|0,0:1|0:0,0:0:0:0:
307,64,51121,6,0,L|424:72,1,94.499997116089,2|0,0:0|0:0,0:0:0:0:
199,173,51382,2,0,L|316:165,1,94.499997116089,0|2,3:0|0:0,0:0:0:0:
97,53,51643,2,0,L|214:61,1,94.499997116089,0|2,3:0|0:0,0:0:0:0:
41,122,51904,6,0,P|11:80|9:28,1,94.499997116089,8|0,0:0|0:0,0:0:0:0:
199,173,52165,2,0,P|193:219|164:256,1,94.499997116089,0|0,3:0|0:0,0:0:0:0:
69,337,52426,1,2,0:0:0:0:
99,181,52556,1,4,0:1:0:0:
164,344,52687,6,0,L|62:337,1,94.499997116089,6|0,0:0|3:0,0:0:0:0:
273,202,52948,2,0,L|266:296,1,94.499997116089,4|0,0:1|3:0,0:0:0:0:
114,102,53208,2,0,L|208:108,1,94.499997116089,4|2,0:1|0:0,0:0:0:0:
378,121,53469,5,8,0:0:0:0:
256,31,53600,1,0,0:0:0:0:
273,202,53730,2,0,P|315:215|372:215,1,94.499997116089,0|0,3:0|3:0,0:0:0:0:
256,31,53991,2,0,P|208:31|163:45,1,94.499997116089,4|0,0:1|3:0,0:0:0:0:
136,178,54252,6,0,P|136:73|75:27,1,188.999994232178,2|0,0:0|3:0,0:0:0:0:
76,229,54643,1,2,0:0:0:0:
76,229,54774,2,0,P|117:253|170:249,1,94.499997116089,0|0,0:0|0:0,0:0:0:0:
325,161,55034,6,0,L|137:178,1,188.999994232178,8|0,0:0|0:0,0:0:0:0:
244,301,55426,1,0,0:0:0:0:
325,161,55556,2,0,P|324:111|293:64,1,94.499997116089,2|0,0:0|0:0,0:0:0:0:
244,301,55817,6,0,L|432:284,1,188.999994232178,6|4,0:0|3:1,0:0:0:0:
325,161,56208,1,2,0:0:0:0:
244,301,56339,1,8,0:0:0:0:
335,149,56469,1,4,0:1:0:0:
234,313,56600,6,0,B|190:322|162:311|162:311|134:328|134:328|96:311|48:330,1,188.999994232178,6|4,0:0|3:1,0:0:0:0:
200,203,56991,1,2,0:0:0:0:
35,341,57121,1,8,0:0:0:0:
213,192,57252,1,2,3:2:0:0:
35,43,57382,6,0,B|21:120|39:175|39:175|47:137|78:117,1,188.999994232178,6|2,0:0|0:0,0:0:0:0:
203,48,57774,1,8,0:0:0:0:
128,191,57904,1,2,0:0:0:0:
210,39,58034,1,4,3:1:0:0:
163,278,58165,6,0,B|117:277|117:277|71:261,1,94.499997116089,6|4,0:0|0:1,0:0:0:0:
303,141,58426,2,0,B|257:141|257:141|211:157,1,94.499997116089,8|0,0:0|3:0,0:0:0:0:
443,278,58687,2,0,B|397:277|397:277|351:261,1,94.499997116089,2|0,0:0|3:0,0:0:0:0:
215,52,58948,6,0,L|211:165,1,105,6|0,0:0|0:0,0:0:0:0:
405,191,59208,2,0,L|409:78,1,105,4|0,0:1|3:0,0:0:0:0:
351,261,59469,2,0,P|399:281|453:264,1,105,4|2,0:1|0:0,0:0:0:0:
489,76,59730,5,8,0:0:0:0:
405,191,59861,1,0,3:0:0:0:
353,27,59991,2,0,B|304:29|304:29|296:35|296:35|245:37,1,105,4|0,0:1|3:0,0:0:0:0:
302,201,60252,2,0,B|347:199|347:199|355:193|355:193|404:191,1,105,0|0,3:0|3:0,0:0:0:0:
240,143,60513,6,0,P|218:193|238:256,1,105,2|0,0:0|0:0,0:0:0:0:
362,335,60774,1,0,3:0:0:0:
302,201,60904,1,0,3:0:0:0:
242,335,61034,1,4,3:1:0:0:
302,201,61164,1,0,3:0:0:0:
372,351,61295,6,0,P|463:351|500:247,1,210,8|2,0:0|0:0,0:0:0:0:
470,124,61687,1,0,0:0:0:0:
416,274,61817,1,2,0:0:0:0:
397,56,61948,1,4,0:1:0:0:
325,300,62078,6,0,P|303:257|303:197,1,105,2|0,0:0|0:0,0:0:0:0:
202,42,62339,2,0,P|224:85|224:145,1,105,4|0,0:1|3:0,0:0:0:0:
15,137,62600,2,0,P|61:114|114:114,1,105,4|0,3:1|3:0,0:0:0:0:
302,201,62861,5,8,0:0:0:0:
136,254,62991,1,4,0:1:0:0:
303,304,63121,2,0,B|312:252|312:252|302:200,1,105,4|0,3:1|3:0,0:0:0:0:
136,254,63382,1,2,0:0:0:0:
303,304,63513,1,0,3:0:0:0:
100,184,63643,6,0,P|68:215|61:276,1,105,2|0,0:0|0:0,0:0:0:0:
303,304,63904,1,0,3:0:0:0:
136,254,64035,1,0,3:0:0:0:
303,204,64165,1,0,3:0:0:0:
136,254,64296,1,2,0:0:0:0:
369,246,64426,6,0,P|381:199|356:146,1,105,8|0,0:0|3:0,0:0:0:0:
198,214,64687,2,0,L|306:203,1,105,4|0,3:1|0:0,0:0:0:0:
31,243,64948,2,0,L|139:254,1,105,2|4,0:0|0:1,0:0:0:0:
303,204,65208,6,0,L|296:92,1,105,2|0,0:0|3:0,0:0:0:0:
209,224,65469,2,0,L|202:112,1,105,4|0,0:1|3:0,0:0:0:0:
115,244,65730,2,0,L|108:132,1,105,4|2,3:1|3:2,0:0:0:0:
310,309,65991,6,0,L|303:197,1,105,8|0,0:0|3:0,0:0:0:0:
216,329,66252,2,0,L|209:217,1,105,4|0,3:1|3:0,0:0:0:0:
122,349,66513,2,0,L|115:237,1,105,4|0,0:1|0:0,0:0:0:0:
298,101,66774,6,0,L|304:205,1,105,2|0,0:0|0:0,0:0:0:0:
204,121,67035,2,0,L|210:225,1,105,4|0,3:1|0:0,0:0:0:0:
109,140,67296,2,0,L|115:244,1,105,4|0,3:1|3:0,0:0:0:0:
227,337,67556,6,0,L|10:358,1,210,8|0,0:0|3:0,0:0:0:0:
115,244,67948,1,2,0:0:0:0:
227,337,68078,1,2,0:0:0:0:
18,357,68208,1,4,0:1:0:0:
210,226,68339,6,0,B|249:237|283:226|283:226|310:243|340:248|340:248|372:238|420:248,1,210,6|0,0:0|3:0,0:0:0:0:
247,117,68730,1,2,0:0:0:0:
227,337,68861,1,8,0:0:0:0:
142,175,68991,1,2,0:0:0:0:
331,291,69121,6,0,B|330:153|330:153|314:190|271:204,1,210,6|2,0:0|0:0,0:0:0:0:
127,278,69513,1,2,0:0:0:0:
247,117,69643,1,8,0:0:0:0:
227,337,69774,1,2,0:0:0:0:
169,131,69904,6,0,P|190:62|312:73,1,210,6|0,0:0|3:0,0:0:0:0:
393,249,70295,1,8,0:0:0:0:
247,117,70426,1,2,0:0:0:0:
470,140,70556,1,4,0:1:0:0:
211,258,70687,6,0,L|94:249,1,105,6|0,0:0|3:0,0:0:0:0:
352,109,70948,2,0,L|235:118,1,105,12|0,0:0|3:0,0:0:0:0:
393,249,71208,1,2,0:0:0:0:
470,140,71339,1,0,3:0:0:0:
339,320,71469,6,0,P|308:279|305:221,1,105,6|0,0:0|0:0,0:0:0:0:
435,47,71730,2,0,P|464:82|464:155,1,105,4|0,3:1|3:0,0:0:0:0:
232,176,71991,2,0,P|273:144|324:141,1,105,4|2,0:1|0:0,0:0:0:0:
445,321,72252,6,0,L|339:321,1,105,8|2,0:0|0:0,0:0:0:0:
127,176,72513,2,0,L|233:176,1,105,4|0,3:1|3:0,0:0:0:0:
393,209,72774,1,2,3:0:0:0:
393,209,72904,1,0,0:0:0:0:
209,275,73034,6,0,P|209:222|237:171,1,105,2|0,0:0|0:0,0:0:0:0:
362,75,73295,1,0,3:0:0:0:
308,246,73426,1,0,3:0:0:0:
254,75,73556,1,4,3:1:0:0:
308,246,73687,1,0,3:0:0:0:
362,75,73817,6,0,P|447:75|486:188,1,210,8|2,0:0|0:0,0:0:0:0:
403,320,74208,1,0,0:1:0:0:
404,154,74339,1,2,0:0:0:0:
493,345,74469,1,4,0:1:0:0:
308,246,74600,6,0,L|201:257,1,105,2|0,0:0|0:0,0:0:0:0:
299,143,74861,2,0,L|403:153,1,105,4|0,3:1|3:0,0:0:0:0:
204,257,75121,2,0,L|97:268,1,105,4|0,0:1|0:0,0:0:0:0:
273,44,75382,6,0,P|296:95|296:158,1,105,8|4,0:0|0:1,0:0:0:0:
229,355,75643,2,0,P|207:308|204:256,1,105,4|4,3:1|0:1,0:0:0:0:
204,106,75904,1,4,3:1:0:0:
307,285,76034,1,4,0:1:0:0:
279,87,76165,6,0,P|248:41|196:27,1,105,2|0,0:0|0:0,0:0:0:0:
58,173,76426,1,0,3:0:0:0:
204,106,76556,1,0,0:0:0:0:
58,39,76687,1,2,3:0:0:0:
204,106,76817,1,2,0:0:0:0:
58,173,76948,6,0,P|58:231|88:273,1,105,8|0,0:0|0:0,0:0:0:0:
247,188,77208,2,0,B|193:188|193:188|144:203,1,105,4|0,3:1|0:0,0:0:0:0:
331,324,77469,2,0,B|277:324|277:324|228:309,1,105,2|0,0:0|0:0,0:0:0:0:
419,270,77730,6,0,P|433:318|422:372,1,105,2|0,0:0|0:0,0:0:0:0:
364,169,77991,2,0,P|412:155|466:166,1,105,4|0,3:1|3:0,0:0:0:0:
263,224,78252,2,0,P|249:176|260:122,1,105,4|2,0:1|0:0,0:0:0:0:
472,61,78513,6,0,L|465:174,1,105,8|0,0:0|3:0,0:0:0:0:
358,274,78774,2,0,L|364:169,1,105,4|0,0:1|0:0,0:0:0:0:
257,61,79034,2,0,L|250:174,1,105,0|4,3:0|0:1,0:0:0:0:
335,360,79295,6,0,P|384:360|431:326,1,105,2|0,0:0|0:0,0:0:0:0:
251,165,79556,2,0,P|202:165|155:199,1,105,4|0,3:1|0:0,0:0:0:0:
336,189,79817,2,0,P|336:140|302:93,1,105,0|0,3:0|0:0,0:0:0:0:
52,97,80078,6,0,L|255:166,1,210,8|4,0:0|3:1,0:0:0:0:
427,113,80469,1,2,0:0:0:0:
184,108,80600,1,2,0:0:0:0:
312,286,80730,1,4,3:1:0:0:
150,23,80861,6,0,P|101:75|145:192,1,210,6|0,0:0|3:0,0:0:0:0:
312,286,81252,1,2,0:0:0:0:
184,108,81382,1,8,0:0:0:0:
202,334,81513,1,0,0:0:0:0:
305,123,81643,6,0,B|375:147|436:121|436:121|398:140|390:184,1,210,6|2,0:0|0:0,0:0:0:0:
413,307,82034,1,2,0:0:0:0:
372,32,82165,1,8,0:0:0:0:
479,199,82295,1,4,0:1:0:0:
268,42,82426,6,0,P|220:93|280:209,1,210,6|0,0:0|3:0,0:0:0:0:
456,48,82817,1,8,0:0:0:0:
305,123,82948,1,2,0:0:0:0:
479,199,83078,1,0,0:0:0:0:
373,37,83208,6,0,L|264:42,1,105,12|0,0:0|0:0,0:0:0:0:
374,204,83469,2,0,L|483:199,1,105,12|0,0:0|0:0,0:0:0:0:
305,123,83730,1,2,0:0:0:0:
305,123,83861,1,4,3:1:0:0:
281,320,83991,6,0,P|201:354|109:321,1,188.999994232178,6|4,0:0|0:1,0:0:0:0:
194,215,84382,1,0,3:0:0:0:
34,233,84513,2,0,B|34:184|34:184|50:135,1,94.499997116089,4|2,0:1|0:0,0:0:0:0:
208,123,84774,6,0,B|208:172|208:172|192:221,1,94.499997116089,2|0,0:0|3:0,0:0:0:0:
134,72,85034,2,0,P|185:36|291:88,1,188.999994232178,4|0,3:1|3:0,0:0:0:0:
343,215,85426,1,4,0:1:0:0:
208,123,85556,6,0,P|206:220|209:322,1,188.999994232178,2|0,0:0|3:0,0:0:0:0:
343,215,85948,1,0,0:0:0:0:
208,123,86078,2,0,L|111:137,1,94.499997116089,4|2,0:1|0:0,0:0:0:0:
343,215,86339,6,0,P|357:173|357:120,1,94.499997116089,8|0,0:0|3:0,0:0:0:0:
223,221,86600,2,0,P|209:263|209:316,1,94.499997116089,4|0,3:1|3:0,0:0:0:0:
352,353,86861,1,2,0:0:0:0:
298,282,86991,1,4,0:1:0:0:
474,286,87121,6,0,B|475:165|475:165|455:205|401:220,1,188.999994232178,2|0,0:0|3:0,0:0:0:0:
279,119,87513,1,0,3:0:0:0:
362,39,87643,2,0,P|385:79|393:126,1,94.499997116089,4|2,0:1|0:0,0:0:0:0:
207,266,87904,6,0,P|207:175|279:119,1,188.999994232178,2|0,0:0|3:0,0:0:0:0:
298,219,88295,1,4,3:1:0:0:
208,267,88426,2,0,P|161:267|108:244,1,94.499997116089,4|4,0:1|3:1,0:0:0:0:
47,87,88687,6,0,P|137:88|179:168,1,188.999994232178,2|2,0:0|3:2,0:0:0:0:
248,338,89078,1,8,0:0:0:0:
270,151,89208,2,0,P|223:150|179:167,1,94.499997116089,2|0,0:0|3:0,0:0:0:0:
376,254,89469,5,12,0:0:0:0:
376,254,89600,1,4,0:1:0:0:
270,151,89730,1,2,0:0:0:0:
248,338,89861,1,4,0:1:0:0:
353,116,89991,2,0,P|319:77|228:71,1,141.749995674133,4|0,3:1|0:0,0:0:0:0:
270,151,90252,6,0,B|284:205|274:261|274:261|266:235|247:220,1,157.5,6|0,0:0|0:0,0:0:0:0:
189,175,90513,1,2,0:0:0:0:
188,284,90643,1,8,0:0:0:0:
141,103,90774,2,0,P|217:96|270:151,1,157.5,2|0,0:0|0:0,0:0:0:0:
189,175,91034,5,8,0:0:0:0:
351,201,91165,1,8,0:0:0:0:
295,56,91295,1,8,0:0:0:0:
270,151,91426,1,8,0:0:0:0:
272,166,91491,1,8,0:0:0:0:
274,181,91556,1,8,0:0:0:0:
394,109,91687,1,8,0:0:0:0:
418,279,91817,6,0,B|314:279|314:279|352:239,1,146.999995513916,6|0,0:0|0:0,0:0:0:0:
344,248,92208,1,0,0:0:0:0:
210,212,92339,2,0,L|221:327,1,105,2|0,0:0|0:0,0:0:0:0:
268,160,92600,6,0,P|205:134|132:220,1,196.875,8|0,0:0|0:0,0:0:0:0:
146,350,92861,2,0,P|225:304|205:207,1,196.875,2|0,0:0|0:0,0:0:0:0:
112,64,93121,2,0,L|134:236,1,157.5,0|0,3:0|0:0,0:0:0:0:
254,113,93382,6,0,P|197:105|139:131,1,115.50000352478,2|4,0:0|0:1,0:0:0:0:
29,204,93643,1,0,0:0:0:0:
29,204,93774,1,4,0:1:0:0:
211,212,93904,2,0,B|263:212|293:189|293:189|324:210|396:210,1,173.250005287171,0|0,3:0|0:0,0:0:0:0:
411,107,94165,6,0,P|377:155|377:213,1,115.50000352478,8|4,0:0|0:1,0:0:0:0:
177,315,94426,2,0,P|210:269|210:208,1,115.50000352478,0|4,0:0|0:1,0:0:0:0:
113,83,94687,2,0,L|125:241,1,157.5,2|0,0:0|0:0,0:0:0:0:
177,315,94948,6,0,B|232:328|281:315|281:315|263:333|254:358,1,152.250004646301,2|0,0:0|0:0,0:0:0:0:
255,354,95339,1,0,0:0:0:0:
277,216,95469,1,2,0:0:0:0:
176,315,95600,1,0,0:0:0:0:
357,256,95730,6,0,P|357:178|257:127,1,196.875,8|0,0:0|0:0,0:0:0:0:
98,213,95991,2,0,B|189:241|183:188|289:220,1,181.125003454685,2|0,0:0|0:0,0:0:0:0:
184,53,96252,2,0,B|147:20|147:20|149:128,1,157.5,0|0,3:0|0:0,0:0:0:0:
98,213,96513,5,2,1:0:0:0:
277,217,96643,1,2,0:1:0:0:
165,322,96774,2,0,P|229:306|277:215,1,173.250005287171,2|0,0:1|0:0,0:0:0:0:
210,107,97034,2,0,P|130:134|97:212,1,173.250005287171,2|0,0:0|0:0,0:0:0:0:
165,322,97295,6,0,L|289:330,1,105,8|0,0:0|0:0,0:0:0:0:
382,223,97556,2,0,L|258:215,1,105,4|0,3:1|3:0,0:0:0:0:
460,342,97817,1,2,0:0:0:0:
460,342,97948,1,0,3:0:0:0:
421,160,98078,6,0,B|377:123|377:123|382:223,1,157.500006008148,2|0,0:0|0:0,0:0:0:0:
381,223,98469,1,0,0:0:0:0:
460,342,98600,1,2,0:0:0:0:
421,160,98730,1,0,0:0:0:0:
334,339,98861,6,0,B|293:348|259:333|259:333|230:353|230:353|194:337|140:350,1,196.875,8|0,0:0|0:0,0:0:0:0:
107,261,99121,2,0,B|154:216|154:216|146:347,1,196.875,2|0,0:0|0:0,0:0:0:0:
94,153,99382,2,0,P|151:126|240:197,1,181.125003454685,0|0,3:0|0:0,0:0:0:0:
148,321,99643,6,0,L|154:213,1,105,2|4,0:0|0:1,0:0:0:0:
243,85,99904,2,0,L|238:189,1,105,0|4,0:0|0:1,0:0:0:0:
444,201,100165,2,0,P|400:144|310:144,1,157.5,2|0,0:0|0:0,0:0:0:0:
327,328,100426,6,0,P|356:279|356:222,1,115.50000352478,8|4,0:0|0:1,0:0:0:0:
152,224,100687,2,0,P|201:253|259:253,1,115.50000352478,0|4,0:0|0:1,0:0:0:0:
320,140,100948,1,2,0:0:0:0:
229,155,101078,1,0,0:0:0:0:
356,222,101208,6,0,B|412:242|467:222|467:222|431:193|408:207,1,157.500006008148,2|0,0:0|0:0,0:0:0:0:
428,202,101600,1,0,0:0:0:0:
484,346,101730,1,2,0:0:0:0:
428,202,101861,1,0,0:0:0:0:
372,346,101991,6,0,P|273:325|376:314,1,288.75,8|0,0:0|0:0,0:0:0:0:
326,324,102774,6,0,P|319:272|330:216,1,105,6|4,0:0|0:1,0:0:0:0:
339,85,103034,1,4,3:1:0:0:
394,162,103165,1,8,0:0:0:0:
450,30,103295,1,2,0:0:0:0:
450,30,103361,1,4,0:1:0:0:
450,30,103426,1,4,3:1:0:0:
394,162,103556,6,0,P|438:162|497:134,1,105,12|0,0:0|0:0,0:0:0:0:
339,85,103817,2,0,P|295:85|236:113,1,105,8|0,0:0|0:0,0:0:0:0:
115,173,104078,1,2,0:0:0:0:
115,173,104208,1,0,0:0:0:0:
313,197,104339,5,6,0:0:0:0:
313,197,104600,2,0,B|306:328|306:328|318:289|348:273,1,196.875,0|0,0:0|0:0,0:0:0:0:
395,349,104861,2,0,P|426:311|433:255,1,105,0|0,0:0|0:0,0:0:0:0:
334,83,105121,6,0,B|204:91|204:91|245:130,1,181.125003454685,8|0,0:0|0:0,0:0:0:0:
148,169,105382,2,0,B|278:161|278:161|237:122,1,181.125003454685,2|0,0:0|0:0,0:0:0:0:
122,95,105643,2,0,P|71:152|114:241,1,181.125003454685,0|0,3:0|0:0,0:0:0:0:
166,357,105904,6,0,L|147:163,1,188.999994232178,2|0,0:0|0:0,0:0:0:0:
266,269,106165,2,0,P|230:283|172:282,1,78.7500030040742,2|0,1:0|0:0,0:0:0:0:
34,255,106295,2,0,P|70:241|128:242,1,78.7500030040742,2|0,0:1|0:0,0:0:0:0:
321,196,106426,2,0,P|354:253|340:325,1,125.999996154785,2|0,0:0|0:0,0:0:0:0:
225,179,106687,5,8,0:0:0:0:
266,269,106817,1,4,0:1:0:0:
280,106,106948,1,0,0:0:0:0:
321,196,107078,1,4,0:1:0:0:
335,33,107208,1,2,0:0:0:0:
225,179,107339,1,4,0:1:0:0:
439,153,107469,5,2,0:0:0:0:
439,153,107730,2,0,P|475:219|442:309,1,173.250005287171,0|0,0:0|0:0,0:0:0:0:
253,238,107991,2,0,P|313:221|375:233,1,125.999996154785,0|0,0:0|0:0,0:0:0:0:
253,61,108252,6,0,B|289:105|289:105|290:198|290:198|252:238,1,204.749990627289,8|0,0:0|0:0,0:0:0:0:
75,273,108513,2,0,B|127:299|178:264|178:264|194:299|230:314,1,173.250005287171,2|0,0:0|0:0,0:0:0:0:
121,192,108774,2,0,B|91:119|126:48|126:48|126:87|147:130,1,212.6250008111,0|0,3:0|0:0,0:0:0:0:
209,157,109034,5,2,0:0:0:0:
253,61,109165,1,2,0:1:0:0:
324,232,109295,2,0,B|376:221|376:221|399:231|399:231|423:220|423:220|477:237,1,157.5,2|0,0:0|0:0,0:0:0:0:
278,296,109556,2,0,P|246:242|293:158,1,157.5,2|0,0:0|0:0,0:0:0:0:
324,232,109817,5,8,0:0:0:0:
318,366,109948,1,4,0:1:0:0:
284,162,110077,1,0,3:0:0:0:
278,296,110208,1,4,0:1:0:0:
244,92,110339,1,2,0:0:0:0:
238,226,110469,1,4,0:1:0:0:
319,36,110600,5,2,0:0:0:0:
319,36,110861,2,0,B|434:36|434:36|393:45|379:74,1,173.250005287171,0|0,0:0|0:0,0:0:0:0:
401,219,111121,2,0,P|445:176|445:115,1,125.999996154785,0|0,0:0|0:0,0:0:0:0:
171,139,111382,6,0,B|270:169|270:112|373:146,1,204.749990627289,8|0,0:0|0:0,0:0:0:0:
345,312,111643,2,0,B|308:345|308:345|315:211,1,173.250005287171,2|0,0:0|0:0,0:0:0:0:
195,54,111904,2,0,P|114:69|104:197,1,220.499993270874,0|0,3:0|0:0,0:0:0:0:
176,335,112165,6,0,L|171:139,1,196.875,2|0,0:0|0:0,0:0:0:0:
265,127,112426,2,0,L|169:139,1,94.499997116089,2|0,1:0|0:0,0:0:0:0:
83,348,112556,2,0,L|179:336,1,94.499997116089,2|0,0:1|0:0,0:0:0:0:
334,164,112687,2,0,P|337:97|303:58,1,105,2|0,0:0|0:0,0:0:0:0:
98,190,112948,5,8,0:0:0:0:
265,127,113078,1,0,3:0:0:0:
98,190,113208,1,2,0:0:0:0:
278,218,113339,1,0,3:0:0:0:
98,190,113469,1,2,0:0:0:0:
334,164,113600,1,4,0:1:0:0:
50,33,113730,5,2,0:0:0:0:
50,33,113991,2,0,P|50:109|102:194,1,173.250005287171,0|0,0:0|0:0,0:0:0:0:
165,255,114252,1,0,0:0:0:0:
193,72,114382,1,0,0:0:0:0:
256,357,114513,6,0,B|203:335|158:356|158:356|184:308|164:251,1,204.749990627289,8|0,0:0|0:0,0:0:0:0:
109,137,114774,2,0,B|73:196|73:196|73:300,1,173.250005287171,2|0,0:0|0:0,0:0:0:0:
256,357,115034,2,0,B|292:298|292:298|292:194,1,173.250005287171,0|0,3:0|0:0,0:0:0:0:
242,120,115295,6,0,P|300:104|352:127,1,105,6|4,0:0|3:1,0:0:0:0:
371,231,115556,1,2,0:0:0:0:
292,194,115687,1,8,0:0:0:0:
446,144,115817,1,2,3:2:0:0:
446,144,115882,1,0,0:0:0:0:
446,144,115948,1,4,3:1:0:0:
232,16,116078,6,0,L|243:135,1,105,8|8,0:0|0:0,0:0:0:0:
292,194,116339,1,8,0:0:0:0:
321,45,116469,1,8,0:0:0:0:
321,45,116534,1,8,0:0:0:0:
321,45,116600,1,8,0:0:0:0:
371,231,116730,1,8,0:0:0:0:
241,121,116861,5,6,0:0:0:0:
241,121,123121,6,0,L|123:134,2,105,4|2|2,0:0|0:0|0:0,0:0:0:0:
326,189,123904,2,0,L|430:200,2,105,0|2|2,0:0|0:0|0:0,0:0:0:0:
216,98,124687,2,0,L|98:111,1,105,2|2,0:0|0:0,0:0:0:0:
44,189,125208,1,0,0:0:0:0:
68,26,125469,1,2,0:0:0:0:
68,26,125991,5,2,0:0:0:0:
44,189,126121,1,0,0:0:0:0:
216,98,126252,6,0,L|207:297,1,188.999994232178,6|0,0:0|3:0,0:0:0:0:
118,348,126643,1,2,0:0:0:0:
334,204,126774,2,0,P|291:192|239:199,1,94.499997116089,8|2,0:0|0:0,0:0:0:0:
378,285,127034,6,0,P|422:227|375:122,1,188.999994232178,6|0,0:0|0:0,0:0:0:0:
216,98,127426,1,2,0:0:0:0:
334,204,127556,1,8,0:0:0:0:
345,25,127687,1,2,0:0:0:0:
243,198,127817,6,0,B|157:198|157:198|145:203|145:203|56:202,1,188.999994232178,6|0,0:0|0:0,0:0:0:0:
161,95,128208,1,8,0:0:0:0:
180,292,128339,1,2,0:0:0:0:
55,202,128469,1,4,3:1:0:0:
243,198,128600,6,0,L|356:198,1,94.499997116089,6|0,0:0|0:0,0:0:0:0:
91,130,128861,2,0,P|91:82|119:33,1,94.499997116089,8|0,0:0|0:0,0:0:0:0:
91,266,129121,2,0,P|91:314|119:363,1,94.499997116089,2|0,0:0|0:0,0:0:0:0:
297,280,129382,6,0,L|193:290,1,105,6|0,0:0|0:0,0:0:0:0:
193,94,129643,2,0,L|297:103,1,105,4|0,3:1|3:0,0:0:0:0:
415,192,129904,1,4,0:1:0:0:
415,192,130034,1,2,0:0:0:0:
202,192,130165,6,0,L|94:192,1,105,8|2,0:0|0:0,0:0:0:0:
310,192,130426,2,0,L|418:192,1,105,4|0,0:1|3:0,0:0:0:0:
256,350,130687,2,0,L|256:234,1,105,0|0,3:0|0:0,0:0:0:0:
192,71,130948,6,0,P|184:172|255:245,1,210,2|0,0:0|3:0,0:0:0:0:
377,305,131339,1,0,0:0:0:0:
294,133,131469,1,4,3:1:0:0:
415,192,131600,1,0,3:0:0:0:
256,246,131730,6,0,B|183:275|112:246|112:246|145:273|154:311,1,210,8|0,0:0|3:1,0:0:0:0:
52,330,132121,1,4,0:1:0:0:
185,119,132252,1,2,0:0:0:0:
256,246,132382,1,4,0:1:0:0:
109,145,132513,6,0,P|109:97|149:45,1,105,2|0,0:0|0:0,0:0:0:0:
403,145,132774,2,0,P|403:97|363:45,1,105,4|0,3:1|3:0,0:0:0:0:
256,246,133034,2,0,L|256:365,1,105,4|0,3:1|3:0,0:0:0:0:
444,323,133295,6,0,P|401:297|340:297,1,105,8|4,0:0|0:1,0:0:0:0:
68,323,133556,2,0,P|111:297|172:297,1,105,2|4,0:0|0:1,0:0:0:0:
347,295,133817,1,2,0:0:0:0:
256,98,133948,1,4,0:1:0:0:
165,295,134078,6,0,P|113:293|68:267,1,105,2|0,0:0|0:0,0:0:0:0:
97,98,134339,1,0,3:0:0:0:
142,194,134469,1,0,3:0:0:0:
256,98,134600,1,0,3:0:0:0:
301,194,134730,1,2,0:0:0:0:
97,98,134861,6,0,P|56:131|40:197,1,105,8|0,0:0|3:0,0:0:0:0:
243,275,135121,2,0,P|284:242|300:176,1,105,4|0,0:1|3:0,0:0:0:0:
263,34,135382,2,0,L|378:50,1,105,2|0,0:0|3:0,0:0:0:0:
443,175,135643,6,0,P|443:123|462:75,1,105,2|0,0:0|0:0,0:0:0:0:
301,193,135904,2,0,P|301:141|320:93,1,105,4|0,0:1|3:0,0:0:0:0:
159,211,136165,2,0,P|159:159|178:111,1,105,4|2,0:1|0:0,0:0:0:0:
423,276,136426,6,0,P|423:224|442:176,1,105,8|0,0:0|0:0,0:0:0:0:
281,294,136687,2,0,P|281:242|300:194,1,105,4|0,0:1|0:0,0:0:0:0:
139,312,136948,2,0,P|139:260|158:212,1,105,4|0,0:1|0:0,0:0:0:0:
462,75,137208,6,0,P|462:127|443:175,1,105,2|0,0:0|0:0,0:0:0:0:
320,93,137469,2,0,P|320:145|301:193,1,105,0|0,3:0|3:0,0:0:0:0:
178,111,137730,2,0,P|178:163|159:211,1,105,4|0,3:1|3:0,0:0:0:0:
35,338,137991,6,0,P|32:235|87:147,1,210,8|4,0:0|3:1,0:0:0:0:
197,279,138382,1,0,0:0:0:0:
35,338,138513,1,2,0:0:0:0:
212,294,138643,1,4,0:1:0:0:
87,147,138774,6,0,B|200:109|185:173|309:132,1,210,6|0,0:0|3:0,0:0:0:0:
149,250,139165,1,2,0:0:0:0:
238,44,139295,2,0,P|295:39|356:50,1,105,8|2,0:0|0:0,0:0:0:0:
423,262,139556,6,0,B|423:118|423:118|398:145|354:150,1,210,6|0,0:0|3:0,0:0:0:0:
220,178,139948,1,2,0:0:0:0:
348,46,140078,1,8,0:0:0:0:
317,237,140208,1,4,0:1:0:0:
184,93,140339,6,0,P|131:155|182:261,1,210,6|0,0:0|0:0,0:0:0:0:
317,237,140730,1,8,0:0:0:0:
220,178,140861,1,2,0:0:0:0:
256,348,140991,1,0,3:0:0:0:
282,112,141121,6,0,P|236:88|184:93,1,105,8|0,0:0|0:0,0:0:0:0:
414,255,141382,2,0,P|362:260|316:236,1,105,8|0,0:0|0:0,0:0:0:0:
347,65,141643,1,2,0:0:0:0:
380,170,141774,1,4,0:1:0:0:
184,93,141904,6,0,P|131:155|178:258,1,188.999994232178,6|4,0:0|3:1,0:0:0:0:
247,348,142295,1,0,3:0:0:0:
313,165,142426,2,0,L|216:178,1,94.499997116089,4|2,3:1|0:0,0:0:0:0:
247,348,142687,6,0,L|344:335,1,94.499997116089,10|0,0:0|3:0,0:0:0:0:
313,165,142948,2,0,L|99:195,1,188.999994232178,2|0,0:0|3:0,0:0:0:0:
38,266,143339,1,4,0:1:0:0:
213,252,143469,6,0,P|230:188|152:91,1,188.999994232178,2|0,0:0|3:0,0:0:0:0:
126,192,143861,1,4,0:1:0:0:
213,252,143991,2,0,P|263:252|318:222,1,94.499997116089,2|4,0:0|0:1,0:0:0:0:
126,192,144252,6,0,P|107:235|108:282,1,94.499997116089,8|0,0:0|0:0,0:0:0:0:
286,324,144513,2,0,P|304:280|303:233,1,94.499997116089,4|0,3:1|0:0,0:0:0:0:
297,98,144774,1,8,0:0:0:0:
297,98,144904,1,4,0:1:0:0:
204,261,145034,6,0,L|401:299,1,188.999994232178,2|0,0:0|3:0,0:0:0:0:
487,256,145426,1,0,3:0:0:0:
394,205,145556,2,0,P|382:247|392:303,1,94.499997116089,4|4,3:1|0:1,0:0:0:0:
477,145,145817,6,0,L|276:158,1,188.999994232178,2|2,0:0|0:0,0:0:0:0:
196,105,146209,1,4,0:1:0:0:
296,66,146339,2,0,P|301:109|285:163,1,94.499997116089,8|4,0:0|0:1,0:0:0:0:
175,293,146600,6,0,L|197:95,1,188.999994232178,2|0,0:0|3:0,0:0:0:0:
89,189,146991,1,8,0:0:0:0:
175,293,147121,2,0,P|224:293|266:278,1,94.499997116089,2|0,0:0|0:0,0:0:0:0:
392,229,147382,5,8,0:0:0:0:
362,321,147513,1,4,0:1:0:0:
196,105,147643,1,2,0:0:0:0:
288,135,147774,1,4,0:1:0:0:
133,154,147904,6,0,P|117:104|144:45,1,118.125004506111,4|0,3:1|0:0,0:0:0:0:
196,105,148165,1,0,3:0:0:0:
133,154,148295,1,0,3:0:0:0:
70,105,148426,1,0,3:0:0:0:
7,154,148556,1,0,3:0:0:0:
70,203,148687,1,0,3:0:0:0:
7,252,148817,1,0,3:0:0:0:
70,301,148948,1,0,3:0:0:0:
70,301,149600,6,0,L|72:335,3,26.2500010013581,0|0|0|4,0:0|0:0|0:0|0:0,0:0:0:0:
256,192,149795,12,0,155208,0:0:0:0:
