osu file format v14

[General]
AudioFilename: audio.mp3
AudioLeadIn: 0
PreviewTime: 58952
Countdown: 0
SampleSet: Soft
StackLeniency: 0.4
Mode: 0
LetterboxInBreaks: 0
WidescreenStoryboard: 1

[Editor]
Bookmarks: 35861,147909
DistanceSpacing: 1.5
BeatDivisor: 4
GridSize: 4
TimelineZoom: 2.4

[Metadata]
Title:Sky of the Ocean
TitleUnicode:Sky of the Ocean
Artist:Memme
ArtistUnicode:Memme
Creator:Syph
Version:NiNo's Another.
Source:O2Jam U
Tags:parkmemme m2u cheesecake [c_u_r_i] -tochi snownino_ emilia xlolicore- hikaru_rose moecho moeri derandom_otaku
BeatmapID:1429747
BeatmapSetID:668888

[Difficulty]
HPDrainRate:5.5
CircleSize:4
OverallDifficulty:7.5
ApproachRate:9.2
SliderMultiplier:2.2
SliderTickRate:1

[Events]
//Background and Video events
0,0,"bg.jpg",0,0
//Break Periods
2,117061,122521
//Storyboard Layer 0 (Background)
//Storyboard Layer 1 (Fail)
//Storyboard Layer 2 (Pass)
//Storyboard Layer 3 (Foreground)
//Storyboard Sound Samples

[TimingPoints]
1035,260.869565217391,3,2,1,70,1,0
1035,-133.333333333333,3,2,1,70,0,0
3382,-125,3,2,1,70,0,0
10426,-100,3,2,1,70,0,0
11208,-100,3,2,0,50,0,0
11991,-200,3,2,0,70,0,0
24513,-200,3,2,0,60,0,0
37034,-100,3,2,1,70,0,0
51839,-100,3,2,1,5,0,0
51904,-100,3,2,1,70,0,0
54969,-100,3,2,1,5,0,0
55034,-100,3,2,1,70,0,0
58948,-83.3333333333333,3,2,1,85,0,1
70621,-83.3333333333333,3,2,1,85,0,0
70687,-83.3333333333333,3,2,1,85,0,1
71404,-83.3333333333333,3,2,1,85,0,0
71469,-83.3333333333333,3,2,1,85,0,1
77665,-83.3333333333333,3,2,1,5,0,1
77731,-83.3333333333333,3,2,1,85,0,1
81056,-83.3333333333333,3,2,1,5,0,1
81121,-83.3333333333333,3,2,1,85,0,1
81578,-83.3333333333333,3,2,1,5,0,1
81643,-83.3333333333333,3,2,1,85,0,1
83991,-100,3,2,1,70,0,0
84187,-100,3,2,1,5,0,0
84252,-100,3,2,1,70,0,0
89991,-133.333333333333,3,2,1,70,0,0
90252,-100,3,2,1,75,0,1
90448,-100,3,2,1,5,0,1
90513,-100,3,2,1,75,0,1
90969,-100,3,2,1,5,0,1
91034,-100,3,2,1,75,0,1
91882,-76.9230769230769,3,2,1,5,0,1
91948,-76.9230769230769,3,2,1,75,0,1
92274,-76.9230769230769,3,2,1,5,0,1
92339,-76.9230769230769,3,2,1,75,0,1
92534,-76.9230769230769,3,2,1,5,0,1
92600,-66.6666666666667,3,2,1,75,0,1
92795,-66.6666666666667,3,2,1,5,0,1
92861,-66.6666666666667,3,2,1,75,0,1
93056,-66.6666666666667,3,2,1,5,0,1
93121,-66.6666666666667,3,2,1,75,0,1
93317,-66.6666666666667,3,2,1,5,0,1
93382,-100,3,2,1,75,0,1
93448,-76.9230769230769,3,2,1,5,0,1
93513,-76.9230769230769,3,2,1,75,0,1
93578,-76.9230769230769,3,2,1,5,0,1
93643,-76.9230769230769,3,2,1,75,0,1
93708,-76.9230769230769,3,2,1,5,0,1
93773,-76.9230769230769,3,2,1,75,0,1
93839,-76.9230769230769,3,2,1,5,0,1
93904,-76.9230769230769,3,2,1,75,0,1
94100,-76.9230769230769,3,2,1,5,0,1
94165,-76.9230769230769,3,2,1,75,0,1
94230,-76.9230769230769,3,2,1,5,0,1
94295,-76.9230769230769,3,2,1,75,0,1
94361,-76.9230769230769,3,2,1,5,0,1
94426,-76.9230769230769,3,2,1,75,0,1
94491,-76.9230769230769,3,2,1,5,0,1
94556,-76.9230769230769,3,2,1,75,0,1
94621,-76.9230769230769,3,2,1,5,0,1
94687,-76.9230769230769,3,2,1,75,0,1
94882,-76.9230769230769,3,2,1,5,0,1
94948,-76.9230769230769,3,2,1,75,0,1
95013,-76.9230769230769,3,2,1,5,0,1
95078,-76.9230769230769,3,2,1,75,0,1
95404,-76.9230769230769,3,2,1,5,0,1
95470,-76.9230769230769,3,2,1,75,0,1
95665,-76.9230769230769,3,2,1,5,0,1
95730,-66.6666666666667,3,2,1,75,0,1
95926,-66.6666666666667,3,2,1,5,0,1
95991,-66.6666666666667,3,2,1,75,0,1
96187,-66.6666666666667,3,2,1,5,0,1
96251,-66.6666666666667,3,2,1,75,0,1
96448,-66.6666666666667,3,2,1,5,0,1
96513,-66.6666666666667,3,2,1,75,0,1
96578,-66.6666666666667,3,2,1,5,0,1
96643,-66.6666666666667,3,2,1,75,0,1
96708,-66.6666666666667,3,2,1,5,0,1
96774,-66.6666666666667,3,2,1,75,0,1
96969,-66.6666666666667,3,2,1,5,0,1
97034,-66.6666666666667,3,2,1,75,0,1
97230,-66.6666666666667,3,2,1,5,0,1
97295,-76.9230769230769,3,2,1,75,0,1
98143,-76.9230769230769,3,2,1,5,0,1
98208,-76.9230769230769,3,2,1,75,0,1
98534,-76.9230769230769,3,2,1,5,0,1
98600,-76.9230769230769,3,2,1,75,0,1
98795,-76.9230769230769,3,2,1,5,0,1
98861,-66.6666666666667,3,2,1,75,0,1
99056,-66.6666666666667,3,2,1,5,0,1
99122,-66.6666666666667,3,2,1,75,0,1
99317,-66.6666666666667,3,2,1,5,0,1
99383,-66.6666666666667,3,2,1,75,0,1
99578,-66.6666666666667,3,2,1,5,0,1
99643,-76.9230769230769,3,2,1,75,0,1
99708,-76.9230769230769,3,2,1,5,0,1
99774,-76.9230769230769,3,2,1,75,0,1
99839,-76.9230769230769,3,2,1,5,0,1
99905,-76.9230769230769,3,2,1,75,0,1
99969,-76.9230769230769,3,2,1,5,0,1
100035,-76.9230769230769,3,2,1,75,0,1
100100,-76.9230769230769,3,2,1,5,0,1
100166,-76.9230769230769,3,2,1,75,0,1
100361,-76.9230769230769,3,2,1,5,0,1
100426,-76.9230769230769,3,2,1,75,0,1
100491,-76.9230769230769,3,2,1,5,0,1
100556,-76.9230769230769,3,2,1,75,0,1
100621,-76.9230769230769,3,2,1,5,0,1
100686,-76.9230769230769,3,2,1,75,0,1
100752,-76.9230769230769,3,2,1,5,0,1
100817,-76.9230769230769,3,2,1,75,0,1
100882,-76.9230769230769,3,2,1,5,0,1
100948,-76.9230769230769,3,2,1,75,0,1
101143,-76.9230769230769,3,2,1,5,0,1
101208,-76.9230769230769,3,2,1,75,0,1
101274,-76.9230769230769,3,2,1,5,0,1
101339,-76.9230769230769,3,2,1,75,0,1
101665,-76.9230769230769,3,2,1,5,0,1
101730,-76.9230769230769,3,2,1,75,0,1
101926,-76.9230769230769,3,2,1,5,0,1
101991,-333.333333333333,3,2,1,75,0,0
102708,-133.333333333333,3,2,1,5,0,0
102774,-111.111111111111,3,2,1,70,0,1
104339,-125,3,2,1,70,0,1
104600,-76.9230769230769,3,2,1,75,0,1
104795,-76.9230769230769,3,2,1,5,0,1
104861,-76.9230769230769,3,2,1,75,0,1
104926,-76.9230769230769,3,2,1,5,0,1
104991,-76.9230769230769,3,2,1,75,0,1
105056,-76.9230769230769,3,2,1,5,0,1
105121,-76.9230769230769,3,2,1,75,0,1
105317,-76.9230769230769,3,2,1,5,0,1
105382,-76.9230769230769,3,2,1,75,0,1
105578,-76.9230769230769,3,2,1,5,0,1
105643,-76.9230769230769,3,2,1,75,0,1
105839,-76.9230769230769,3,2,1,5,0,1
105904,-76.9230769230769,3,2,1,75,0,1
106230,-76.9230769230769,3,2,1,5,0,1
106295,-76.9230769230769,3,2,1,75,0,1
106361,-76.9230769230769,3,2,1,5,0,1
106426,-76.9230769230769,3,2,1,75,0,1
106621,-76.9230769230769,3,2,1,5,0,1
106687,-76.9230769230769,3,2,1,75,0,1
106752,-76.9230769230769,3,2,1,5,0,1
106817,-76.9230769230769,3,2,1,75,0,1
106882,-76.9230769230769,3,2,1,5,0,1
106947,-76.9230769230769,3,2,1,75,0,1
107013,-76.9230769230769,3,2,1,5,0,1
107078,-76.9230769230769,3,2,1,75,0,1
107143,-76.9230769230769,3,2,1,5,0,1
107208,-76.9230769230769,3,2,1,75,0,1
107926,-76.9230769230769,3,2,1,5,0,1
107991,-76.9230769230769,3,2,1,75,0,1
108056,-76.9230769230769,3,2,1,5,0,1
108121,-76.9230769230769,3,2,1,75,0,1
108187,-76.9230769230769,3,2,1,5,0,1
108251,-66.6666666666667,3,2,1,75,0,1
108448,-76.9230769230769,3,2,1,5,0,1
108512,-76.9230769230769,3,2,1,75,0,1
108708,-76.9230769230769,3,2,1,5,0,1
108774,-76.9230769230769,3,2,1,75,0,1
108969,-76.9230769230769,3,2,1,5,0,1
109034,-76.9230769230769,3,2,1,75,0,1
109295,-200,3,2,1,75,0,1
109491,-76.9230769230769,3,2,1,5,0,1
109557,-76.9230769230769,3,2,1,75,0,1
109752,-76.9230769230769,3,2,1,5,0,1
109817,-76.9230769230769,3,2,1,75,0,1
109882,-76.9230769230769,3,2,1,5,0,1
109948,-76.9230769230769,3,2,1,75,0,1
110013,-76.9230769230769,3,2,1,5,0,1
110079,-76.9230769230769,3,2,1,75,0,1
110143,-76.9230769230769,3,2,1,5,0,1
110209,-76.9230769230769,3,2,1,75,0,1
110274,-76.9230769230769,3,2,1,5,0,1
110340,-76.9230769230769,3,2,1,75,0,1
110404,-76.9230769230769,3,2,1,5,0,1
110470,-76.9230769230769,3,2,1,75,0,1
110534,-76.9230769230769,3,2,1,5,0,1
110600,-76.9230769230769,3,2,1,75,0,1
111056,-76.9230769230769,3,2,1,5,0,1
111121,-76.9230769230769,3,2,1,75,0,1
111187,-76.9230769230769,3,2,1,5,0,1
111252,-76.9230769230769,3,2,1,75,0,1
111317,-76.9230769230769,3,2,1,5,0,1
111382,-76.9230769230769,3,2,1,75,0,1
111578,-76.9230769230769,3,2,1,5,0,1
111643,-76.9230769230769,3,2,1,75,0,1
111839,-76.9230769230769,3,2,1,5,0,1
111904,-76.9230769230769,3,2,1,75,0,1
112100,-76.9230769230769,3,2,1,5,0,1
112165,-76.9230769230769,3,2,1,75,0,1
112491,-76.9230769230769,3,2,1,5,0,1
112556,-76.9230769230769,3,2,1,75,0,1
112621,-76.9230769230769,3,2,1,5,0,1
112687,-76.9230769230769,3,2,1,75,0,1
112882,-76.9230769230769,3,2,1,5,0,1
112948,-76.9230769230769,3,2,1,75,0,1
114187,-76.9230769230769,3,2,1,5,0,1
114252,-76.9230769230769,3,2,1,75,0,1
114317,-76.9230769230769,3,2,1,5,0,1
114382,-76.9230769230769,3,2,1,75,0,1
114448,-76.9230769230769,3,2,1,5,0,1
114513,-76.9230769230769,3,2,1,75,0,1
114708,-76.9230769230769,3,2,1,5,0,1
114774,-76.9230769230769,3,2,1,75,0,1
114969,-76.9230769230769,3,2,1,5,0,1
115034,-76.9230769230769,3,2,1,75,0,1
115230,-76.9230769230769,3,2,1,5,0,1
115295,-125,3,2,1,5,0,1
115296,-125,3,2,1,85,0,1
116861,-100,3,2,1,60,0,0
123122,-133.333333333333,3,2,0,60,0,0
126252,-100,3,2,1,70,0,0
126448,-100,3,2,1,5,0,0
126513,-100,3,2,1,70,0,0
127361,-100,3,2,1,5,0,0
127426,-100,3,2,1,70,0,0
128143,-100,3,2,1,5,0,0
128208,-100,3,2,1,70,0,0
129382,-83.3333333333333,3,2,1,75,0,1
138969,-83.3333333333333,3,2,1,5,0,1
139034,-83.3333333333333,3,2,1,75,0,1
139752,-83.3333333333333,3,2,1,5,0,1
139817,-83.3333333333333,3,2,1,75,0,1
140665,-83.3333333333333,3,2,1,5,0,1
140730,-83.3333333333333,3,2,1,75,0,1
141904,-90.9090909090909,3,2,1,70,0,0
144708,-90.9090909090909,3,2,1,5,0,0
144774,-90.9090909090909,3,2,1,70,0,0
148165,-133.333333333333,3,2,1,50,0,0
148295,-133.333333333333,3,2,1,56,0,0
148426,-133.333333333333,3,2,1,62,0,0
148556,-133.333333333333,3,2,1,66,0,0
148687,-133.333333333333,3,2,1,71,0,0
148817,-133.333333333333,3,2,1,66,0,0
148948,-133.333333333333,3,2,1,75,0,0
155208,-90.9090909090909,3,2,1,5,0,0

[Colours]
Combo1 : 82,179,186
Combo2 : 112,142,173
Combo3 : 115,157,155
Combo4 : 16,154,237
Combo5 : 33,199,222
Combo6 : 73,141,197

[HitObjects]
449,164,3382,6,0,L|443:259,1,88,8|0,0:3|0:0,0:0:0:0:
443,251,3578,1,0,0:0:0:0:
443,251,3643,1,2,0:3:0:0:
402,349,3774,1,8,0:3:0:0:
296,342,3904,2,0,P|240:320|194:318,1,88,0|0,0:0|0:0,0:0:0:0:
98,317,4165,6,0,P|125:268|63:157,1,176,6|4,0:0|3:1,0:0:0:0:
22,52,4556,1,0,0:0:0:0:
22,52,4687,2,0,P|77:49|119:28,1,88,4|2,0:1|0:0,0:0:0:0:
165,181,4948,2,0,P|124:165|80:165,1,88,8|0,0:0|0:0,0:0:0:0:
260,253,5208,2,0,L|250:68,1,176,4|0,0:1|3:0,0:0:0:0:
359,44,5600,1,4,0:1:0:0:
359,44,5730,6,0,L|349:229,1,176,2|0,0:0|3:0,0:0:0:0:
341,325,6121,1,4,0:1:0:0:
250,269,6252,2,0,P|198:260|163:234,1,88,2|4,0:0|0:1,0:0:0:0:
349,219,6513,2,0,P|386:196|429:190,1,88,8|0,0:0|0:0,0:0:0:0:
341,325,6774,2,0,L|355:128,1,176,0|2,3:0|0:0,0:0:0:0:
364,43,7165,1,4,0:1:0:0:
364,43,7295,6,0,P|343:103|234:131,1,176,2|0,0:0|3:0,0:0:0:0:
151,78,7687,1,2,3:0:0:0:
149,186,7817,2,0,L|139:279,1,88,4|4,3:1|0:1,0:0:0:0:
10,355,8078,2,0,P|40:295|173:293,1,176,8|0,0:0|3:0,0:0:0:0:
225,336,8469,1,4,0:1:0:0:
225,336,8600,2,0,P|278:356|323:353,1,88,0|4,0:0|0:1,0:0:0:0:
378,212,8861,6,0,B|322:211|289:267|289:267|274:191,1,176,2|0,0:0|3:0,0:0:0:0:
377,306,9252,2,0,P|431:292|454:159,1,176,8|0,0:0|3:0,0:0:0:0:
462,70,9643,1,8,0:0:0:0:
462,70,9774,1,4,0:1:0:0:
373,212,9904,2,0,L|364:107,1,88,2|4,0:0|0:1,0:0:0:0:
354,18,10165,1,4,0:1:0:0:
94,142,11991,6,0,B|149:151|149:151|212:121,2,110,2|0|0,0:0|0:0|0:0,0:0:0:0:
94,142,12774,1,8,0:0:0:0:
94,142,13295,1,2,0:0:0:0:
144,239,13556,6,0,P|197:234|247:276,2,110,2|0|0,0:0|0:0|0:0,0:0:0:0:
144,239,14339,1,8,0:0:0:0:
144,239,15121,6,0,L|155:126,2,110,2|0|0,0:0|0:0|0:0,0:0:0:0:
144,239,15904,1,8,0:0:0:0:
144,239,16426,1,2,0:0:0:0:
254,242,16687,6,0,L|262:119,2,110,2|0|0,0:0|0:0|0:0,0:0:0:0:
254,242,17469,1,10,0:0:0:0:
254,242,17991,2,0,L|258:305,1,55,0|0,0:0|0:0,0:0:0:0:
296,336,18252,6,0,P|336:314|413:310,2,110,2|0|0,0:0|0:0|0:0,0:0:0:0:
296,336,19034,1,10,0:0:0:0:
296,336,19817,6,0,L|173:329,2,110,2|0|0,0:0|0:0|0:0,0:0:0:0:
296,336,20600,1,8,0:0:0:0:
383,268,20861,1,2,0:0:0:0:
374,158,21121,1,0,0:0:0:0:
296,80,21382,6,0,P|256:52|177:45,2,110,2|0|0,0:0|0:0|0:0,0:0:0:0:
296,80,22165,1,8,0:0:0:0:
212,151,22426,1,0,0:0:0:0:
212,151,22948,6,0,L|196:38,2,110,2|0|2,0:0|0:0|0:0,0:0:0:0:
212,151,23730,1,12,0:3:0:0:
212,151,24513,6,0,B|252:149|252:149|272:169|272:169|320:167,2,110,2|0|0,0:0|0:0|0:0,0:0:0:0:
212,151,25295,1,8,0:0:0:0:
124,277,25556,1,0,0:0:0:0:
124,277,26078,6,0,L|119:168,2,110,2|0|0,0:0|0:0|0:0,0:0:0:0:
124,277,26861,1,8,0:0:0:0:
124,277,27382,2,0,P|169:297|199:299,1,55,0|0,0:0|0:0,0:0:0:0:
250,315,27643,6,0,P|218:264|220:205,2,110,2|0|2,0:0|0:0|0:0,0:0:0:0:
250,315,28426,1,8,0:0:0:0:
414,331,28687,1,0,0:0:0:0:
439,169,28948,1,0,0:0:0:0:
310,84,29208,6,0,P|268:121|203:131,2,110,2|0|0,0:0|0:0|0:0,0:0:0:0:
310,84,29991,1,8,0:0:0:0:
310,84,30513,1,0,0:0:0:0:
348,233,30774,6,0,P|305:176|252:162,1,110,2|0,0:0|0:0,0:0:0:0:
270,163,31295,1,0,0:0:0:0:
135,289,31556,2,0,L|141:165,2,110,8|0|0,0:0|0:0|0:0,0:0:0:0:
233,327,32339,6,0,P|178:291|115:294,1,110,2|0,0:0|0:0,0:0:0:0:
136,289,32861,1,0,0:0:0:0:
258,198,33121,2,0,L|249:79,2,110,8|0|0,0:0|0:0|0:0,0:0:0:0:
258,198,33904,6,0,P|318:196|376:239,1,110,2|0,0:0|0:0,0:0:0:0:
360,220,34426,1,0,0:0:0:0:
264,307,34687,2,0,L|257:185,2,110,8|0|0,0:0|0:0|0:0,0:0:0:0:
264,307,35469,6,0,P|207:304|156:264,1,110,2|0,0:0|0:0,0:0:0:0:
90,235,35861,2,0,P|147:232|198:192,1,110,0|0,3:0|0:0,0:0:0:0:
281,158,36252,2,0,P|266:186|261:229,1,55,8|0,3:0|0:0,0:0:0:0:
96,93,36513,2,0,P|115:121|120:158,1,55,8|8,0:0|0:0,0:0:0:0:
136,305,36774,1,10,0:0:0:0:
136,305,37034,6,0,P|177:254|332:264,1,220,6|0,0:0|3:0,0:0:0:0:
320,254,37426,1,0,3:0:0:0:
315,364,37556,2,0,L|320:252,1,110,4|2,0:1|0:0,0:0:0:0:
361,148,37817,2,0,B|303:185|320:254|320:254|278:196|182:188|131:242,1,330,8|0,0:0|3:0,0:0:0:0:
91,338,38339,1,4,0:1:0:0:
91,338,38469,1,4,0:1:0:0:
29,246,38600,6,0,L|38:129,1,110,2|0,0:0|0:0,0:0:0:0:
129,32,38861,2,0,L|138:149,1,110,4|0,0:1|0:0,0:0:0:0:
226,52,39121,2,0,L|235:169,1,110,4|0,0:1|3:0,0:0:0:0:
207,312,39382,2,0,B|234:162|234:162|247:228|315:275|401:230,1,330,8|2,0:0|0:0,0:0:0:0:
335,144,39904,1,2,0:0:0:0:
335,144,40034,1,4,0:1:0:0:
235,162,40165,6,0,L|103:175,1,110,2|0,0:0|3:0,0:0:0:0:
34,52,40426,2,0,L|166:65,1,110,0|0,3:0|3:0,0:0:0:0:
152,276,40687,2,0,P|125:216|129:161,1,110,4|2,0:1|0:0,0:0:0:0:
257,304,40948,2,0,P|274:243|439:198,1,220,8|0,0:0|3:0,0:0:0:0:
422,295,41339,1,0,0:0:0:0:
422,295,41469,2,0,L|407:176,1,110,4|2,0:1|0:0,0:0:0:0:
437,69,41730,6,0,P|382:97|319:99,1,110,2|0,0:0|0:0,0:0:0:0:
159,150,41991,2,0,P|214:178|277:180,1,110,4|0,0:1|0:0,0:0:0:0:
334,268,42252,2,0,P|291:313|277:364,1,110,0|2,3:0|3:2,0:0:0:0:
481,363,42513,2,0,L|461:118,1,220,8|0,0:0|3:0,0:0:0:0:
488,33,42904,1,0,0:0:0:0:
488,33,43034,1,2,0:0:0:0:
488,33,43295,6,0,P|429:28|374:3,1,110,2|0,0:0|0:0,0:0:0:0:
320,99,43556,2,0,P|261:104|206:129,1,110,0|0,3:0|3:0,0:0:0:0:
112,164,43817,2,0,P|140:100|146:44,1,110,4|2,0:1|0:0,0:0:0:0:
39,30,44078,2,0,L|53:271,1,220,8|0,3:2|3:0,0:0:0:0:
28,356,44469,1,0,0:0:0:0:
28,356,44600,2,0,P|80:325|139:328,1,110,4|4,0:1|0:1,0:0:0:0:
262,242,44861,6,0,P|197:219|173:60,1,220,2|4,0:0|3:1,0:0:0:0:
272,18,45252,1,2,0:0:0:0:
272,18,45382,2,0,L|264:142,1,110,4|2,0:1|3:2,0:0:0:0:
341,209,45643,6,0,P|372:156|373:103,1,110,8|0,0:0|0:0,0:0:0:0:
157,154,45904,2,0,P|187:207|232:234,1,110,0|0,3:0|0:0,0:0:0:0:
298,21,46165,2,0,P|236:20|190:46,1,110,2|4,0:0|0:1,0:0:0:0:
62,121,46426,6,0,P|133:127|230:250,1,220,2|4,0:0|3:1,0:0:0:0:
166,340,46817,1,0,3:0:0:0:
166,340,46948,2,0,L|51:330,1,110,4|2,0:1|0:0,0:0:0:0:
227,232,47208,2,0,L|348:222,1,110,8|0,0:0|3:0,0:0:0:0:
62,121,47469,2,0,L|183:131,1,110,0|2,3:0|0:0,0:0:0:0:
313,104,47730,2,0,P|259:69|226:23,1,110,4|0,3:1|0:0,0:0:0:0:
449,25,47991,6,0,L|433:257,1,220,6|0,0:0|3:0,0:0:0:0:
470,348,48382,1,8,0:0:0:0:
361,329,48513,2,0,P|330:283|330:207,1,110,2|2,0:0|3:2,0:0:0:0:
259,132,48774,6,0,P|217:178|208:235,1,110,12|0,0:0|0:0,0:0:0:0:
389,129,49034,2,0,P|431:175|440:232,1,110,8|0,0:0|0:0,0:0:0:0:
361,329,49295,1,2,0:0:0:0:
256,64,49556,6,0,P|191:85|56:13,1,220,6|0,0:0|3:0,0:0:0:0:
26,127,49948,1,0,3:0:0:0:
26,127,50078,2,0,L|42:245,1,110,4|2,0:1|0:0,0:0:0:0:
21,357,50339,2,0,P|130:326|163:214,1,220,8|0,0:0|3:0,0:0:0:0:
165,233,50861,2,0,L|275:213,1,110,4|0,0:1|0:0,0:0:0:0:
354,134,51121,6,0,P|294:122|241:81,1,110,2|0,0:0|0:0,0:0:0:0:
376,260,51382,2,0,P|323:291|287:347,1,110,0|2,3:0|0:0,0:0:0:0:
375,116,51643,2,0,P|340:63|332:12,1,110,0|2,3:0|0:0,0:0:0:0:
482,35,51904,2,0,P|428:71|461:220,1,220,8|0,0:0|3:0,0:0:0:0:
477,314,52295,1,0,0:0:0:0:
477,314,52426,2,0,P|418:316|361:280,1,110,2|4,0:0|0:1,0:0:0:0:
291,177,52687,6,0,B|276:330|276:330|224:264,1,220,6|4,0:0|0:1,0:0:0:0:
181,181,53078,1,0,3:0:0:0:
181,181,53208,2,0,L|194:56,1,110,4|2,0:1|0:0,0:0:0:0:
295,32,53469,2,0,P|319:93|466:128,1,220,8|0,0:0|3:0,0:0:0:0:
399,227,53861,1,0,3:0:0:0:
399,227,53991,2,0,P|342:250|312:298,1,110,4|0,0:1|3:0,0:0:0:0:
479,323,54252,6,0,L|492:94,1,220,2|0,0:0|3:0,0:0:0:0:
411,27,54643,1,2,0:0:0:0:
411,27,54774,2,0,P|341:18|277:32,1,110,0|0,0:0|0:0,0:0:0:0:
175,63,55034,2,0,P|228:94|269:252,1,220,8|0,0:0|0:0,0:0:0:0:
256,348,55426,1,0,0:0:0:0:
256,348,55556,2,0,P|199:324|129:334,1,110,2|0,0:0|0:0,0:0:0:0:
45,357,55817,6,0,B|53:267|53:267|79:225|79:225|87:117,1,220,6|4,0:0|3:1,0:0:0:0:
29,49,56208,1,2,0:0:0:0:
173,122,56339,2,0,L|164:245,1,110,8|4,0:0|0:1,0:0:0:0:
131,25,56600,6,0,P|201:20|272:157,1,220,6|4,0:0|3:1,0:0:0:0:
316,236,56991,1,2,0:0:0:0:
164,231,57121,2,0,L|173:122,1,110,8|2,0:0|3:2,0:0:0:0:
101,39,57382,6,0,P|143:102|316:116,1,220,6|2,0:0|0:0,0:0:0:0:
420,100,57774,2,0,P|343:118|289:251,1,220,8|4,0:0|3:1,0:0:0:0:
422,331,58165,6,0,L|405:206,1,110,6|4,0:0|0:1,0:0:0:0:
292,24,58426,2,0,L|275:149,1,110,8|0,0:0|3:0,0:0:0:0:
232,328,58687,1,2,0:0:0:0:
232,328,58948,6,0,P|186:272|121:261,1,131.99999597168,6|0,0:0|0:0,0:0:0:0:
277,132,59208,2,0,P|204:142|160:190,1,131.99999597168,4|0,0:1|3:0,0:0:0:0:
29,344,59469,2,0,P|51:273|31:205,1,131.99999597168,4|2,0:1|0:0,0:0:0:0:
22,37,59730,2,0,B|97:140|97:140|232:117,1,263.99999194336,8|4,0:0|0:1,0:0:0:0:
361,139,60121,1,0,3:0:0:0:
361,139,60252,2,0,L|223:115,1,131.99999597168,0|0,3:0|3:0,0:0:0:0:
364,247,60513,6,0,P|434:218|419:44,1,263.99999194336,2|0,0:0|3:0,0:0:0:0:
230,116,60904,1,0,3:0:0:0:
230,116,61034,2,0,L|246:253,1,131.99999597168,4|0,3:1|3:0,0:0:0:0:
313,330,61295,2,0,B|205:404|175:267|56:355,1,263.99999194336,8|2,0:0|0:0,0:0:0:0:
23,250,61687,1,0,0:0:0:0:
114,196,61817,1,2,0:0:0:0:
114,196,61948,1,4,0:1:0:0:
77,97,62078,6,0,L|212:84,1,131.99999597168,2|0,0:0|0:0,0:0:0:0:
426,154,62339,2,0,L|294:166,1,131.99999597168,4|0,0:1|3:0,0:0:0:0:
154,195,62600,2,0,P|195:155|207:77,1,131.99999597168,4|0,3:1|3:0,0:0:0:0:
51,195,62861,2,0,P|146:191|200:348,1,263.99999194336,8|4,0:0|3:1,0:0:0:0:
102,296,63252,1,0,3:0:0:0:
154,195,63382,1,2,0:0:0:0:
154,195,63513,1,0,3:0:0:0:
260,227,63643,6,0,B|391:259|391:259|463:136,1,263.99999194336,2|0,0:0|3:0,0:0:0:0:
484,42,64034,1,0,3:0:0:0:
484,42,64165,2,0,P|414:39|348:19,1,131.99999597168,0|2,3:0|0:0,0:0:0:0:
253,104,64426,2,0,P|308:69|354:22,1,131.99999597168,8|0,0:0|3:0,0:0:0:0:
163,167,64687,2,0,P|221:197|284:214,1,131.99999597168,4|0,3:1|0:0,0:0:0:0:
65,118,64948,2,0,P|67:183|85:247,1,131.99999597168,2|4,0:0|0:1,0:0:0:0:
155,361,65208,6,0,B|210:298|210:298|406:335,1,263.99999194336,2|4,0:0|0:1,0:0:0:0:
502,358,65600,1,0,3:0:0:0:
502,358,65730,2,0,P|474:299|478:223,1,131.99999597168,4|2,3:1|3:2,0:0:0:0:
478,62,65991,2,0,P|431:116|350:122,1,131.99999597168,8|0,0:0|3:0,0:0:0:0:
269,145,66252,2,0,P|332:159|372:210,1,131.99999597168,4|0,3:1|3:0,0:0:0:0:
256,277,66513,2,0,L|272:118,1,131.99999597168,4|0,0:1|0:0,0:0:0:0:
148,278,66774,6,0,P|170:339|362:314,1,263.99999194336,2|4,0:0|3:1,0:0:0:0:
383,225,67165,1,0,0:0:0:0:
383,225,67295,2,0,P|345:290|345:355,1,131.99999597168,4|0,3:1|3:0,0:0:0:0:
481,328,67556,6,0,L|461:47,1,263.99999194336,8|0,0:0|3:0,0:0:0:0:
462,64,68078,1,2,0:0:0:0:
366,20,68208,1,4,0:1:0:0:
331,120,68339,6,0,B|261:113|261:113|232:134|232:134|141:123,1,197.99999395752,6|0,0:0|0:0,0:0:0:0:
87,116,68600,1,0,3:0:0:0:
25,201,68730,1,2,0:0:0:0:
146,254,68861,2,0,L|140:108,1,131.99999597168,8|2,0:0|0:0,0:0:0:0:
54,300,69121,6,0,P|108:351|233:306,1,197.99999395752,6|0,0:0|0:0,0:0:0:0:
260,290,69382,1,2,0:0:0:0:
272,171,69513,1,2,0:0:0:0:
146,254,69643,1,8,0:0:0:0:
146,254,69774,1,2,0:0:0:0:
204,90,69904,6,0,P|281:71|366:225,1,263.99999194336,6|0,0:0|3:0,0:0:0:0:
258,375,70295,2,0,P|203:317|293:167,1,263.99999194336,8|4,0:0|0:1,0:0:0:0:
437,289,70687,6,0,L|298:278,1,131.99999597168,6|0,0:0|3:0,0:0:0:0:
348,63,70948,2,0,L|268:177,1,131.99999597168,12|0,0:0|3:0,0:0:0:0:
103,45,71208,2,0,L|162:170,1,131.99999597168,2|0,0:0|3:0,0:0:0:0:
258,346,71469,6,0,B|221:280|115:263|115:263|128:310|98:360,1,263.99999194336,6|4,0:0|3:1,0:0:0:0:
26,291,71861,1,0,3:0:0:0:
26,291,71991,2,0,P|31:217|83:174,1,131.99999597168,4|2,0:1|0:0,0:0:0:0:
251,209,72252,2,0,B|70:179|70:179|175:144,1,263.99999194336,8|4,0:0|3:1,0:0:0:0:
271,108,72643,1,0,3:0:0:0:
271,108,72774,2,0,P|337:151|349:222,1,131.99999597168,2|0,3:0|0:0,0:0:0:0:
294,342,73034,6,0,P|297:277|456:176,1,263.99999194336,2|0,0:0|3:0,0:0:0:0:
425,355,73426,1,0,3:0:0:0:
425,355,73556,2,0,L|270:339,1,131.99999597168,4|0,3:1|3:0,0:0:0:0:
132,355,73817,2,0,P|185:315|166:136,1,263.99999194336,8|2,0:0|0:0,0:0:0:0:
167,137,74339,1,2,0:0:0:0:
207,39,74469,1,4,0:1:0:0:
312,51,74600,6,0,B|481:78|481:78|497:181,1,263.99999194336,2|4,0:0|3:1,0:0:0:0:
384,287,74991,1,0,3:0:0:0:
384,287,75121,2,0,L|404:156,1,131.99999597168,4|0,0:1|0:0,0:0:0:0:
289,200,75382,2,0,B|269:322|269:322|108:362,1,263.99999194336,8|4,0:0|3:1,0:0:0:0:
132,355,75904,1,4,3:1:0:0:
26,352,76034,1,4,0:1:0:0:
16,246,76165,6,0,P|79:167|3:10,1,263.99999194336,2|0,0:0|3:0,0:0:0:0:
125,70,76556,1,0,0:0:0:0:
125,70,76687,2,0,P|180:107|259:98,1,131.99999597168,2|2,3:0|0:0,0:0:0:0:
392,159,76948,2,0,P|339:91|338:27,1,131.99999597168,8|0,0:0|0:0,0:0:0:0:
285,219,77208,2,0,P|300:306|279:355,1,131.99999597168,4|0,3:1|0:0,0:0:0:0:
162,201,77469,2,0,P|189:141|243:104,1,131.99999597168,2|0,0:0|0:0,0:0:0:0:
192,296,77730,6,0,P|126:296|93:129,1,263.99999194336,2|4,0:0|3:1,0:0:0:0:
46,24,78121,1,0,3:0:0:0:
46,24,78252,2,0,L|191:36,1,131.99999597168,4|2,0:1|0:0,0:0:0:0:
221,130,78513,2,0,L|492:106,1,263.99999194336,8|4,0:0|0:1,0:0:0:0:
433,204,78904,1,0,0:0:0:0:
433,204,79034,2,0,P|376:145|376:89,1,131.99999597168,0|4,3:0|0:1,0:0:0:0:
281,230,79295,6,0,P|223:282|163:297,1,131.99999597168,2|0,0:0|0:0,0:0:0:0:
264,32,79556,2,0,P|326:52|372:98,1,131.99999597168,4|0,3:1|0:0,0:0:0:0:
162,168,79817,2,0,P|99:147|53:101,1,131.99999597168,0|0,3:0|0:0,0:0:0:0:
273,141,80078,2,0,B|292:337|292:337|220:300,1,263.99999194336,8|4,0:0|3:1,0:0:0:0:
162,168,80469,1,2,0:0:0:0:
162,168,80600,2,0,L|148:305,1,131.99999597168,2|4,0:0|3:1,0:0:0:0:
298,358,80861,6,0,P|300:288|425:212,1,197.99999395752,6|0,0:0|0:0,0:0:0:0:
445,218,81121,1,0,3:0:0:0:
503,130,81252,1,2,0:0:0:0:
375,81,81382,2,0,L|395:225,1,131.99999597168,8|0,0:0|0:0,0:0:0:0:
375,337,81643,6,0,P|307:308|273:180,1,197.99999395752,6|0,0:0|0:0,0:0:0:0:
275,144,81904,1,2,0:0:0:0:
199,71,82034,1,2,0:0:0:0:
138,211,82165,2,0,L|280:196,1,131.99999597168,8|4,0:0|0:1,0:0:0:0:
155,321,82426,6,0,P|80:304|69:123,1,263.99999194336,6|0,0:0|3:0,0:0:0:0:
244,32,82817,2,0,P|266:105|115:205,1,263.99999194336,8|0,0:0|0:0,0:0:0:0:
338,182,83208,2,0,P|357:108|343:34,1,131.99999597168,12|0,0:0|0:0,0:0:0:0:
127,83,83469,2,0,P|120:148|139:211,1,131.99999597168,12|0,0:0|0:0,0:0:0:0:
256,320,83730,1,2,0:0:0:0:
256,320,83861,1,4,3:1:0:0:
366,327,83991,6,0,P|349:259|311:225,1,110,6|0,0:0|0:0,0:0:0:0:
152,310,84252,2,0,P|219:329|267:313,1,110,4|0,0:1|3:0,0:0:0:0:
285,143,84513,2,0,P|234:191|224:241,1,110,4|2,0:1|0:0,0:0:0:0:
224,228,84708,1,0,0:0:0:0:
224,228,84774,2,0,B|163:223|163:223|105:179,1,110,2|0,0:0|3:0,0:0:0:0:
45,101,85034,2,0,L|25:349,1,220,4|0,3:1|3:0,0:0:0:0:
140,355,85426,1,4,0:1:0:0:
140,355,85556,6,0,P|158:300|312:281,1,220,2|0,0:0|3:0,0:0:0:0:
385,344,85948,1,0,0:0:0:0:
488,306,86078,2,0,L|472:181,1,110,4|2,0:1|0:0,0:0:0:0:
314,163,86339,2,0,L|298:288,1,110,8|0,0:0|3:0,0:0:0:0:
205,154,86600,2,0,P|228:90|373:70,1,220,4|2,3:1|0:0,0:0:0:0:
422,157,86991,1,4,0:1:0:0:
422,157,87121,6,0,L|410:376,1,220,2|0,0:0|3:0,0:0:0:0:
299,365,87513,1,0,3:0:0:0:
323,258,87643,2,0,P|255:260|216:295,1,110,4|2,0:1|0:0,0:0:0:0:
123,335,87904,2,0,L|141:109,1,220,2|0,0:0|3:0,0:0:0:0:
214,33,88295,1,4,3:1:0:0:
316,74,88426,1,4,0:1:0:0:
316,74,88556,1,4,3:1:0:0:
242,156,88687,6,0,L|224:375,1,220,2|2,0:0|3:2,0:0:0:0:
155,279,89078,2,0,P|210:257|339:345,1,220,8|0,0:0|3:0,0:0:0:0:
453,371,89469,2,0,L|463:238,1,110,12|4,0:0|0:1,0:0:0:0:
473,151,89730,1,2,0:0:0:0:
473,151,89861,1,4,0:1:0:0:
473,151,89991,1,4,3:1:0:0:
473,151,90252,6,0,L|352:140,1,110,6|0,0:0|0:0,0:0:0:0:
218,161,90513,2,0,P|260:124|277:63,1,110,2|8,0:0|0:0,0:0:0:0:
168,62,90774,1,2,0:0:0:0:
168,62,90904,1,0,0:0:0:0:
49,141,91034,6,0,L|122:147,1,55,8|0,0:0|0:0,0:0:0:0:
77,247,91165,2,0,L|148:225,1,55,8|0,0:0|0:0,0:0:0:0:
211,249,91295,2,0,L|229:185,1,55,8|0,0:0|0:0,0:0:0:0:
168,62,91426,2,0,L|186:126,2,55,8|8|8,0:0|0:0|0:0,0:0:0:0:
254,11,91687,1,8,0:0:0:0:
339,62,91817,6,0,P|372:91|412:100,1,55,6|0,0:0|0:0,0:0:0:0:
468,113,91948,2,0,P|417:109|350:239,1,214.49999018097,0|0,0:0|0:0,0:0:0:0:
367,280,92208,1,0,0:0:0:0:
367,280,92339,1,2,0:0:0:0:
466,303,92469,1,0,0:0:0:0:
321,286,92600,6,0,B|338:190|338:190|281:139|281:139|288:229,1,247.500009441376,8|0,0:0|0:0,0:0:0:0:
229,255,92861,2,0,P|290:263|351:112,1,247.500009441376,2|0,0:0|0:0,0:0:0:0:
281,139,93121,2,0,B|316:129|343:152|343:152|369:125|369:125|397:159|438:146|438:146|479:134|510:164,1,247.500009441376,0|0,3:0|0:0,0:0:0:0:
374,224,93382,6,0,L|361:338,1,110,2|4,0:0|0:1,0:0:0:0:
455,371,93643,1,0,0:0:0:0:
455,270,93774,1,4,0:1:0:0:
362,334,93904,2,0,P|320:355|209:254,1,214.49999018097,0|0,3:0|0:0,0:0:0:0:
212,211,94165,6,0,P|144:261|62:259,1,142.99999345398,8|4,0:0|0:1,0:0:0:0:
116,157,94426,1,0,0:0:0:0:
56,308,94556,1,4,0:1:0:0:
210,333,94687,2,0,B|195:283|195:283|88:265|88:265|50:317,1,214.49999018097,2|0,0:0|0:0,0:0:0:0:
30,220,94948,6,0,L|34:295,1,71.4999967269899,2|0,0:0|0:0,0:0:0:0:
127,359,95078,2,0,B|159:270|159:270|113:148,1,214.49999018097,0|0,0:0|0:0,0:0:0:0:
87,116,95339,1,0,0:0:0:0:
87,116,95469,1,2,0:0:0:0:
68,18,95600,1,0,0:0:0:0:
116,157,95730,6,0,B|184:181|191:251|191:251|245:204|317:233,1,247.500009441376,8|0,0:0|0:0,0:0:0:0:
401,242,95991,2,0,B|406:182|368:143|329:133|329:133|376:117|376:117|422:65,1,247.500009441376,2|0,0:0|0:0,0:0:0:0:
323,43,96252,2,0,P|283:56|306:220,1,247.500009441376,0|0,3:0|0:0,0:0:0:0:
401,242,96513,6,0,B|409:201|409:201|402:192|402:192|398:157,1,82.5000031471254,2|0,1:0|0:0,0:0:0:0:
227,184,96643,2,0,B|219:143|219:143|226:134|226:134|230:99,1,82.5000031471254,2|0,0:1|0:0,0:0:0:0:
383,29,96774,2,0,B|336:104|336:104|268:12|268:12|338:22,1,247.500009441376,2|0,0:1|0:0,0:0:0:0:
398,162,97034,2,0,P|362:186|303:178,1,82.5000031471254,2|0,0:0|0:0,0:0:0:0:
229,104,97165,2,0,P|193:80|134:88,1,82.5000031471254,0|0,0:0|0:0,0:0:0:0:
107,95,97295,5,8,0:0:0:0:
107,95,97426,1,0,0:0:0:0:
33,230,97556,2,0,L|44:152,1,71.4999967269899,4|0,3:1|0:0,0:0:0:0:
171,159,97687,2,0,L|180:229,1,71.4999967269899,0|0,3:0|0:0,0:0:0:0:
107,293,97817,1,2,0:0:0:0:
107,293,97948,1,0,3:0:0:0:
246,253,98078,6,0,P|262:294|268:340,1,71.4999967269899,2|0,0:0|0:0,0:0:0:0:
171,159,98208,2,0,B|207:159|207:159|238:137|238:137|273:177|273:177|301:155|301:155|356:149,1,214.49999018097,0|0,0:0|0:0,0:0:0:0:
399,167,98469,1,0,0:0:0:0:
350,254,98600,1,2,0:0:0:0:
350,254,98730,1,0,0:0:0:0:
352,149,98861,6,0,B|341:109|341:109|391:95|433:117|433:117|449:152|438:207|384:233,1,247.500009441376,8|0,0:0|0:0,0:0:0:0:
283,214,99121,2,0,B|248:92|248:92|264:36|317:15|363:20,1,247.500009441376,2|0,0:0|0:0,0:0:0:0:
470,139,99382,2,0,B|414:164|366:145|341:109|341:109|371:222,1,247.500009441376,0|0,3:0|0:0,0:0:0:0:
379,257,99643,5,2,0:0:0:0:
379,257,99774,1,4,0:1:0:0:
283,214,99904,2,0,P|239:204|208:187,1,71.4999967269899,0|0,0:0|0:0,0:0:0:0:
225,325,100034,2,0,P|257:309|292:303,1,71.4999967269899,4|0,0:1|0:0,0:0:0:0:
152,262,100165,2,0,P|125:221|210:97,1,214.49999018097,2|0,0:0|0:0,0:0:0:0:
262,103,100426,6,0,B|321:138|321:138|401:124,1,142.99999345398,8|4,0:0|0:1,0:0:0:0:
337,52,100687,1,0,0:0:0:0:
337,52,100817,1,4,0:1:0:0:
283,214,100948,2,0,B|194:160|194:160|146:279,1,214.49999018097,2|0,0:0|0:0,0:0:0:0:
218,332,101208,6,0,P|258:325|288:294,1,71.4999967269899,2|0,0:0|0:0,0:0:0:0:
363,256,101339,2,0,B|313:239|283:214|283:214|349:180|423:191,1,214.49999018097,0|0,0:0|0:0,0:0:0:0:
455,162,101600,1,0,0:0:0:0:
455,162,101730,1,2,0:0:0:0:
428,65,101861,1,0,0:0:0:0:
402,188,101991,6,0,B|367:186|342:160|342:160|320:192|320:192|291:166|250:171,1,181.49999446106,8|0,0:0|0:0,0:0:0:0:
215,183,102774,6,0,P|162:184|106:148,1,98.9999969787599,6|4,0:0|0:1,0:0:0:0:
135,68,103034,1,4,3:1:0:0:
248,121,103165,2,0,L|251:187,1,49.4999984893799,8|0,0:0|0:0,0:0:0:0:
117,263,103295,2,0,L|121:155,1,98.9999969787599,2|4,0:0|3:1,0:0:0:0:
214,263,103556,6,0,P|172:271|110:260,1,98.9999969787599,12|0,0:0|0:0,0:0:0:0:
250,170,103817,2,0,P|298:161|347:169,1,98.9999969787599,8|0,0:0|0:0,0:0:0:0:
306,260,104078,1,2,0:0:0:0:
306,260,104208,1,0,0:0:0:0:
401,252,104339,6,0,P|431:222|442:164,1,88,6|0,0:0|0:0,0:0:0:0:
326,40,104600,2,0,P|324:143|355:174,1,142.99999345398,0|0,0:0|0:0,0:0:0:0:
413,93,104861,1,0,0:0:0:0:
413,93,104991,1,0,0:0:0:0:
241,156,105121,6,0,B|224:111|232:62|232:62|180:105|103:80,1,214.49999018097,8|0,0:0|0:0,0:0:0:0:
166,214,105415,2,0,P|196:241|320:206,1,178.749991817475,0|0,0:0|0:0,0:0:0:0:
432,145,105643,2,0,B|379:176|379:176|335:143|335:143|308:91|340:22,1,214.49999018097,0|0,3:0|0:0,0:0:0:0:
443,74,105904,5,2,0:0:0:0:
443,74,106165,2,0,L|430:156,1,71.4999967269899,2|0,1:0|0:0,0:0:0:0:
338,142,106295,2,0,L|325:224,1,71.4999967269899,2|0,0:1|0:0,0:0:0:0:
391,299,106426,2,0,B|367:240|367:240|274:226|274:226|235:280,1,214.49999018097,2|0,0:0|0:0,0:0:0:0:
305,354,106687,6,0,L|327:212,1,142.99999345398,8|4,0:0|0:1,0:0:0:0:
338,142,106948,2,0,L|327:213,1,71.4999967269899,0|0,0:0|0:0,0:0:0:0:
237,159,107078,2,0,L|226:230,1,71.4999967269899,4|0,0:1|0:0,0:0:0:0:
292,309,107208,1,2,0:0:0:0:
292,309,107469,6,0,B|226:229|226:229|172:334,1,214.49999018097,2|0,0:0|0:0,0:0:0:0:
124,331,107730,2,0,B|79:384|79:384|43:314,1,142.99999345398,0|0,0:0|0:0,0:0:0:0:
98,233,107991,1,0,0:0:0:0:
98,233,108121,1,0,0:0:0:0:
58,157,108252,6,0,B|98:233|98:233|178:82,1,247.500009441376,8|0,0:0|0:0,0:0:0:0:
303,87,108513,2,0,B|239:103|239:103|173:90|173:90|212:121|229:179,1,214.49999018097,2|0,0:0|0:0,0:0:0:0:
274,233,108774,2,0,B|320:190|320:190|357:215|357:215|366:280|306:314,1,214.49999018097,0|0,3:0|0:0,0:0:0:0:
193,281,109034,6,0,P|180:218|225:151,1,142.99999345398,2|2,0:0|0:1,0:0:0:0:
303,85,109295,6,0,B|264:100|264:100|227:67|227:67|184:93|184:93|146:53,1,192.5,2|0,0:0|0:0,0:0:0:0:
102,35,109817,5,8,0:0:0:0:
102,35,109948,1,4,0:1:0:0:
54,125,110078,2,0,L|64:206,1,71.4999967269899,0|0,3:0|0:0,0:0:0:0:
150,125,110208,2,0,L|160:206,1,71.4999967269899,4|0,0:1|0:0,0:0:0:0:
110,279,110339,1,2,0:0:0:0:
110,279,110469,1,4,0:1:0:0:
212,278,110600,6,0,B|231:226|281:239|281:239|313:270|296:339|244:358,1,214.49999018097,2|0,0:0|0:0,0:0:0:0:
232,154,110861,2,0,P|292:151|384:275,1,214.49999018097,0|0,0:0|0:0,0:0:0:0:
387,309,111121,5,0,0:0:0:0:
387,309,111252,1,0,0:0:0:0:
262,349,111382,6,0,B|199:339|199:339|171:289|171:289|129:323|66:311,1,214.49999018097,8|0,0:0|0:0,0:0:0:0:
53,181,111643,2,0,B|104:227|104:227|131:201|169:199|169:199|158:103,1,214.49999018097,2|0,0:0|0:0,0:0:0:0:
83,59,111904,2,0,B|33:103|53:181|53:181|19:214|25:262,1,214.49999018097,0|0,3:0|0:0,0:0:0:0:
13,356,112165,5,2,0:0:0:0:
13,356,112426,2,0,L|102:349,1,71.4999967269899,2|0,1:0|0:0,0:0:0:0:
127,257,112556,2,0,L|216:264,1,71.4999967269899,2|0,0:1|0:0,0:0:0:0:
290,343,112687,2,0,B|257:297|261:229|261:229|302:260|363:253,1,214.49999018097,2|0,0:0|0:0,0:0:0:0:
400,251,112948,6,0,P|431:194|427:105,1,142.99999345398,8|0,0:0|3:0,0:0:0:0:
321,52,113208,1,2,0:0:0:0:
321,52,113339,1,0,3:0:0:0:
436,46,113469,2,0,L|430:124,1,71.4999967269899,2|0,0:0|0:0,0:0:0:0:
344,182,113600,2,0,L|350:260,1,71.4999967269899,4|0,0:1|0:0,0:0:0:0:
231,329,113730,6,0,B|263:227|263:227|204:202|204:202|211:266,1,214.49999018097,2|0,0:0|0:0,0:0:0:0:
349,253,113991,2,0,B|367:199|322:153|322:153|200:101,1,214.49999018097,0|0,0:0|0:0,0:0:0:0:
178,93,114252,1,0,0:0:0:0:
178,93,114382,1,0,0:0:0:0:
208,245,114513,6,0,B|225:112|225:112|316:150,1,214.49999018097,8|0,0:0|0:0,0:0:0:0:
338,281,114774,2,0,B|296:226|296:226|281:305|281:305|213:337,1,214.49999018097,2|0,0:0|0:0,0:0:0:0:
79,228,115034,2,0,B|209:245|209:245|153:164,1,214.49999018097,0|0,3:0|0:0,0:0:0:0:
175,71,115295,6,0,P|229:70|273:43,1,88,6|4,0:0|3:1,0:0:0:0:
360,35,115556,1,2,0:0:0:0:
326,132,115687,2,0,L|321:195,1,44,8|0,0:0|0:0,0:0:0:0:
306,260,115817,2,0,P|259:242|207:244,1,88,2|4,3:2|3:1,0:0:0:0:
77,195,116078,6,0,P|120:192|161:176,1,88,8|8,0:0|0:0,0:0:0:0:
97,91,116339,1,8,0:0:0:0:
77,195,116469,2,0,L|68:253,2,44,8|8|8,0:0|0:0|0:0,0:0:0:0:
97,91,116730,1,8,0:0:0:0:
201,94,116861,5,6,0:0:0:0:
378,325,123121,6,0,B|337:255|337:255|384:114,1,220,4|2,0:0|0:0,0:0:0:0:
407,44,123513,1,0,0:0:0:0:
407,44,123643,2,0,P|346:46|320:67,1,82.5000031471254,2|0,0:0|0:0,0:0:0:0:
299,134,123904,2,0,L|107:126,2,165.000006294251,0|2|2,0:0|0:0|0:0,0:0:0:0:
299,134,124687,6,0,P|265:156|239:276,1,165.000006294251,2|2,0:0|0:0,0:0:0:0:
299,325,125078,1,0,0:0:0:0:
299,325,125208,2,0,P|319:275|312:239,1,82.5000031471254,0|0,0:0|0:0,0:0:0:0:
383,200,125469,2,0,P|378:133|422:44,1,165.000006294251,2|0,0:0|0:0,0:0:0:0:
423,50,125991,1,2,0:0:0:0:
423,50,126121,1,0,0:0:0:0:
315,72,126252,6,0,L|93:54,1,220,6|0,0:0|3:0,0:0:0:0:
95,54,126643,1,2,0:0:0:0:
85,163,126774,2,0,L|96:41,1,110,8|2,0:0|0:0,0:0:0:0:
193,184,127034,6,0,P|163:243|12:247,1,220,6|0,0:0|0:0,0:0:0:0:
23,255,127426,1,2,0:0:0:0:
13,364,127556,2,0,L|24:242,1,110,8|2,0:0|0:0,0:0:0:0:
185,92,127817,6,0,L|206:328,1,220,6|0,0:0|0:0,0:0:0:0:
204,311,128208,1,8,0:0:0:0:
304,334,128339,2,0,P|238:335|193:295,1,110,2|4,0:0|3:1,0:0:0:0:
351,242,128600,6,0,P|395:283|407:350,1,110,6|0,0:0|0:0,0:0:0:0:
211,213,128861,2,0,P|152:226|108:278,1,110,8|0,0:0|0:0,0:0:0:0:
294,162,129121,2,0,P|253:121|186:116,1,110,2|0,0:0|0:0,1:0:0:0:
37,345,129382,6,0,P|107:353|209:200,1,263.99999194336,6|4,0:0|3:1,0:0:0:0:
46,214,129774,1,0,3:0:0:0:
46,214,129904,2,0,L|37:346,1,131.99999597168,4|2,0:1|0:0,0:0:0:0:
247,351,130165,2,0,B|193:298|211:213|211:213|256:264|342:238,1,263.99999194336,8|4,0:0|0:1,0:0:0:0:
286,150,130556,1,0,3:0:0:0:
286,150,130687,2,0,P|217:116|148:134,1,131.99999597168,0|0,3:0|0:0,0:0:0:0:
46,214,130948,6,0,P|114:202|108:22,1,263.99999194336,2|0,0:0|3:0,0:0:0:0:
256,56,131339,1,0,0:0:0:0:
256,56,131469,2,0,P|326:21|390:27,1,131.99999597168,4|0,3:1|3:0,0:0:0:0:
499,66,131730,2,0,B|438:119|478:205|478:205|421:163|356:204,1,263.99999194336,8|0,0:0|3:1,0:0:0:0:
373,194,132252,1,2,0:0:0:0:
416,287,132382,1,4,0:1:0:0:
328,343,132513,6,0,B|236:291|236:291|159:336|53:316,1,263.99999194336,2|4,0:0|3:1,0:0:0:0:
77,224,132904,1,0,3:0:0:0:
77,224,133034,2,0,P|157:223|215:193,1,131.99999597168,4|0,3:1|3:0,0:0:0:0:
328,113,133295,2,0,P|284:62|88:43,1,263.99999194336,8|2,0:0|0:0,0:0:0:0:
98,37,133817,1,2,0:0:0:0:
42,127,133948,1,4,0:1:0:0:
114,203,134078,6,0,B|225:145|262:267|367:189,1,263.99999194336,2|0,0:0|3:0,0:0:0:0:
297,119,134469,1,0,3:0:0:0:
297,119,134600,2,0,P|221:91|163:88,1,131.99999597168,0|2,3:0|0:0,0:0:0:0:
49,174,134861,2,0,L|66:31,1,131.99999597168,8|0,0:0|3:0,0:0:0:0:
175,171,135121,2,0,L|307:114,1,131.99999597168,4|0,0:1|3:0,0:0:0:0:
215,292,135382,2,0,L|330:378,1,131.99999597168,2|0,0:0|3:0,0:0:0:0:
494,284,135643,6,0,B|374:270|374:270|247:175,1,263.99999194336,2|4,0:0|0:1,0:0:0:0:
221,63,136034,1,0,3:0:0:0:
221,63,136165,2,0,P|257:127|258:193,1,131.99999597168,4|2,0:1|0:0,0:0:0:0:
165,285,136426,2,0,P|198:215|374:234,1,263.99999194336,8|4,0:0|0:1,0:0:0:0:
279,327,136817,1,0,0:0:0:0:
279,327,136948,2,0,P|210:326|158:269,1,131.99999597168,4|0,0:1|0:0,0:0:0:0:
48,171,137208,6,0,B|122:161|143:86|143:86|174:155|264:157,1,263.99999194336,2|0,0:0|3:0,0:0:0:0:
356,20,137600,1,0,3:0:0:0:
356,20,137730,2,0,P|287:22|220:81,1,131.99999597168,4|0,3:1|3:0,0:0:0:0:
303,252,137991,2,0,B|318:114|318:114|365:154|441:163,1,263.99999194336,8|4,0:0|3:1,0:0:0:0:
405,263,138382,1,0,0:0:0:0:
405,263,138513,2,0,P|379:326|303:356,1,131.99999597168,2|4,0:0|0:1,0:0:0:0:
156,104,138774,6,0,P|223:99|300:257,1,263.99999194336,6|0,0:0|3:0,0:0:0:0:
324,354,139165,1,2,0:0:0:0:
185,341,139295,2,0,L|199:190,1,131.99999597168,8|2,0:0|0:0,0:0:0:0:
147,79,139556,2,0,B|197:209|197:209|216:145|279:131|308:139,1,263.99999194336,6|0,0:0|3:0,0:0:0:0:
240,59,139948,1,2,0:0:0:0:
293,239,140078,2,0,P|248:299|170:311,1,131.99999597168,8|4,0:0|0:1,0:0:0:0:
288,137,140339,6,0,B|350:133|400:190|394:244|394:244|426:195|489:202,1,263.99999194336,6|0,0:0|0:0,0:0:0:0:
472,290,140730,1,8,0:0:0:0:
293,239,140861,2,0,L|305:373,1,131.99999597168,2|0,0:0|3:0,0:0:0:0:
191,210,141121,6,0,P|231:152|311:140,1,131.99999597168,8|0,0:0|0:0,0:0:0:0:
394,272,141382,2,0,P|354:330|274:342,1,131.99999597168,8|0,0:0|0:0,0:0:0:0:
293,239,141643,1,2,0:0:0:0:
293,239,141774,1,4,0:1:0:0:
372,167,141904,6,0,B|480:154|480:154|458:67|378:49,1,242.000007385254,6|4,0:0|3:1,0:0:0:0:
283,76,142295,1,0,3:0:0:0:
283,76,142426,2,0,P|341:53|418:61,1,121.000003692627,4|2,3:1|0:0,0:0:0:0:
280,183,142687,2,0,P|212:171|167:130,1,121.000003692627,10|0,0:0|3:0,0:0:0:0:
119,42,142948,2,0,L|108:295,1,242.000007385254,2|0,0:0|3:0,0:0:0:0:
108,283,143339,1,4,0:1:0:0:
212,343,143469,6,0,P|233:282|398:243,1,242.000007385254,2|0,0:0|3:0,0:0:0:0:
479,321,143861,1,4,0:1:0:0:
479,321,143991,2,0,L|489:192,1,121.000003692627,2|4,0:0|0:1,0:0:0:0:
447,103,144252,1,8,0:0:0:0:
447,103,144513,2,0,P|394:42|220:43,1,242.000007385254,4|8,3:1|0:0,0:0:0:0:
241,30,144904,1,4,0:1:0:0:
144,102,145034,6,0,P|214:124|225:285,1,242.000007385254,2|0,0:0|3:0,0:0:0:0:
34,250,145426,1,0,3:0:0:0:
34,250,145556,2,0,L|155:209,1,121.000003692627,4|4,3:1|0:1,0:0:0:0:
307,337,145817,2,0,P|225:337|150:206,1,242.000007385254,2|2,0:0|0:0,0:0:0:0:
166,91,146208,1,4,0:1:0:0:
166,91,146339,1,8,0:0:0:0:
166,91,146469,1,4,0:1:0:0:
256,171,146600,6,0,B|419:152|419:152|343:114,1,242.000007385254,2|0,0:0|3:0,0:0:0:0:
399,258,146991,2,0,B|236:277|236:277|312:315,1,242.000007385254,8|0,0:0|0:0,0:0:0:0:
414,378,147382,1,8,0:0:0:0:
414,378,147513,1,4,0:1:0:0:
399,258,147643,2,0,L|405:129,1,121.000003692627,2|4,0:0|0:1,0:0:0:0:
414,15,147904,1,4,3:1:0:0:
414,15,148165,6,0,L|503:23,2,82.5000031471254,0|0|0,3:0|3:0|3:0,0:0:0:0:
340,81,148556,1,0,3:0:0:0:
340,81,148687,2,0,L|251:89,2,82.5000031471254,0|0|0,3:0|3:0|3:0,0:0:0:0:
256,192,149730,12,4,155208,0:0:0:0:
