osu file format v14

[General]
AudioFilename: audio.mp3
AudioLeadIn: 0
PreviewTime: 58952
Countdown: 0
SampleSet: Soft
StackLeniency: 0.4
Mode: 0
LetterboxInBreaks: 0
WidescreenStoryboard: 1

[Editor]
Bookmarks: 80600,133295,147909
DistanceSpacing: 0.2
BeatDivisor: 4
GridSize: 4
TimelineZoom: 1.2

[Metadata]
Title:Sky of the Ocean
TitleUnicode:Sky of the Ocean
Artist:Memme
ArtistUnicode:Memme
Creator:Syph
Version:Emilia's Insane.
Source:O2Jam U
Tags:parkmemme m2u cheesecake [c_u_r_i] -tochi snownino_ emilia xlolicore- hikaru_rose moecho moeri derandom_otaku
BeatmapID:1429743
BeatmapSetID:668888

[Difficulty]
HPDrainRate:5.5
CircleSize:3.5
OverallDifficulty:7
ApproachRate:9
SliderMultiplier:1.8
SliderTickRate:1

[Events]
//Background and Video events
0,0,"bg.jpg",0,0
//Break Periods
2,117061,122476
//Storyboard Layer 0 (Background)
//Storyboard Layer 1 (Fail)
//Storyboard Layer 2 (Pass)
//Storyboard Layer 3 (Foreground)
//Storyboard Sound Samples

[TimingPoints]
1035,260.869565217391,3,2,1,30,1,0
3382,-100,3,2,1,40,0,0
4165,-90.9090909090909,3,2,1,70,0,0
10426,-133.333333333333,3,2,1,70,0,0
10687,-133.333333333333,3,2,0,30,0,0
11991,-133.333333333333,3,2,1,70,0,0
13295,-133.333333333333,3,2,1,30,0,0
13556,-133.333333333333,3,2,1,70,0,0
14861,-133.333333333333,3,2,1,30,0,0
15121,-133.333333333333,3,2,1,70,0,0
16426,-133.333333333333,3,2,1,30,0,0
16687,-133.333333333333,3,2,1,70,0,0
19556,-133.333333333333,3,2,1,30,0,0
19817,-133.333333333333,3,2,1,70,0,0
22687,-133.333333333333,3,2,1,30,0,0
22948,-133.333333333333,3,2,1,70,0,0
24513,-111.111111111111,3,2,1,70,0,0
37034,-100,3,2,1,70,0,0
58948,-90.9090909090909,3,2,1,70,0,1
68339,-83.3333333333333,3,2,1,70,0,1
70621,-83.3333333333333,3,2,1,70,0,0
70687,-83.3333333333333,3,2,1,70,0,1
71404,-83.3333333333333,3,2,1,70,0,0
71469,-90.9090909090909,3,2,1,70,0,1
77665,-90.9090909090909,3,2,1,70,0,1
77731,-90.9090909090909,3,2,1,70,0,1
80861,-90.9090909090909,3,2,1,70,0,1
83991,-90.9090909090909,3,2,1,70,0,0
89991,-133.333333333333,3,2,1,70,0,0
90252,-76.9230769230769,3,2,1,70,0,1
90448,-76.9230769230769,3,2,1,70,0,1
90513,-76.9230769230769,3,2,1,70,0,1
90969,-76.9230769230769,3,2,1,70,0,1
91034,-76.9230769230769,3,2,1,70,0,1
91882,-76.9230769230769,3,2,1,70,0,1
91948,-76.9230769230769,3,2,1,70,0,1
92274,-76.9230769230769,3,2,1,5,0,1
92339,-76.9230769230769,3,2,1,70,0,1
92404,-76.9230769230769,3,2,1,5,0,1
92469,-76.9230769230769,3,2,1,70,0,1
92534,-76.9230769230769,3,2,1,5,0,1
92600,-66.6666666666667,3,2,1,70,0,1
92795,-66.6666666666667,3,2,1,5,0,1
92861,-66.6666666666667,3,2,1,70,0,1
93056,-66.6666666666667,3,2,1,5,0,1
93121,-66.6666666666667,3,2,1,70,0,1
93317,-66.6666666666667,3,2,1,5,0,1
93382,-76.9230769230769,3,2,1,70,0,1
93448,-76.9230769230769,3,2,1,70,0,1
93513,-76.9230769230769,3,2,1,70,0,1
93578,-76.9230769230769,3,2,1,70,0,1
93643,-76.9230769230769,3,2,1,70,0,1
93708,-76.9230769230769,3,2,1,70,0,1
93773,-76.9230769230769,3,2,1,70,0,1
93839,-76.9230769230769,3,2,1,70,0,1
93904,-76.9230769230769,3,2,1,70,0,1
94100,-76.9230769230769,3,2,1,70,0,1
94165,-76.9230769230769,3,2,1,70,0,1
94230,-76.9230769230769,3,2,1,70,0,1
94295,-76.9230769230769,3,2,1,70,0,1
94361,-76.9230769230769,3,2,1,70,0,1
94426,-76.9230769230769,3,2,1,70,0,1
94491,-76.9230769230769,3,2,1,70,0,1
94556,-76.9230769230769,3,2,1,70,0,1
94621,-76.9230769230769,3,2,1,5,0,1
94687,-76.9230769230769,3,2,1,70,0,1
94882,-76.9230769230769,3,2,1,5,0,1
94948,-76.9230769230769,3,2,1,70,0,1
95013,-76.9230769230769,3,2,1,70,0,1
95078,-76.9230769230769,3,2,1,70,0,1
95404,-76.9230769230769,3,2,1,5,0,1
95469,-76.9230769230769,3,2,1,70,0,1
95470,-76.9230769230769,3,2,1,70,0,1
95534,-76.9230769230769,3,2,1,5,0,1
95600,-76.9230769230769,3,2,1,70,0,1
95665,-76.9230769230769,3,2,1,5,0,1
95730,-66.6666666666667,3,2,1,70,0,1
95926,-66.6666666666667,3,2,1,5,0,1
95991,-66.6666666666667,3,2,1,70,0,1
96187,-66.6666666666667,3,2,1,5,0,1
96251,-66.6666666666667,3,2,1,5,0,1
96252,-66.6666666666667,3,2,1,70,0,1
96448,-66.6666666666667,3,2,1,5,0,1
96513,-66.6666666666667,3,2,1,70,0,1
96578,-66.6666666666667,3,2,1,70,0,1
96643,-66.6666666666667,3,2,1,70,0,1
96708,-66.6666666666667,3,2,1,70,0,1
96774,-66.6666666666667,3,2,1,70,0,1
96969,-66.6666666666667,3,2,1,5,0,1
97034,-66.6666666666667,3,2,1,70,0,1
97230,-66.6666666666667,3,2,1,70,0,1
97295,-76.9230769230769,3,2,1,70,0,1
98143,-76.9230769230769,3,2,1,70,0,1
98208,-76.9230769230769,3,2,1,70,0,1
98534,-76.9230769230769,3,2,1,5,0,1
98600,-76.9230769230769,3,2,1,70,0,1
98665,-76.9230769230769,3,2,1,5,0,1
98730,-76.9230769230769,3,2,1,70,0,1
98795,-76.9230769230769,3,2,1,5,0,1
98861,-66.6666666666667,3,2,1,70,0,1
99056,-66.6666666666667,3,2,1,5,0,1
99121,-66.6666666666667,3,2,1,70,0,1
99122,-66.6666666666667,3,2,1,70,0,1
99317,-66.6666666666667,3,2,1,5,0,1
99382,-66.6666666666667,3,2,1,70,0,1
99383,-66.6666666666667,3,2,1,70,0,1
99578,-66.6666666666667,3,2,1,5,0,1
99643,-76.9230769230769,3,2,1,70,0,1
99708,-76.9230769230769,3,2,1,70,0,1
99774,-76.9230769230769,3,2,1,70,0,1
99839,-76.9230769230769,3,2,1,70,0,1
99905,-76.9230769230769,3,2,1,70,0,1
99969,-76.9230769230769,3,2,1,70,0,1
100035,-76.9230769230769,3,2,1,70,0,1
100100,-76.9230769230769,3,2,1,70,0,1
100166,-76.9230769230769,3,2,1,70,0,1
100361,-76.9230769230769,3,2,1,70,0,1
100426,-76.9230769230769,3,2,1,70,0,1
100491,-76.9230769230769,3,2,1,70,0,1
100556,-76.9230769230769,3,2,1,70,0,1
100621,-76.9230769230769,3,2,1,70,0,1
100686,-76.9230769230769,3,2,1,70,0,1
100752,-76.9230769230769,3,2,1,70,0,1
100817,-76.9230769230769,3,2,1,70,0,1
100882,-76.9230769230769,3,2,1,5,0,1
100948,-76.9230769230769,3,2,1,70,0,1
101143,-76.9230769230769,3,2,1,70,0,1
101208,-76.9230769230769,3,2,1,70,0,1
101274,-76.9230769230769,3,2,1,70,0,1
101339,-76.9230769230769,3,2,1,70,0,1
101665,-76.9230769230769,3,2,1,5,0,1
101730,-76.9230769230769,3,2,1,70,0,1
101795,-76.9230769230769,3,2,1,5,0,1
101861,-76.9230769230769,3,2,1,70,0,1
101926,-76.9230769230769,3,2,1,5,0,1
101991,-133.333333333333,3,2,1,70,0,0
102056,-133.333333333333,3,2,1,20,0,0
102708,-133.333333333333,3,2,1,5,0,0
102774,-83.3333333333333,3,2,1,70,0,1
104339,-76.9230769230769,3,2,1,70,0,1
104534,-76.9230769230769,3,2,1,5,0,1
104600,-76.9230769230769,3,2,1,70,0,1
104795,-76.9230769230769,3,2,1,5,0,1
104861,-76.9230769230769,3,2,1,70,0,1
104926,-76.9230769230769,3,2,1,5,0,1
104991,-76.9230769230769,3,2,1,70,0,1
105056,-76.9230769230769,3,2,1,5,0,1
105121,-76.9230769230769,3,2,1,70,0,1
105317,-76.9230769230769,3,2,1,5,0,1
105382,-76.9230769230769,3,2,1,70,0,1
105578,-76.9230769230769,3,2,1,5,0,1
105643,-76.9230769230769,3,2,1,70,0,1
105839,-76.9230769230769,3,2,1,5,0,1
105904,-76.9230769230769,3,2,1,70,0,1
106100,-76.9230769230769,3,2,1,5,0,1
106165,-76.9230769230769,3,2,1,70,0,1
106230,-76.9230769230769,3,2,1,70,0,1
106295,-76.9230769230769,3,2,1,70,0,1
106361,-76.9230769230769,3,2,1,70,0,1
106426,-76.9230769230769,3,2,1,70,0,1
106621,-76.9230769230769,3,2,1,70,0,1
106687,-76.9230769230769,3,2,1,70,0,1
106752,-76.9230769230769,3,2,1,70,0,1
106817,-76.9230769230769,3,2,1,70,0,1
106882,-76.9230769230769,3,2,1,70,0,1
106947,-76.9230769230769,3,2,1,70,0,1
107013,-76.9230769230769,3,2,1,70,0,1
107078,-76.9230769230769,3,2,1,70,0,1
107143,-76.9230769230769,3,2,1,70,0,1
107208,-76.9230769230769,3,2,1,70,0,1
107665,-76.9230769230769,3,2,1,5,0,1
107730,-76.9230769230769,3,2,1,70,0,1
107926,-76.9230769230769,3,2,1,5,0,1
107991,-76.9230769230769,3,2,1,70,0,1
108056,-76.9230769230769,3,2,1,5,0,1
108121,-76.9230769230769,3,2,1,70,0,1
108187,-76.9230769230769,3,2,1,5,0,1
108251,-76.9230769230769,3,2,1,5,0,1
108252,-76.9230769230769,3,2,1,70,0,1
108448,-76.9230769230769,3,2,1,5,0,1
108512,-76.9230769230769,3,2,1,5,0,1
108513,-76.9230769230769,3,2,1,70,0,1
108708,-76.9230769230769,3,2,1,5,0,1
108774,-76.9230769230769,3,2,1,70,0,1
108969,-76.9230769230769,3,2,1,5,0,1
109034,-76.9230769230769,3,2,1,70,0,1
109491,-76.9230769230769,3,2,1,5,0,1
109556,-76.9230769230769,3,2,1,70,0,1
109557,-76.9230769230769,3,2,1,70,0,1
109752,-76.9230769230769,3,2,1,5,0,1
109817,-76.9230769230769,3,2,1,70,0,1
109882,-76.9230769230769,3,2,1,70,0,1
109948,-76.9230769230769,3,2,1,70,0,1
110013,-76.9230769230769,3,2,1,70,0,1
110079,-76.9230769230769,3,2,1,70,0,1
110143,-76.9230769230769,3,2,1,70,0,1
110209,-76.9230769230769,3,2,1,70,0,1
110274,-76.9230769230769,3,2,1,5,0,1
110339,-76.9230769230769,3,2,1,70,0,1
110340,-76.9230769230769,3,2,1,70,0,1
110404,-76.9230769230769,3,2,1,5,0,1
110469,-76.9230769230769,3,2,1,70,0,1
110470,-76.9230769230769,3,2,1,70,0,1
110534,-76.9230769230769,3,2,1,70,0,1
110600,-76.9230769230769,3,2,1,70,0,1
110795,-76.9230769230769,3,2,1,5,0,1
110861,-76.9230769230769,3,2,1,70,0,1
111056,-76.9230769230769,3,2,1,5,0,1
111121,-76.9230769230769,3,2,1,70,0,1
111187,-76.9230769230769,3,2,1,5,0,1
111252,-76.9230769230769,3,2,1,70,0,1
111317,-76.9230769230769,3,2,1,5,0,1
111382,-76.9230769230769,3,2,1,70,0,1
111578,-76.9230769230769,3,2,1,5,0,1
111643,-76.9230769230769,3,2,1,70,0,1
111839,-76.9230769230769,3,2,1,5,0,1
111904,-76.9230769230769,3,2,1,70,0,1
112100,-76.9230769230769,3,2,1,5,0,1
112165,-76.9230769230769,3,2,1,70,0,1
112491,-76.9230769230769,3,2,1,70,0,1
112556,-76.9230769230769,3,2,1,70,0,1
112621,-76.9230769230769,3,2,1,70,0,1
112687,-76.9230769230769,3,2,1,70,0,1
112882,-76.9230769230769,3,2,1,70,0,1
112948,-76.9230769230769,3,2,1,70,0,1
113926,-76.9230769230769,3,2,1,5,0,1
113991,-76.9230769230769,3,2,1,70,0,1
114187,-76.9230769230769,3,2,1,5,0,1
114252,-76.9230769230769,3,2,1,70,0,1
114317,-76.9230769230769,3,2,1,5,0,1
114382,-76.9230769230769,3,2,1,70,0,1
114448,-76.9230769230769,3,2,1,5,0,1
114513,-76.9230769230769,3,2,1,70,0,1
114708,-76.9230769230769,3,2,1,5,0,1
114774,-76.9230769230769,3,2,1,70,0,1
114969,-76.9230769230769,3,2,1,5,0,1
115034,-76.9230769230769,3,2,1,70,0,1
115230,-76.9230769230769,3,2,1,5,0,1
115295,-76.9230769230769,3,2,1,70,0,1
115296,-76.9230769230769,3,2,1,70,0,1
116861,-100,3,2,1,70,0,0
123121,-90.9090909090909,3,2,1,70,0,0
123122,-90.9090909090909,3,2,1,70,0,0
126252,-83.3333333333333,3,2,1,70,0,0
127361,-83.3333333333333,3,2,1,70,0,0
127426,-83.3333333333333,3,2,1,70,0,0
128143,-83.3333333333333,3,2,1,70,0,0
128208,-83.3333333333333,3,2,1,70,0,0
129382,-76.9230769230769,3,2,1,70,0,1
138969,-76.9230769230769,3,2,1,70,0,1
139034,-76.9230769230769,3,2,1,70,0,1
139752,-76.9230769230769,3,2,1,70,0,1
139817,-76.9230769230769,3,2,1,70,0,1
140665,-76.9230769230769,3,2,1,70,0,1
140730,-76.9230769230769,3,2,1,70,0,1
141904,-90.9090909090909,3,2,1,70,0,0
144708,-90.9090909090909,3,2,1,70,0,0
144774,-90.9090909090909,3,2,1,70,0,0
146274,-90.9090909090909,3,2,1,5,0,0
146339,-90.9090909090909,3,2,1,70,0,0
146404,-90.9090909090909,3,2,1,5,0,0
146469,-90.9090909090909,3,2,1,70,0,0
146534,-90.9090909090909,3,2,1,5,0,0
146600,-90.9090909090909,3,2,1,70,0,0
152861,-90.9090909090909,3,2,1,70,0,0

[Colours]
Combo1 : 82,179,186
Combo2 : 112,142,173
Combo3 : 115,157,155
Combo4 : 16,154,237
Combo5 : 33,199,222
Combo6 : 73,141,197

[HitObjects]
49,186,3382,6,0,L|204:173,1,135,8|0,0:3|1:0,0:0:0:0:
215,199,3643,2,0,P|234:239|224:300,1,90,0|0,1:0|0:0,0:0:0:0:
150,258,3904,1,0,0:0:0:0:
316,221,4034,1,0,0:0:0:0:
246,124,4165,6,0,B|305:130|305:130|330:143|330:143|394:150,1,148.50000453186,2|0,0:0|0:0,0:0:0:0:
429,130,4426,2,0,P|445:87|431:37,1,99.0000030212403,0|0,1:0|0:0,0:0:0:0:
340,55,4687,1,0,0:0:0:0:
329,52,4752,1,0,0:0:0:0:
319,51,4817,1,0,1:0:0:0:
398,234,4948,2,0,L|514:226,1,99.0000030212403,8|0,0:0|0:0,0:0:0:0:
314,219,5208,2,0,B|280:255|278:320|302:361|302:361|277:342|256:298,1,198.000006042481,0|0,1:0|0:0,0:0:0:0:
214,214,5600,1,0,1:0:0:0:
126,204,5730,6,0,B|-28:185|-28:185|39:223,1,198.000006042481,2|0,0:0|0:0,0:0:0:0:
157,297,6121,1,0,1:0:0:0:
63,384,6252,2,0,P|55:344|75:284,1,99.0000030212403,0|0,0:0|1:0,0:0:0:0:
215,225,6513,1,8,0:0:0:0:
171,379,6643,1,0,0:0:0:0:
168,141,6774,2,0,L|285:137,1,99.0000030212403,0|0,1:0|0:0,0:0:0:0:
438,260,7034,2,0,P|360:251|330:206,1,99.0000030212403,2|0,0:0|0:0,0:0:0:0:
415,55,7295,5,6,0:0:0:0:
408,188,7426,1,0,0:0:0:0:
338,93,7556,2,0,P|332:43|354:-4,1,99.0000030212403,0|0,1:0|1:0,0:0:0:0:
252,61,7817,2,0,P|182:97|100:50,1,148.50000453186,0|0,0:0|0:0,0:0:0:0:
96,59,8078,2,0,P|49:48|-10:79,1,99.0000030212403,8|0,0:0|0:0,0:0:0:0:
19,249,8339,1,0,0:0:0:0:
55,129,8469,1,0,1:0:0:0:
132,290,8600,2,0,P|143:335|118:401,1,99.0000030212403,0|0,0:0|1:0,0:0:0:0:
33,265,8861,5,2,0:0:0:0:
220,287,8991,1,0,0:0:0:0:
156,111,9121,2,0,P|143:165|163:218,1,99.0000030212403,0|8,1:0|0:0,0:0:0:0:
336,323,9382,2,0,L|345:162,1,148.50000453186,2|0,0:0|0:0,0:0:0:0:
327,147,9643,2,0,P|389:149|433:177,1,99.0000030212403,8|0,0:0|1:0,0:0:0:0:
243,150,9904,2,0,L|237:30,1,99.0000030212403,2|0,0:0|0:0,0:0:0:0:
227,247,10165,2,0,P|177:284|85:250,1,148.50000453186,4|0,0:0|0:0,0:0:0:0:
72,250,10426,6,0,P|31:248|-11:262,1,67.5000025749208,0|0,0:0|0:0,0:0:0:0:
153,203,10687,2,0,P|163:165|161:126,1,67.5000025749208,0|2,0:0|0:0,0:0:0:0:
73,153,10948,1,0,1:0:0:0:
56,170,11208,2,0,L|50:38,1,101.250003862381,8|0,0:3|1:0,0:0:0:0:
36,47,11469,2,0,L|115:51,1,67.5000025749208,0|2,1:0|0:0,0:0:0:0:
194,29,11730,2,0,L|243:26,3,33.7500012874604,2|0|2|0,0:0|0:0|0:0|0:0,0:0:0:0:
256,38,11991,6,0,P|317:52|378:-2,2,135.000005149842,6|0|0,1:2|0:0|0:0,0:0:0:0:
167,106,12774,2,0,P|134:142|142:231,1,135.000005149842,0|0,1:0|0:0,0:0:0:0:
220,309,13295,2,0,L|228:199,1,101.250003862381,4|0,0:0|0:0,0:0:0:0:
214,181,13556,6,0,P|253:170|301:176,1,67.5000025749208,0|0,0:0|0:0,0:0:0:0:
331,94,13817,2,0,P|360:122|378:166,1,67.5000025749208,0|0,0:0|0:0,0:0:0:0:
464,150,14078,2,0,P|454:189|424:227,1,67.5000025749208,0|0,0:0|0:0,0:0:0:0:
394,282,14339,2,0,P|449:296|513:255,1,135.000005149842,0|0,1:0|0:0,0:0:0:0:
310,224,14861,2,0,P|294:262|289:306,1,67.5000025749208,4|0,0:0|0:0,0:0:0:0:
211,350,15121,6,0,P|159:366|83:302,2,135.000005149842,0|0|0,0:0|0:0|0:0,0:0:0:0:
202,223,15904,2,0,L|43:230,2,135.000005149842,0|0|4,1:0|0:0|0:0,0:0:0:0:
284,363,16687,6,0,P|309:300|272:234,1,135.000005149842,0|0,0:0|0:0,0:0:0:0:
226,304,17208,1,0,0:0:0:0:
388,324,17469,2,0,P|439:333|508:277,1,135.000005149842,0|0,1:0|0:0,0:0:0:0:
468,99,17991,2,0,P|456:142|460:179,1,67.5000025749208,0|0,0:0|0:0,0:0:0:0:
376,121,18252,6,0,P|330:89|247:111,2,135.000005149842,0|0|0,0:0|0:0|0:0,0:0:0:0:
214,175,19034,2,0,L|50:166,2,135.000005149842,0|0|4,1:0|0:0|0:0,0:0:0:0:
386,206,19817,6,0,P|364:265|404:335,1,135.000005149842,0|0,0:0|0:0,0:0:0:0:
450,263,20339,1,0,0:0:0:0:
297,322,20600,2,0,P|250:354|166:327,1,135.000005149842,0|0,1:0|0:0,0:0:0:0:
230,274,21121,1,0,0:0:0:0:
78,361,21382,6,0,L|86:212,1,135.000005149842,0|0,0:0|1:0,0:0:0:0:
89,142,21774,1,0,3:0:0:0:
171,110,21904,2,0,P|174:157|165:185,1,67.5000025749208,0|0,0:0|0:0,0:0:0:0:
101,62,22165,2,0,P|173:29|242:67,1,135.000005149842,0|0,1:0|0:0,0:0:0:0:
278,109,22556,1,0,0:0:0:0:
356,152,22687,2,0,P|400:162|446:149,1,67.5000025749208,4|0,0:0|0:0,0:0:0:0:
409,15,22948,6,0,L|400:100,1,67.5000025749208,0|0,3:0|1:0,0:0:0:0:
494,206,23208,2,0,P|507:160|494:117,1,67.5000025749208,0|2,0:0|1:3,0:0:0:0:
402,239,23469,1,0,0:0:0:0:
440,325,23600,1,0,3:0:0:0:
356,363,23730,2,0,P|282:371|236:302,1,135.000005149842,0|8,1:0|0:3,0:0:0:0:
51,260,24252,2,0,P|62:303|39:366,1,101.250003862381,0|0,0:0|0:0,0:0:0:0:
23,379,24513,6,0,L|33:205,1,161.999995056153,2|0,0:0|0:0,0:0:0:0:
37,129,24904,1,0,0:0:0:0:
129,27,25034,2,0,P|135:84|112:131,1,80.9999975280763,0|0,0:0|0:0,0:0:0:0:
172,231,25295,2,0,P|235:248|310:177,2,161.999995056153,0|0|2,1:0|0:0|0:3,0:0:0:0:
37,129,26078,6,0,B|118:112|110:157|207:135,1,161.999995056153,0|0,0:0|0:0,0:0:0:0:
385,9,26600,2,0,P|368:47|369:101,1,80.9999975280763
421,215,26861,2,0,P|478:163|440:78,1,161.999995056153,0|0,1:0|0:0,0:0:0:0:
320,177,27382,2,0,P|254:182|215:204,1,80.9999975280763,2|0,0:3|0:0,0:0:0:0:
380,384,27643,6,0,L|392:221,1,161.999995056153,2|0,0:0|0:0,0:0:0:0:
399,136,28034,1,0,0:0:0:0:
452,0,28165,2,0,P|465:46|455:100,1,80.9999975280763,0|0,0:0|0:0,0:0:0:0:
314,155,28426,2,0,B|221:172|245:135|150:149,2,161.999995056153,0|0|2,1:0|0:0|0:3,0:0:0:0:
71,287,29208,6,0,P|79:231|89:205,1,80.9999975280763
199,229,29469,2,0,P|211:267|215:307,1,80.9999975280763
27,142,29730,2,0,P|88:119|139:125,1,80.9999975280763
328,93,29991,2,0,P|272:148|191:128,1,161.999995056153,0|0,1:0|0:0,0:0:0:0:
346,284,30513,2,0,P|361:332|356:382,1,80.9999975280763,2|0,0:3|0:0,0:0:0:0:
195,324,30774,6,0,L|282:332,1,80.9999975280763,4|0,0:0|0:0,0:0:0:0:
440,285,31034,2,0,P|452:233|444:192,1,80.9999975280763,0|0,0:0|0:0,0:0:0:0:
351,71,31295,2,0,L|345:204,1,121.499996292114,0|0,0:0|0:0,0:0:0:0:
347,224,31556,2,0,P|296:202|237:212,1,80.9999975280763,0|0,1:0|0:0,0:0:0:0:
129,302,31817,2,0,P|169:298|204:279,1,80.9999975280763,0|0,0:0|0:0,0:0:0:0:
196,155,32078,1,2,0:3:0:0:
84,120,32208,1,0,0:0:0:0:
262,31,32339,6,0,P|271:75|265:118,1,80.9999975280763,4|0,0:0|0:0,0:0:0:0:
99,15,32600,2,0,L|197:21,1,80.9999975280763,0|0,0:0|1:0,0:0:0:0:
353,75,32861,2,0,P|409:86|462:44,1,121.499996292114,2|0,0:3|0:0,0:0:0:0:
475,24,33121,2,0,P|509:72|506:131,1,80.9999975280763,0|0,1:0|0:0,0:0:0:0:
306,234,33382,2,0,P|316:195|343:165,1,80.9999975280763,0|0,1:0|0:0,0:0:0:0:
487,214,33643,2,0,L|498:349,1,121.499996292114,0|0,0:0|0:0,0:0:0:0:
470,363,33904,6,0,P|406:377|344:303,1,161.999995056153,4|0,0:0|1:0,0:0:0:0:
264,373,34295,1,0,3:0:0:0:
177,339,34426,2,0,P|115:348|85:375,1,80.9999975280763,0|0,0:0|3:0,0:0:0:0:
252,284,34687,2,0,B|276:197|229:210|258:115,2,161.999995056153,0|0|2,1:0|0:0|0:3,0:0:0:0:
169,240,35339,1,0,0:0:0:0:
83,287,35469,6,0,P|73:245|83:198,1,80.9999975280763,0|0,0:0|1:0,0:0:0:0:
65,296,35861,6,0,P|55:254|65:207,1,80.9999975280763,2|0,0:3|0:0,0:0:0:0:
47,305,36252,6,0,P|37:263|54:167,1,121.499996292114,8|0,0:3|0:0,0:0:0:0:
31,164,36513,2,0,L|134:173,1,80.9999975280763,2|2,0:0|0:0,0:0:0:0:
267,179,36774,1,0,1:0:0:0:
159,248,36904,1,0,1:0:0:0:
207,117,37034,6,0,P|272:94|352:195,1,180,6|0,0:0|1:0,0:0:0:0:
314,259,37426,1,0,0:0:0:0:
219,384,37556,2,0,P|215:339|228:296,1,90,0|0,1:0|1:0,0:0:0:0:
400,235,37817,1,8,0:0:0:0:
410,366,37948,1,0,1:0:0:0:
497,244,38078,2,0,L|507:153,1,90,0|0,1:0|0:0,0:0:0:0:
418,105,38339,1,2,0:0:0:0:
345,172,38469,1,0,1:0:0:0:
310,44,38600,6,0,B|243:39|243:39|206:44|206:44|121:37,1,180,2|0,0:0|1:0,0:0:0:0:
89,155,38991,1,0,0:0:0:0:
158,206,39121,2,0,P|174:156|163:107,1,90,0|0,1:0|0:0,0:0:0:0:
22,202,39382,2,0,L|12:338,1,135,8|0,0:0|0:0,0:0:0:0:
0,366,39643,2,0,P|64:365|103:329,1,90,0|0,1:0|1:0,0:0:0:0:
171,309,39904,1,2,0:0:0:0:
262,359,40034,1,0,0:0:0:0:
386,308,40165,6,0,P|403:257|391:210,1,90,6|0,0:0|0:0,0:0:0:0:
283,130,40426,2,0,B|353:117|341:153|422:138,1,135,0|0,1:0|0:0,0:0:0:0:
436,115,40687,2,0,P|448:67|435:22,1,90,0|0,1:0|0:0,0:0:0:0:
336,53,40948,1,8,0:0:0:0:
312,203,41078,1,0,1:0:0:0:
128,206,41208,2,0,P|183:184|236:193,1,90,0|0,1:0|0:0,0:0:0:0:
383,250,41469,2,0,P|331:288|253:268,1,135,2|0,0:3|0:0,0:0:0:0:
230,269,41730,6,0,P|241:347|232:391,1,90,6|0,0:0|0:0,0:0:0:0:
85,383,41991,2,0,P|84:338|94:294,1,90,0|0,1:0|1:0,0:0:0:0:
144,212,42252,1,0,1:0:0:0:
17,262,42382,1,0,0:0:0:0:
12,119,42513,2,0,P|56:119|104:142,1,90,8|2,0:0|0:3,0:0:0:0:
257,88,42774,2,0,P|194:96|134:25,1,135,2|0,0:0|0:0,0:0:0:0:
124,28,43034,2,0,P|190:12|244:24,1,90,2|0,0:0|0:0,0:0:0:0:
335,46,43295,6,0,B|433:68|419:15|532:43,1,180,6|0,0:0|0:0,0:0:0:0:
470,122,43687,1,0,1:0:0:0:
394,264,43817,2,0,P|386:220|399:172,1,90,0|0,0:0|1:0,0:0:0:0:
489,320,44078,1,8,0:0:0:0:
406,383,44208,1,0,0:0:0:0:
306,323,44339,2,0,L|197:313,1,90,0|0,1:0|0:0,0:0:0:0:
129,265,44600,1,0,1:0:0:0:
57,327,44730,1,0,0:0:0:0:
6,181,44861,6,0,P|92:202|147:107,2,180,2|0|0,0:0|0:0|0:0,0:0:0:0:
85,77,45513,1,0,1:0:0:0:
157,20,45643,2,0,L|331:29,1,135,8|0,0:0|0:0,0:0:0:0:
325,18,45904,2,0,P|295:82|295:120,1,90,0|0,1:0|1:0,0:0:0:0:
457,144,46165,2,0,P|448:99|425:61,1,90,2|0,0:0|0:0,0:0:0:0:
256,186,46426,6,0,L|373:175,1,90,6|0,0:0|0:0,0:0:0:0:
433,256,46687,1,0,1:0:0:0:
396,341,46817,1,0,0:0:0:0:
293,285,46948,2,0,P|223:277|171:328,1,135,0|0,0:0|0:0,0:0:0:0:
166,350,47208,1,8,0:0:0:0:
32,303,47339,1,0,0:0:0:0:
96,186,47469,2,0,P|114:238|111:282,1,90,0|0,1:0|0:0,0:0:0:0:
79,99,47730,2,0,P|133:109|169:134,1,90,0|0,1:0|0:0,0:0:0:0:
1,62,47991,6,0,L|195:45,1,180,6|0,0:0|0:0,0:0:0:0:
261,105,48382,1,8,0:0:0:0:
325,23,48513,1,2,0:0:0:0:
421,154,48643,1,2,0:0:0:0:
492,53,48774,6,0,L|435:60,1,45,8|0,0:0|0:0,0:0:0:0:
512,65,49034,6,0,L|346:85,1,135,8|0,0:0|0:0,0:0:0:0:
356,100,49295,2,0,P|339:149|354:205,1,90,6|0,0:0|0:0,0:0:0:0:
451,380,49556,6,0,P|481:334|416:231,1,180,6|0,0:0|0:0,0:0:0:0:
398,314,49948,1,0,1:0:0:0:
310,365,50078,2,0,L|167:361,1,135,0|0,1:0|0:0,0:0:0:0:
136,358,50339,1,8,0:0:0:0:
42,378,50469,1,0,1:0:0:0:
153,200,50600,2,0,P|171:256|154:303,1,90,0|0,1:0|0:0,0:0:0:0:
95,138,50861,2,0,P|145:118|233:172,1,135,0|0,0:0|0:0,0:0:0:0:
245,161,51121,6,0,B|343:182|327:126|433:157,2,180,2|0|0,0:0|1:0|1:0,0:0:0:0:
287,71,51774,1,0,0:0:0:0:
359,17,51904,2,0,P|378:68|364:124,1,90,8|0,0:0|0:0,0:0:0:0:
280,243,52165,2,0,P|266:302|297:373,1,135,2|0,0:3|0:0,0:0:0:0:
333,373,52426,2,0,L|435:379,1,90,2|0,0:0|0:0,0:0:0:0:
186,348,52687,6,0,B|153:332|109:339|109:339|81:369|36:375|4:355,1,180,2|0,0:0|0:0,0:0:0:0:
41,280,53078,1,0,1:0:0:0:
141,256,53208,2,0,P|198:264|247:295,1,90,0|0,0:0|1:0,0:0:0:0:
293,368,53469,1,8,0:0:0:0:
380,317,53600,1,0,1:0:0:0:
497,377,53730,2,0,P|503:309|486:276,1,90,0|0,1:0|0:0,0:0:0:0:
383,195,53991,2,0,P|358:142|384:68,1,135,2|0,0:3|0:0,0:0:0:0:
414,50,54252,6,0,L|211:39,2,180,2|0|0,0:0|1:0|0:0,0:0:0:0:
217,140,55034,2,0,P|163:146|114:113,1,90,8|0,0:0|0:0,0:0:0:0:
311,90,55295,2,0,P|357:115|364:238,1,180,0|2,1:0|0:0,0:0:0:0:
44,288,55817,6,0,B|143:267|122:317|233:289,1,180,6|0,0:0|0:0,0:0:0:0:
177,210,56208,1,2,0:0:0:0:
222,130,56339,2,0,P|171:117|118:135,1,90,8|0,0:0|0:0,0:0:0:0:
274,215,56600,2,0,P|310:177|321:122,1,90,6|0,0:0|0:0,0:0:0:0:
299,49,56861,1,0,0:0:0:0:
406,123,56991,1,2,0:0:0:0:
512,26,57121,2,0,P|461:25|409:51,1,90,8|0,0:0|0:0,0:0:0:0:
453,283,57382,6,0,L|464:189,1,90,6|0,0:0|0:0,0:0:0:0:
359,237,57643,1,2,0:0:0:0:
418,370,57774,2,0,P|474:373|523:339,1,90,8|2,0:0|0:0,0:0:0:0:
333,324,58034,1,0,0:0:0:0:
225,377,58165,2,0,L|114:386,1,90,2|0,0:0|0:0,0:0:0:0:
22,289,58426,2,0,P|100:304|153:256,1,135,0|0,1:0|0:0,0:0:0:0:
145,236,58687,2,0,P|224:243|261:303,1,135,2|0,0:0|0:0,0:0:0:0:
276,317,58948,6,0,L|294:86,1,198.000006042481,6|0,0:0|0:0,0:0:0:0:
301,30,59339,1,0,1:0:0:0:
465,54,59469,2,0,P|415:80|354:71,1,99.0000030212403,0|0,1:0|0:0,0:0:0:0:
220,64,59730,1,8,0:0:0:0:
145,152,59861,1,0,1:0:0:0:
25,43,59991,2,0,P|88:41|139:79,1,99.0000030212403,0|0,0:0|1:0,0:0:0:0:
222,184,60252,2,0,P|171:232|73:197,1,148.50000453186,0|0,1:0|0:0,0:0:0:0:
71,202,60513,6,0,B|101:246|101:319|70:351|70:351|71:316|65:287,1,198.000006042481,2|0,0:0|1:0,0:0:0:0:
0,255,60904,1,0,0:0:0:0:
28,129,61034,2,0,P|69:119|129:146,1,99.0000030212403,0|0,1:0|1:0,0:0:0:0:
213,193,61295,2,0,B|320:216|307:162|419:185,1,198.000006042481,8|0,0:0|0:0,0:0:0:0:
361,269,61687,1,0,0:0:0:0:
268,384,61817,2,0,P|260:331|274:281,1,99.0000030212403,2|0,0:0|0:0,0:0:0:0:
158,269,62078,6,0,B|85:237|7:263|7:263|43:280|64:302,1,198.000006042481,6|0,0:0|1:0,0:0:0:0:
121,364,62469,1,0,0:0:0:0:
159,269,62600,2,0,P|168:203|152:159,1,99.0000030212403,0|0,0:0|1:0,0:0:0:0:
101,97,62861,1,8,0:0:0:0:
233,125,62991,1,0,0:0:0:0:
226,33,63121,2,0,B|296:27|296:27|342:41|342:41|434:31,1,198.000006042481,0|0,1:0|1:0,0:0:0:0:
484,106,63513,1,0,0:0:0:0:
388,143,63643,6,0,P|363:195|397:277,1,148.50000453186,2|0,0:0|0:0,0:0:0:0:
396,309,63904,2,0,P|461:293|506:310,1,99.0000030212403,0|0,1:0|0:0,0:0:0:0:
321,384,64165,1,0,1:0:0:0:
238,318,64295,1,0,0:0:0:0:
147,358,64426,2,0,P|89:363|43:326,1,99.0000030212403,8|0,0:0|0:0,0:0:0:0:
15,260,64687,2,0,L|171:250,1,148.50000453186,2|0,0:0|0:0,0:0:0:0:
189,236,64948,2,0,P|199:186|178:139,1,99.0000030212403,2|0,0:0|0:0,0:0:0:0:
75,72,65208,6,0,L|69:183,1,99.0000030212403,6|0,0:0|0:0,0:0:0:0:
92,292,65469,1,0,1:0:0:0:
33,384,65600,1,0,1:0:0:0:
173,359,65730,2,0,P|228:357|277:387,1,99.0000030212403,0|0,0:0|1:0,0:0:0:0:
368,256,65991,2,0,P|306:260|261:312,1,99.0000030212403,8|0,0:0|0:0,0:0:0:0:
470,311,66252,1,0,1:0:0:0:
440,207,66382,1,0,1:0:0:0:
477,85,66513,2,0,P|401:98|345:41,1,148.50000453186,0|0,1:0|0:0,0:0:0:0:
325,29,66774,6,0,P|330:90|247:37,1,198.000006042481,2|0,0:0|1:0,0:0:0:0:
155,101,67165,1,0,1:0:0:0:
62,93,67295,2,0,P|31:140|42:207,1,99.0000030212403,0|0,0:0|1:0,0:0:0:0:
234,200,67556,2,0,L|125:197,1,99.0000030212403,8|0,0:0|0:0,0:0:0:0:
0,308,67817,2,0,L|175:300,1,148.50000453186,0|0,1:0|0:0,0:0:0:0:
176,282,68078,2,0,P|198:317|200:376,1,99.0000030212403,2|0,0:0|0:0,0:0:0:0:
273,289,68339,6,0,B|368:326|384:251|489:292,1,215.999993408203,6|0,0:0|0:0,0:0:0:0:
429,373,68730,1,2,0:0:0:0:
365,250,68861,2,0,P|346:189|365:139,1,107.999996704102,8|0,0:0|1:0,0:0:0:0:
475,48,69121,1,6,0:0:0:0:
437,194,69252,1,0,1:0:0:0:
356,58,69382,2,0,L|236:50,1,107.999996704102,0|2,0:0|0:0,0:0:0:0:
89,136,69643,2,0,P|158:143|202:107,1,107.999996704102,8|0,0:0|1:0,0:0:0:0:
88,25,69904,6,0,B|70:72|70:72|84:255,1,215.999993408203,2|0,0:0|0:0,0:0:0:0:
85,330,70295,1,8,0:0:0:0:
181,362,70426,2,0,P|206:306|178:239,1,107.999996704102,2|0,0:0|1:0,0:0:0:0:
297,326,70687,6,0,L|361:330,1,53.9999983520508,8|0,0:0|0:0,0:0:0:0:
282,341,70948,6,0,L|468:352,1,161.999995056153,12|0,0:0|0:0,0:0:0:0:
470,329,71208,2,0,P|451:267|402:235,1,107.999996704102,2|0,0:0|0:0,0:0:0:0:
320,248,71469,6,0,L|330:89,1,148.50000453186,2|0,0:0|0:0,0:0:0:0:
331,67,71730,1,0,1:0:0:0:
414,145,71861,1,0,0:0:0:0:
503,14,71991,2,0,P|444:14|399:44,1,99.0000030212403,0|0,1:0|0:0,0:0:0:0:
243,139,72252,2,0,L|237:27,1,99.0000030212403,8|0,0:0|1:0,0:0:0:0:
144,64,72513,1,0,0:0:0:0:
42,42,72643,1,0,1:0:0:0:
0,182,72774,2,0,P|79:198|135:144,1,148.50000453186,0|0,0:0|0:0,0:0:0:0:
152,150,73034,6,0,B|217:145|243:198|243:198|290:168|345:182,1,198.000006042481,2|0,0:0|1:0,0:0:0:0:
375,311,73426,1,0,1:0:0:0:
296,358,73556,2,0,P|286:308|303:259,1,99.0000030212403,0|0,0:0|1:0,0:0:0:0:
410,135,73817,2,0,L|416:243,1,99.0000030212403,8|0,0:0|0:0,0:0:0:0:
480,95,74078,2,0,P|422:54|336:99,1,148.50000453186,0|0,1:0|0:0,0:0:0:0:
331,90,74339,2,0,P|266:94|221:58,1,99.0000030212403,2|0,0:0|1:0,0:0:0:0:
67,68,74600,6,0,P|120:38|174:48,1,99.0000030212403,6|0,0:0|0:0,0:0:0:0:
106,237,74861,1,0,1:0:0:0:
132,120,74991,1,0,0:0:0:0:
184,264,75121,2,0,P|137:313|40:286,1,148.50000453186,0|0,0:0|0:0,0:0:0:0:
33,283,75382,2,0,P|45:353|34:389,1,99.0000030212403,8|0,0:0|1:0,0:0:0:0:
197,369,75643,2,0,P|242:369|303:390,1,99.0000030212403,0|0,0:0|1:0,0:0:0:0:
443,303,75904,2,0,L|337:313,1,99.0000030212403,0|0,0:0|1:0,0:0:0:0:
165,218,76165,6,0,B|315:227|315:227|386:200,1,198.000006042481,2|0,0:0|0:0,0:0:0:0:
303,144,76556,1,0,1:0:0:0:
254,0,76687,2,0,P|236:45|243:103,1,99.0000030212403,0|0,0:0|1:0,0:0:0:0:
430,23,76948,2,0,L|308:33,1,99.0000030212403,8|0,0:0|0:0,0:0:0:0:
150,86,77208,2,0,P|93:108|-1:24,1,198.000006042481,2|2,0:0|0:0,0:0:0:0:
90,15,77600,1,0,1:0:0:0:
226,41,77730,6,0,B|250:94|217:142|217:142|164:181|178:248,1,198.000006042481,2|0,0:0|1:0,0:0:0:0:
179,308,78121,1,0,1:0:0:0:
253,359,78252,2,0,P|326:348|349:323,1,99.0000030212403,0|0,0:0|1:0,0:0:0:0:
409,253,78513,1,8,0:0:0:0:
474,360,78643,1,0,0:0:0:0:
493,213,78774,2,0,L|500:112,1,99.0000030212403,0|0,1:0|0:0,0:0:0:0:
404,157,79034,2,0,P|333:172|281:98,1,148.50000453186,0|0,1:0|0:0,0:0:0:0:
250,99,79295,6,0,P|181:102|148:122,1,99.0000030212403,2|0,0:0|1:0,0:0:0:0:
185,283,79556,2,0,P|216:221|216:183,1,99.0000030212403,0|0,0:0|1:0,0:0:0:0:
58,134,79817,2,0,P|95:192|128:210,1,99.0000030212403,0|0,0:0|1:0,0:0:0:0:
185,283,80078,2,0,L|333:289,1,148.50000453186,8|0,0:0|0:0,0:0:0:0:
374,275,80339,2,0,L|472:279,1,99.0000030212403,0|0,1:0|1:0,0:0:0:0:
335,374,80600,2,0,L|236:378,1,99.0000030212403,2|0,0:0|0:0,0:0:0:0:
121,345,80861,6,0,P|93:282|175:196,1,198.000006042481,6|0,0:0|1:0,0:0:0:0:
260,133,81252,1,2,0:0:0:0:
278,45,81382,2,0,P|208:57|175:93,1,99.0000030212403,8|0,0:0|0:0,0:0:0:0:
327,192,81643,2,0,P|351:125|336:78,1,99.0000030212403,6|0,0:0|0:0,0:0:0:0:
260,133,81904,1,0,1:0:0:0:
274,258,82034,1,2,0:0:0:0:
181,170,82165,2,0,L|65:166,1,99.0000030212403,8|0,0:0|0:0,0:0:0:0:
0,295,82426,6,0,B|104:273|95:329|200:296,1,198.000006042481,2|0,0:0|1:0,0:0:0:0:
285,267,82817,2,0,P|311:333|302:372,2,99.0000030212403,8|2|2,0:0|0:0|0:0,0:0:0:0:
249,174,83208,6,0,L|320:178,1,49.5000015106202,8|0,0:0|0:0,0:0:0:0:
232,157,83469,6,0,L|422:167,1,148.50000453186,8|0,0:0|0:0,0:0:0:0:
422,178,83730,2,0,P|445:122|428:73,1,99.0000030212403,2|0,0:0|0:0,0:0:0:0:
317,35,83991,6,0,P|245:25|176:99,1,148.50000453186,6|0,0:0|0:0,0:0:0:0:
161,87,84252,2,0,L|52:81,1,99.0000030212403,0|0,1:0|0:0,0:0:0:0:
49,174,84513,2,0,L|-18:180,2,49.5000015106202
154,179,84774,2,0,P|173:226|162:281,1,99.0000030212403,8|0,0:0|0:0,0:0:0:0:
1,332,85034,2,0,B|47:310|90:320|90:320|131:370|195:353,1,198.000006042481,0|0,1:0|0:0,0:0:0:0:
272,303,85426,1,0,1:0:0:0:
368,384,85556,6,0,L|377:232,1,148.50000453186,2|0,0:0|0:0,0:0:0:0:
356,217,85817,2,0,P|412:206|460:222,1,99.0000030212403,0|0,0:0|1:0,0:0:0:0:
475,300,86078,1,0,0:0:0:0:
506,140,86208,1,0,1:0:0:0:
388,126,86339,2,0,P|377:78|391:30,1,99.0000030212403,8|0,0:0|0:0,0:0:0:0:
294,75,86600,2,0,P|243:95|167:27,1,148.50000453186,0|0,1:0|0:0,0:0:0:0:
151,30,86861,2,0,P|75:31|44:50,1,99.0000030212403,2|0,0:0|0:0,0:0:0:0:
0,163,87121,6,0,L|160:169,1,148.50000453186,6|0,0:0|0:0,0:0:0:0:
174,163,87382,2,0,P|148:219|148:269,1,99.0000030212403,0|0,1:0|0:0,0:0:0:0:
296,288,87643,2,0,P|290:239|268:195,1,99.0000030212403
162,360,87904,2,0,B|247:340|232:392|331:367,1,148.50000453186,8|0,0:0|0:0,0:0:0:0:
349,362,88165,2,0,L|460:368,1,99.0000030212403,0|0,0:0|1:0,0:0:0:0:
512,269,88426,2,0,L|401:275,1,99.0000030212403,0|0,0:0|1:0,0:0:0:0:
309,181,88687,6,0,P|377:195|430:85,1,198.000006042481,2|0,0:0|1:0,0:0:0:0:
268,0,89078,2,0,L|264:103,1,99.0000030212403,8|2,0:0|0:0,0:0:0:0:
211,175,89339,1,0,1:0:0:0:
66,122,89469,2,0,P|116:100|177:118,1,99.0000030212403,8|0,0:0|0:0,0:0:0:0:
184,258,89730,2,0,P|139:224|125:163,1,99.0000030212403,2|0,0:0|0:0,0:0:0:0:
52,246,89991,6,0,P|60:304|46:350,1,101.250003862381,0|0,0:0|0:0,0:0:0:0:
24,366,90252,6,0,L|215:362,1,175.499991966248,6|0,0:0|0:0,0:0:0:0:
244,361,90513,1,0,1:0:0:0:
363,297,90643,1,8,0:0:0:0:
439,372,90774,2,0,B|452:238|452:238|432:179,1,175.499991966248,2|0,0:0|0:0,0:0:0:0:
416,165,91034,1,8,0:0:0:0:
512,112,91165,1,8,0:0:0:0:
418,55,91295,1,8,0:0:0:0:
322,109,91426,2,0,P|321:141|339:189,2,58.4999973220826,8|8|8,0:0|0:0|0:0,0:0:0:0:
324,0,91687,1,8,0:0:0:0:
210,86,91817,6,0,P|136:94|76:45,1,116.999994644165,6|0,0:0|1:0,0:0:0:0:
215,79,92208,1,0,1:0:0:0:
220,72,92339,2,0,P|146:80|86:31,1,116.999994644165,0|0,1:0|1:0,0:0:0:0:
0,163,92600,6,0,B|24:158|47:137|47:137|18:167|6:228|34:276,1,202.500007724762,8|0,0:0|0:0,0:0:0:0:
109,243,92861,2,0,P|164:198|102:234,1,202.500007724762,0|0,1:0|0:0,0:0:0:0:
33,275,93121,2,0,B|186:264|186:264|274:291,1,202.500007724762,2|0,0:3|0:0,0:0:0:0:
296,324,93382,6,0,P|253:354|179:337,1,116.999994644165,2|0,0:0|0:0,0:0:0:0:
283,218,93643,2,0,P|310:268|295:323,1,116.999994644165,0|0,1:0|1:0,0:0:0:0:
283,218,93904,2,0,L|468:233,1,175.499991966248,0|0,0:0|0:0,0:0:0:0:
512,171,94165,6,0,B|458:150|458:150|376:177,1,116.999994644165,8|0,0:0|1:0,0:0:0:0:
402,293,94426,2,0,B|456:314|456:314|538:287,1,116.999994644165,0|0,1:0|1:0,0:0:0:0:
457,232,94687,2,0,L|283:218,1,175.499991966248,2|0,0:0|0:0,0:0:0:0:
203,234,94948,6,0,P|178:168|198:117,1,116.999994644165,6|0,0:0|1:0,0:0:0:0:
191,229,95339,1,0,1:0:0:0:
179,224,95469,2,0,P|154:158|174:107,1,116.999994644165,0|0,1:0|1:0,0:0:0:0:
269,28,95730,6,0,B|344:24|344:24|402:42|402:42|493:33,1,202.500007724762,8|0,0:0|0:0,0:0:0:0:
432,114,95991,2,0,B|392:94|383:47|383:47|347:90|342:142|391:190,1,202.500007724762,0|0,1:0|0:0,0:0:0:0:
435,201,96252,2,0,P|517:116|467:35,1,202.500007724762,2|0,0:3|0:0,0:0:0:0:
435,201,96513,6,0,P|470:265|433:347,1,135.000005149842,2|2,1:0|1:0,0:0:0:0:
337,355,96774,2,0,P|403:361|456:322,1,135.000005149842,2|0,1:0|0:0,0:0:0:0:
378,272,97034,2,0,B|286:264|286:264|234:296|172:270,1,202.500007724762,0|0,1:0|0:0,0:0:0:0:
155,192,97295,6,0,L|305:184,1,116.999994644165,8|0,0:0|1:0,0:0:0:0:
38,198,97556,2,0,L|188:190,1,116.999994644165,0|0,1:0|1:0,0:0:0:0:
188,91,97817,2,0,L|38:83,1,116.999994644165,2|0,0:0|1:0,0:0:0:0:
304,97,98078,6,0,L|154:89,1,116.999994644165,6|0,0:0|1:0,0:0:0:0:
313,92,98469,1,0,1:0:0:0:
322,87,98600,2,0,L|172:79,1,116.999994644165,0|0,1:0|1:0,0:0:0:0:
426,112,98861,6,0,B|419:147|377:158|377:158|412:129|424:75|392:28,1,202.500007724762,8|0,0:0|0:0,0:0:0:0:
320,0,99121,2,0,B|360:0|391:18|391:18|420:0|456:-9|456:-9|488:27|490:72,1,202.500007724762,0|0,1:0|0:0,0:0:0:0:
503,130,99382,2,0,B|492:176|462:203|462:203|511:256|481:320,1,202.500007724762,2|0,0:3|0:0,0:0:0:0:
404,370,99643,6,0,P|334:355|296:280,1,116.999994644165,2|0,0:0|0:0,0:0:0:0:
295,221,99904,2,0,P|329:175|385:160,1,116.999994644165,0|0,1:0|1:0,0:0:0:0:
291,47,100165,2,0,B|296:109|296:109|288:150|288:150|297:251,1,175.499991966248,0|0,0:0|0:0,0:0:0:0:
226,284,100426,6,0,B|172:309|172:309|102:300,1,116.999994644165,8|0,0:0|1:0,0:0:0:0:
83,129,100687,2,0,B|131:163|131:163|158:228,1,116.999994644165,0|0,0:0|1:0,0:0:0:0:
21,331,100948,2,0,B|26:271|26:271|69:215,1,116.999994644165,2|0,0:0|0:0,0:0:0:0:
199,134,101208,6,0,L|66:128,1,116.999994644165,6|0,0:0|0:0,0:0:0:0:
208,130,101600,1,0,1:0:0:0:
217,126,101730,2,0,L|84:120,1,116.999994644165,0|0,1:0|1:0,0:0:0:0:
256,45,101991,6,0,B|308:37|339:70|339:70|371:36|428:38|428:38|458:84|440:143|407:162|407:162|419:136|412:107,1,371.250014162064,8|0,0:0|0:0,0:0:0:0:
415,121,102774,6,0,P|442:187|415:256,1,107.999996704102,2|0,0:0|0:0,0:0:0:0:
357,290,103034,1,0,0:0:0:0:
263,250,103165,1,8,0:0:0:0:
180,329,103295,2,0,L|170:388,2,53.9999983520508,2|0|0,0:0|0:0|0:0,0:0:0:0:
159,228,103556,6,0,L|153:171,1,53.9999983520508,8|0,0:0|0:0,0:0:0:0:
143,251,103817,6,0,B|130:135|130:135|144:65,1,161.999995056153,8|0,0:0|0:0,0:0:0:0:
149,66,104078,2,0,P|91:89|40:78,1,107.999996704102,2|0,0:0|0:0,0:0:0:0:
220,120,104339,5,6,0:0:0:0:
325,31,104600,2,0,P|391:22|467:115,1,175.499991966248,0|0,1:0|0:0,0:0:0:0:
501,95,104861,2,0,P|478:144|506:217,1,116.999994644165,0|0,1:0|0:0,0:0:0:0:
486,291,105121,6,0,P|417:274|381:368,1,175.499991966248,8|0,0:0|0:0,0:0:0:0:
374,354,105382,2,0,P|412:282|350:229,1,175.499991966248,0|0,1:0|0:0,0:0:0:0:
288,173,105643,2,0,B|331:178|331:178|347:174|347:174|363:181|363:181|486:198,1,175.499991966248,2|0,1:0|0:0,0:0:0:0:
494,125,105904,6,0,P|427:124|386:169,1,116.999994644165,2|0,0:0|0:0,0:0:0:0:
286,66,106165,2,0,P|307:119|287:172,1,116.999994644165,2|2,1:0|1:0,0:0:0:0:
217,19,106426,2,0,B|194:63|211:101|211:101|218:114|218:114|212:126|212:126|205:201,1,175.499991966248,2|0,0:3|0:0,0:0:0:0:
120,150,106687,6,0,P|53:153|2:210,1,116.999994644165,8|0,0:0|1:0,0:0:0:0:
52,305,106948,2,0,P|119:302|170:245,1,116.999994644165,0|0,1:0|1:0,0:0:0:0:
98,109,107208,2,0,L|85:253,1,116.999994644165,2|2,0:0|0:3,0:0:0:0:
72,352,107469,5,6,0:0:0:0:
246,293,107730,2,0,B|368:282|368:282|455:321,1,175.499991966248,0|0,1:0|0:0,0:0:0:0:
349,362,107991,2,0,P|330:305|353:247,1,116.999994644165,0|0,0:0|1:0,0:0:0:0:
437,149,108252,6,0,B|465:103|465:103|444:22|444:22|434:67,1,175.499991966248,8|0,0:0|0:0,0:0:0:0:
366,103,108513,2,0,B|334:79|327:40|327:40|291:86|232:70,1,175.499991966248,0|0,1:0|0:0,0:0:0:0:
160,48,108774,2,0,P|223:73|167:158,1,175.499991966248,2|0,1:0|0:0,0:0:0:0:
90,161,109034,6,0,P|149:164|204:214,1,116.999994644165,2|2,0:0|1:0,0:0:0:0:
131,382,109295,2,0,B|156:316|120:251|120:251|147:283|195:291,1,175.499991966248,2|0,1:0|0:0,0:0:0:0:
226,323,109556,2,0,P|284:328|248:249,1,175.499991966248,0|0,1:0|0:0,0:0:0:0:
226,323,109817,6,0,L|356:319,1,116.999994644165,8|0,0:0|0:0,0:0:0:0:
466,282,110078,2,0,P|499:320|501:394,1,116.999994644165,0|0,0:0|0:0,0:0:0:0:
372,214,110339,2,0,L|358:89,1,116.999994644165,2|0,0:0|1:0,0:0:0:0:
470,39,110600,5,6,0:0:0:0:
264,73,110861,2,0,P|187:93|115:18,1,175.499991966248,0|0,1:0|0:0,0:0:0:0:
16,57,111121,2,0,P|76:66|125:25,1,116.999994644165,0|0,1:0|1:0,0:0:0:0:
145,156,111382,6,0,B|153:233|153:233|147:260|147:260|159:367,1,175.499991966248,8|0,0:0|0:0,0:0:0:0:
70,359,111643,2,0,B|-4:309|-4:309|93:233,1,175.499991966248
244,254,111904,2,0,P|234:333|154:329,1,175.499991966248,2|0,1:0|0:0,0:0:0:0:
244,254,112165,6,0,L|385:274,1,116.999994644165,2|0,0:0|0:0,0:0:0:0:
469,286,112426,1,2,1:0:0:0:
377,160,112556,1,2,1:0:0:0:
487,316,112687,2,0,B|511:186|511:186|489:116,1,175.499991966248,2|0,0:3|0:0,0:0:0:0:
512,105,112948,6,0,P|450:100|407:43,1,116.999994644165,8|0,0:0|1:0,0:0:0:0:
292,137,113208,2,0,P|234:139|193:179,1,116.999994644165,0|0,1:0|1:0,0:0:0:0:
211,279,113469,1,2,0:0:0:0:
109,173,113600,1,2,0:3:0:0:
12,255,113730,5,2,0:0:0:0:
38,60,113991,2,0,L|240:70,1,175.499991966248
267,13,114252,2,0,P|227:-6|158:18,1,116.999994644165,0|0,1:0|1:0,0:0:0:0:
344,45,114513,6,0,B|474:33|474:33|420:60,1,175.499991966248,8|0,0:0|0:0,0:0:0:0:
344,45,114774,2,0,B|364:85|364:85|346:269,1,175.499991966248,2|0,1:0|0:0,0:0:0:0:
282,141,115034,2,0,B|357:135|357:135|387:143|387:143|472:135,1,175.499991966248,2|0,1:0|0:0,0:0:0:0:
503,240,115295,6,0,B|453:226|453:226|409:294|462:361,1,175.499991966248,2|0,0:0|0:0,0:0:0:0:
466,361,115556,1,0,1:0:0:0:
344,313,115687,1,8,0:0:0:0:
244,334,115817,2,0,P|218:375|212:404,2,58.4999973220826,2|0|0,0:0|0:0|1:0,0:0:0:0:
280,237,116078,6,0,P|290:182|239:112,2,116.999994644165,8|8|8,0:0|0:0|0:0,0:0:0:0:
179,275,116469,1,8,0:0:0:0:
161,281,116534,1,8,0:0:0:0:
143,287,116600,1,8,0:0:0:0:
67,222,116730,1,8,0:0:0:0:
165,193,116861,5,6,0:0:0:0:
315,304,123121,6,0,P|398:278|468:364,1,198.000006042481,0|0,0:0|0:0,0:0:0:0:
379,366,123513,1,0,0:0:0:0:
242,362,123643,2,0,P|225:299|244:242,1,99.0000030212403,0|0,0:0|0:0,0:0:0:0:
369,185,123904,2,0,B|273:219|276:148|160:183,1,198.000006042481,0|0,0:0|0:0,0:0:0:0:
121,276,124295,1,0,0:0:0:0:
47,208,124426,2,0,P|34:140|85:80,1,148.50000453186,0|0,0:0|0:0,0:0:0:0:
61,52,124687,6,0,P|131:57|171:29,1,99.0000030212403
175,178,124948,2,0,P|214:119|210:71,1,99.0000030212403
341,142,125208,2,0,P|310:78|266:58,1,99.0000030212403
285,219,125469,1,0,0:0:0:0:
418,165,125600,1,0,0:0:0:0:
510,273,125730,2,0,L|337:266,1,148.50000453186,0|0,0:0|0:0,0:0:0:0:
341,287,125991,2,0,P|319:343|334:394,1,99.0000030212403,0|0,0:0|0:0,0:0:0:0:
233,328,126252,6,0,P|156:363|66:260,1,215.999993408203,6|0,0:0|0:0,0:0:0:0:
138,182,126643,1,2,0:0:0:0:
227,132,126774,2,0,P|239:193|208:254,1,107.999996704102,8|0,0:0|0:0,0:0:0:0:
83,73,127034,2,0,L|341:85,1,215.999993408203,6|0,0:0|0:0,0:0:0:0:
420,90,127426,1,2,0:0:0:0:
462,6,127556,2,0,P|401:0|351:32,1,107.999996704102,8|2,0:0|0:0,0:0:0:0:
464,171,127817,6,0,B|474:214|474:214|451:399,1,215.999993408203,6|0,0:0|1:0,0:0:0:0:
386,307,128208,2,0,P|443:282|511:300,1,107.999996704102,8|2,0:0|0:0,0:0:0:0:
356,384,128469,1,2,0:0:0:0:
302,264,128600,6,0,L|295:197,1,53.9999983520508,8|0,0:0|0:0,0:0:0:0:
290,282,128861,6,0,L|271:103,1,161.999995056153,8|0,0:0|0:0,0:0:0:0:
267,89,129121,2,0,P|329:99|366:153,1,107.999996704102,2|0,0:0|0:0,0:0:0:0:
185,113,129382,6,0,B|4:96|4:96|64:137,1,233.999989288331,2|0,0:0|0:0,0:0:0:0:
139,193,129774,1,0,1:0:0:0:
60,346,129904,2,0,P|42:280|61:233,1,116.999994644165,0|0,1:0|0:0,0:0:0:0:
232,190,130165,2,0,B|243:232|243:232|222:383,1,175.499991966248,8|0,0:0|0:0,0:0:0:0:
251,349,130426,2,0,P|309:346|357:378,1,116.999994644165,0|0,0:0|1:0,0:0:0:0:
357,248,130687,2,0,P|375:187|290:102,1,175.499991966248,0|0,1:0|0:0,0:0:0:0:
281,90,130948,6,0,B|390:100|390:100|418:91|418:91|534:98,1,233.999989288331,2|0,0:0|0:0,0:0:0:0:
374,16,131339,1,0,1:0:0:0:
200,37,131469,2,0,B|184:95|184:95|214:168,1,116.999994644165,0|0,1:0|0:0,0:0:0:0:
261,222,131730,1,8,0:0:0:0:
132,186,131861,1,0,0:0:0:0:
7,273,131991,2,0,B|100:248|95:303|195:262,1,175.499991966248,0|0,0:0|0:0,0:0:0:0:
197,275,132252,2,0,P|220:336|206:390,1,116.999994644165,2|0,0:0|1:0,0:0:0:0:
316,333,132513,5,2,0:0:0:0:
420,364,132643,1,0,0:0:0:0:
476,268,132774,2,0,B|493:222|470:180|470:180|468:134|501:98,1,175.499991966248,0|0,1:0|0:0,0:0:0:0:
512,77,133034,2,0,P|447:72|408:21,1,116.999994644165,0|0,0:0|1:0,0:0:0:0:
327,102,133295,1,8,0:0:0:0:
236,47,133426,1,0,0:0:0:0:
128,93,133556,2,0,P|62:108|24:167,1,116.999994644165,0|0,1:0|0:0,0:0:0:0:
107,227,133817,1,0,1:0:0:0:
73,329,133948,1,0,0:0:0:0:
183,366,134078,6,0,B|202:234|202:234|179:150,1,175.499991966248,2|0,0:0|0:0,0:0:0:0:
167,168,134339,2,0,L|301:185,1,116.999994644165,0|0,1:0|0:0,0:0:0:0:
397,200,134600,1,0,1:0:0:0:
360,112,134730,1,0,0:0:0:0:
428,37,134861,2,0,P|484:53|514:119,1,116.999994644165,8|0,0:0|0:0,0:0:0:0:
475,237,135121,2,0,B|437:301|468:374|468:374|442:355|437:330,1,175.499991966248,0|0,1:0|0:0,0:0:0:0:
419,324,135382,2,0,P|348:335|320:379,1,116.999994644165,2|0,0:0|1:0,0:0:0:0:
215,331,135643,6,0,L|7:343,1,175.499991966248,2|0,0:0|0:0,0:0:0:0:
14,358,135904,2,0,P|-2:300|22:244,1,116.999994644165,0|0,0:0|1:0,0:0:0:0:
150,238,136165,2,0,B|174:140|121:154|154:55,1,175.499991966248,0|0,1:0|0:0,0:0:0:0:
140,36,136426,2,0,P|203:34|249:70,1,116.999994644165,8|0,0:0|1:0,0:0:0:0:
75,173,136687,2,0,P|41:119|49:61,1,116.999994644165,0|0,0:0|1:0,0:0:0:0:
227,161,136948,2,0,P|197:216|143:238,1,116.999994644165,0|0,1:0|0:0,0:0:0:0:
303,209,137208,6,0,L|487:205,1,175.499991966248,2|0,0:0|0:0,0:0:0:0:
507,227,137469,2,0,P|524:288|507:341,1,116.999994644165,0|0,1:0|1:0,0:0:0:0:
381,310,137730,2,0,P|336:355|282:367,1,116.999994644165,0|0,0:0|1:0,0:0:0:0:
192,300,137991,1,8,0:0:0:0:
89,352,138121,1,0,0:0:0:0:
115,230,138252,2,0,B|102:103|102:103|123:48,1,175.499991966248,0|0,1:0|0:0,0:0:0:0:
96,38,138513,2,0,P|170:40|221:1,1,116.999994644165,2|0,0:0|0:0,0:0:0:0:
276,86,138774,5,6,0:0:0:0:
360,29,138904,1,0,0:0:0:0:
458,53,139034,2,0,P|483:104|457:192,1,116.999994644165,0|2,0:0|0:0,0:0:0:0:
345,201,139295,2,0,P|305:271|349:352,1,175.499991966248,8|0,0:0|0:0,0:0:0:0:
378,368,139556,2,0,L|172:349,1,175.499991966248,6|0,0:0|0:0,0:0:0:0:
166,370,139817,1,8,0:3:0:0:
207,250,139948,1,2,0:0:0:0:
113,199,140078,2,0,P|51:205|12:254,1,116.999994644165,8|0,0:0|0:0,0:0:0:0:
203,159,140339,6,0,L|398:168,1,175.499991966248,6|0,0:0|0:0,0:0:0:0:
410,169,140600,1,0,0:0:0:0:
304,136,140730,2,0,P|282:78|303:19,1,116.999994644165,8|2,0:0|0:0,0:0:0:0:
369,77,140991,1,2,0:0:0:0:
512,23,141121,6,0,L|507:101,1,58.4999973220826,8|0,0:0|0:0,0:0:0:0:
495,5,141382,6,0,L|482:199,1,175.499991966248,8|0,0:0|0:0,0:0:0:0:
499,217,141643,2,0,P|433:248|373:219,1,116.999994644165,2|0,0:0|0:0,0:0:0:0:
215,260,141904,6,0,P|272:258|314:288,1,99.0000030212403,6|0,0:0|0:0,0:0:0:0:
325,376,142165,1,0,1:0:0:0:
209,347,142295,1,0,1:0:0:0:
115,367,142426,1,0,0:0:0:0:
101,370,142491,1,0,0:0:0:0:
87,373,142556,1,0,1:0:0:0:
2,266,142687,2,0,L|122:276,1,99.0000030212403,8|0,0:0|0:0,0:0:0:0:
225,176,142948,2,0,P|158:135|81:194,1,148.50000453186,0|0,1:0|0:0,0:0:0:0:
73,179,143208,2,0,P|71:107|45:68,1,99.0000030212403,0|0,1:0|0:0,0:0:0:0:
192,54,143469,6,0,L|371:48,1,148.50000453186,2|0,0:0|0:0,0:0:0:0:
380,47,143730,1,0,1:0:0:0:
335,155,143861,1,0,1:0:0:0:
412,214,143991,2,0,P|429:151|417:110,1,99.0000030212403,0|0,0:0|1:0,0:0:0:0:
324,246,144252,1,8,0:0:0:0:
481,265,144382,1,0,0:0:0:0:
324,338,144513,2,0,P|254:352|193:284,1,148.50000453186,0|0,1:0|0:0,0:0:0:0:
175,286,144774,2,0,P|110:285|63:317,1,99.0000030212403,2|0,0:0|0:0,0:0:0:0:
11,189,145034,6,0,L|127:195,1,99.0000030212403,6|0,0:0|0:0,0:0:0:0:
220,217,145295,1,0,1:0:0:0:
285,138,145426,1,0,1:0:0:0:
210,29,145556,2,0,P|191:93|210:142,1,99.0000030212403,0|0,0:0|1:0,0:0:0:0:
346,199,145817,2,0,P|373:130|334:65,1,148.50000453186,8|0,0:0|0:0,0:0:0:0:
313,54,146078,2,0,L|422:64,1,99.0000030212403,0|0,1:0|1:0,0:0:0:0:
511,137,146339,2,0,P|493:199|462:237,1,99.0000030212403,0|0,0:0|1:0,0:0:0:0:
386,298,146600,6,0,P|309:285|251:369,1,148.50000453186,6|0,0:0|0:0,0:0:0:0:
253,363,146861,1,0,1:0:0:0:
167,290,146991,1,8,0:0:0:0:
71,337,147121,2,0,L|59:171,1,148.50000453186,2|0,0:0|0:0,0:0:0:0:
38,163,147382,2,0,P|98:167|141:199,1,99.0000030212403,8|0,0:0|0:0,0:0:0:0:
200,120,147643,2,0,P|226:173|220:227,1,99.0000030212403,2|0,0:0|1:0,0:0:0:0:
157,303,147904,1,4,0:0:0:0:
149,318,148165,6,0,L|263:311,1,99.0000030212403,0|0,0:0|0:0,0:0:0:0:
348,356,148426,2,0,L|446:362,1,99.0000030212403,0|0,0:0|0:0,0:0:0:0:
414,188,148687,2,0,P|383:250|401:316,1,99.0000030212403,0|0,0:0|0:0,0:0:0:0:
472,258,148948,1,0,0:0:0:0:
235,226,149556,6,0,L|198:228,4,33.0000010070801
256,192,149795,12,0,152861,0:0:0:0:
