osu file format v14

[General]
AudioFilename: audio.mp3
AudioLeadIn: 0
PreviewTime: 58952
Countdown: 0
SampleSet: Soft
StackLeniency: 0.4
Mode: 0
LetterboxInBreaks: 0
WidescreenStoryboard: 1

[Editor]
Bookmarks: 147909
DistanceSpacing: 1.2
BeatDivisor: 4
GridSize: 16
TimelineZoom: 1.7

[Metadata]
Title:Sky of the Ocean
TitleUnicode:Sky of the Ocean
Artist:Memme
ArtistUnicode:Memme
Creator:Syph
Version:Cheesecake's Normal.
Source:O2Jam U
Tags:parkmemme m2u cheesecake [c_u_r_i] -tochi snownino_ emilia xlolicore- hikaru_rose moecho moeri derandom_otaku
BeatmapID:1429741
BeatmapSetID:668888

[Difficulty]
HPDrainRate:2
CircleSize:3
OverallDifficulty:2
ApproachRate:3
SliderMultiplier:0.7
SliderTickRate:1

[Events]
//Background and Video events
0,0,"bg.jpg",0,0
//Break Periods
2,84191,88812
2,117061,121681
//Storyboard Layer 0 (Background)
//Storyboard Layer 1 (Fail)
//Storyboard Layer 2 (Pass)
//Storyboard Layer 3 (Foreground)
//Storyboard Sound Samples

[TimingPoints]
1035,260.869565217391,3,2,1,70,1,0
3382,-100,3,2,1,65,0,0
6708,-100,3,2,1,70,0,0
11208,-100,3,2,0,50,0,0
11991,-100,3,2,0,70,0,0
24513,-100,3,2,0,60,0,0
37034,-100,3,2,1,70,0,0
51839,-100,3,2,1,5,0,0
51904,-100,3,2,1,70,0,0
54969,-100,3,2,1,5,0,0
55034,-100,3,2,1,70,0,0
55817,-100,3,2,1,80,0,0
58948,-100,3,2,1,85,0,1
77665,-100,3,2,1,5,0,1
77731,-100,3,2,1,85,0,1
81056,-100,3,2,1,5,0,1
81121,-100,3,2,1,85,0,1
81578,-100,3,2,1,5,0,1
81643,-100,3,2,1,85,0,1
83991,-100,3,2,1,70,0,0
84187,-100,3,2,1,5,0,0
84252,-100,3,2,1,70,0,0
90252,-100,3,2,1,75,0,0
90448,-100,3,2,1,5,0,0
90513,-100,3,2,1,75,0,0
90969,-100,3,2,1,5,0,0
91034,-100,3,2,1,75,0,0
91817,-100,3,2,1,75,0,1
91882,-100,3,2,1,5,0,1
91948,-100,3,2,1,75,0,1
92274,-100,3,2,1,5,0,1
92339,-100,3,2,1,75,0,1
92534,-100,3,2,1,5,0,1
92600,-100,3,2,1,75,0,1
92795,-100,3,2,1,5,0,1
92861,-100,3,2,1,75,0,1
93056,-100,3,2,1,5,0,1
93121,-100,3,2,1,75,0,1
93317,-100,3,2,1,5,0,1
93382,-100,3,2,1,75,0,1
93448,-100,3,2,1,5,0,1
93513,-100,3,2,1,75,0,1
93578,-100,3,2,1,5,0,1
93643,-100,3,2,1,75,0,1
93708,-100,3,2,1,5,0,1
93773,-100,3,2,1,75,0,1
93839,-100,3,2,1,5,0,1
93904,-100,3,2,1,75,0,1
94100,-100,3,2,1,5,0,1
94165,-100,3,2,1,75,0,1
94230,-100,3,2,1,5,0,1
94295,-100,3,2,1,75,0,1
94361,-100,3,2,1,5,0,1
94426,-100,3,2,1,75,0,1
94491,-100,3,2,1,5,0,1
94556,-100,3,2,1,75,0,1
94621,-100,3,2,1,5,0,1
94687,-100,3,2,1,75,0,1
94882,-100,3,2,1,5,0,1
94948,-100,3,2,1,75,0,1
95013,-100,3,2,1,5,0,1
95078,-100,3,2,1,75,0,1
95404,-100,3,2,1,5,0,1
95470,-100,3,2,1,75,0,1
95665,-100,3,2,1,5,0,1
95730,-100,3,2,1,75,0,1
95926,-100,3,2,1,5,0,1
95991,-100,3,2,1,75,0,1
96187,-100,3,2,1,5,0,1
96251,-100,3,2,1,75,0,1
96448,-100,3,2,1,5,0,1
96513,-100,3,2,1,75,0,1
96578,-100,3,2,1,5,0,1
96643,-100,3,2,1,75,0,1
96708,-100,3,2,1,5,0,1
96774,-100,3,2,1,75,0,1
96969,-100,3,2,1,5,0,1
97034,-100,3,2,1,75,0,1
97230,-100,3,2,1,5,0,1
97295,-100,3,2,1,75,0,1
98143,-100,3,2,1,5,0,1
98208,-100,3,2,1,75,0,1
98534,-100,3,2,1,5,0,1
98600,-100,3,2,1,75,0,1
98795,-100,3,2,1,5,0,1
98861,-100,3,2,1,75,0,1
99056,-100,3,2,1,5,0,1
99122,-100,3,2,1,75,0,1
99317,-100,3,2,1,5,0,1
99383,-100,3,2,1,75,0,1
99578,-100,3,2,1,5,0,1
99643,-100,3,2,1,75,0,1
99708,-100,3,2,1,5,0,1
99774,-100,3,2,1,75,0,1
99839,-100,3,2,1,5,0,1
99905,-100,3,2,1,75,0,1
99969,-100,3,2,1,5,0,1
100035,-100,3,2,1,75,0,1
100100,-100,3,2,1,5,0,1
100166,-100,3,2,1,75,0,1
100361,-100,3,2,1,5,0,1
100426,-100,3,2,1,75,0,1
100491,-100,3,2,1,5,0,1
100556,-100,3,2,1,75,0,1
100621,-100,3,2,1,5,0,1
100686,-100,3,2,1,75,0,1
100752,-100,3,2,1,5,0,1
100817,-100,3,2,1,75,0,1
100882,-100,3,2,1,5,0,1
100948,-100,3,2,1,75,0,1
101143,-100,3,2,1,5,0,1
101208,-100,3,2,1,75,0,1
101274,-100,3,2,1,5,0,1
101339,-100,3,2,1,75,0,1
101665,-100,3,2,1,5,0,1
101730,-100,3,2,1,75,0,1
101926,-100,3,2,1,5,0,1
101991,-100,3,2,1,75,0,1
102708,-100,3,2,1,5,0,1
102774,-100,3,2,1,70,0,0
104339,-100,3,2,1,70,0,1
104600,-100,3,2,1,75,0,1
104795,-100,3,2,1,5,0,1
104861,-100,3,2,1,75,0,1
104926,-100,3,2,1,5,0,1
104991,-100,3,2,1,75,0,1
105056,-100,3,2,1,5,0,1
105121,-100,3,2,1,75,0,1
105317,-100,3,2,1,5,0,1
105382,-100,3,2,1,75,0,1
105578,-100,3,2,1,5,0,1
105643,-100,3,2,1,75,0,1
105839,-100,3,2,1,5,0,1
105904,-100,3,2,1,75,0,1
106230,-100,3,2,1,5,0,1
106295,-100,3,2,1,75,0,1
106361,-100,3,2,1,5,0,1
106426,-100,3,2,1,75,0,1
106621,-100,3,2,1,5,0,1
106687,-100,3,2,1,75,0,1
106752,-100,3,2,1,5,0,1
106817,-100,3,2,1,75,0,1
106882,-100,3,2,1,5,0,1
106947,-100,3,2,1,75,0,1
107013,-100,3,2,1,5,0,1
107078,-100,3,2,1,75,0,1
107143,-100,3,2,1,5,0,1
107208,-100,3,2,1,75,0,1
107926,-100,3,2,1,5,0,1
107991,-100,3,2,1,75,0,1
108056,-100,3,2,1,5,0,1
108121,-100,3,2,1,75,0,1
108187,-100,3,2,1,5,0,1
108251,-100,3,2,1,75,0,1
108448,-100,3,2,1,5,0,1
108512,-100,3,2,1,75,0,1
108708,-100,3,2,1,5,0,1
108774,-100,3,2,1,75,0,1
108969,-100,3,2,1,5,0,1
109034,-100,3,2,1,75,0,1
109491,-100,3,2,1,5,0,1
109557,-100,3,2,1,75,0,1
109752,-100,3,2,1,5,0,1
109817,-100,3,2,1,75,0,1
109882,-100,3,2,1,5,0,1
109948,-100,3,2,1,75,0,1
110013,-100,3,2,1,5,0,1
110079,-100,3,2,1,75,0,1
110143,-100,3,2,1,5,0,1
110209,-100,3,2,1,75,0,1
110274,-100,3,2,1,5,0,1
110340,-100,3,2,1,75,0,1
110404,-100,3,2,1,5,0,1
110470,-100,3,2,1,75,0,1
110534,-100,3,2,1,5,0,1
110600,-100,3,2,1,75,0,1
111056,-100,3,2,1,5,0,1
111121,-100,3,2,1,75,0,1
111187,-100,3,2,1,5,0,1
111252,-100,3,2,1,75,0,1
111317,-100,3,2,1,5,0,1
111382,-100,3,2,1,75,0,1
111578,-100,3,2,1,5,0,1
111643,-100,3,2,1,75,0,1
111839,-100,3,2,1,5,0,1
111904,-100,3,2,1,75,0,1
112100,-100,3,2,1,5,0,1
112165,-100,3,2,1,75,0,1
112491,-100,3,2,1,5,0,1
112556,-100,3,2,1,75,0,1
112621,-100,3,2,1,5,0,1
112687,-100,3,2,1,75,0,1
112882,-100,3,2,1,5,0,1
112948,-100,3,2,1,75,0,1
114187,-100,3,2,1,5,0,1
114252,-100,3,2,1,75,0,1
114317,-100,3,2,1,5,0,1
114382,-100,3,2,1,75,0,1
114448,-100,3,2,1,5,0,1
114513,-100,3,2,1,75,0,1
114708,-100,3,2,1,5,0,1
114774,-100,3,2,1,75,0,1
114969,-100,3,2,1,5,0,1
115034,-100,3,2,1,75,0,1
115230,-100,3,2,1,5,0,1
115296,-100,3,2,1,85,0,1
116861,-100,3,2,1,60,0,0
123121,-100,3,2,0,60,0,0
123122,-100,3,2,0,60,0,0
126252,-100,3,2,1,70,0,0
126448,-100,3,2,1,5,0,0
126513,-100,3,2,1,70,0,0
127361,-100,3,2,1,5,0,0
127426,-100,3,2,1,70,0,0
128143,-100,3,2,1,5,0,0
128208,-100,3,2,1,70,0,0
129382,-100,3,2,1,75,0,1
138969,-100,3,2,1,5,0,1
139034,-100,3,2,1,75,0,1
139752,-100,3,2,1,5,0,1
139817,-100,3,2,1,75,0,1
140665,-100,3,2,1,5,0,1
140730,-100,3,2,1,75,0,1
141904,-100,3,2,1,70,0,0
144708,-100,3,2,1,5,0,0
144774,-100,3,2,1,70,0,0
148165,-100,3,2,1,50,0,0
148295,-100,3,2,1,56,0,0
148426,-100,3,2,1,62,0,0
148556,-100,3,2,1,66,0,0
148687,-100,3,2,1,71,0,0
148817,-100,3,2,1,66,0,0
148948,-100,3,2,1,75,0,0
155208,-100,3,2,1,5,0,0

[Colours]
Combo1 : 82,179,186
Combo2 : 112,142,173
Combo3 : 115,157,155
Combo4 : 16,154,237
Combo5 : 33,199,222
Combo6 : 73,141,197

[HitObjects]
393,65,3382,6,0,P|396:99|397:134,1,70,8|2,0:3|0:3,0:0:0:0:
334,190,3904,1,0,0:0:0:0:
258,152,4165,6,0,B|212:156|157:126|157:126|132:133|110:123,1,140,6|4,0:0|0:1,0:0:0:0:
87,50,4948,2,0,P|41:100|50:170,1,140,8|0,0:0|3:0,0:0:0:0:
119,212,5730,2,0,P|182:238|258:244,1,140,2|2,0:0|0:0,0:0:0:0:
314,186,6513,2,0,P|313:144|318:108,2,70,8|0|2,0:0|3:0|0:0,0:0:0:0:
368,250,7295,6,0,B|413:250|445:221|445:221|462:219|509:232,1,140,2|4,0:0|3:1,0:0:0:0:
511,145,8078,2,0,B|497:107|502:76|502:76|469:67|428:73,1,140,8|4,0:0|0:1,0:0:0:0:
351,95,8861,2,0,P|298:84|206:108,1,140,2|2,0:0|0:0,0:0:0:0:
146,150,9643,2,0,P|111:149|72:140,1,70,8|2,0:0|0:0,0:0:0:0:
39,65,10165,1,4,0:1:0:0:
320,248,11991,6,0,P|324:290|319:323,2,70,2|0|0,0:0|0:0|0:0,0:0:0:0:
256,192,12774,2,0,P|217:194|183:186,1,70,8|0,0:0|0:0,0:0:0:0:
63,73,13556,1,2,0:0:0:0:
143,47,13817,2,0,P|182:43|220:45,2,70,0|0|8,0:0|0:0|0:0,0:0:0:0:
66,196,14861,1,0,0:0:0:0:
107,268,15121,6,0,B|176:268|176:236|176:268|250:268,1,140,2|0,0:0|0:0,0:0:0:0:
281,192,15904,2,0,P|278:160|279:122,2,70,8|0|2,0:0|0:0|0:0,0:0:0:0:
355,231,16687,2,0,B|388:227|413:196|413:196|436:221|454:255|454:255|495:244|511:217,1,210,2|10,0:0|0:0,0:0:0:0:
408,84,17991,1,0,0:0:0:0:
330,50,18252,6,0,B|243:71|277:37|191:54,1,140,2|0,0:0|0:0,0:0:0:0:
147,125,19034,2,0,B|183:166|149:261,1,140,10|0,0:0|0:0,0:0:0:0:
100,327,19817,1,2,0:0:0:0:
341,255,20600,2,0,P|346:217|346:181,2,70,8|2|0,0:0|0:0|0:0,0:0:0:0:
300,328,21382,5,2,0:0:0:0:
147,125,22165,2,0,P|139:77|139:46,2,70,10|0|2,0:0|0:0|3:0,0:0:0:0:
230,134,22948,2,0,C|296:115|331:124|364:115|436:134,1,210,2|12,0:0|0:3,0:0:0:0:
471,296,24252,1,2,0:0:0:0:
387,288,24513,6,0,P|384:249|384:211,2,70,2|0|0,0:0|0:0|0:0,0:0:0:0:
315,332,25295,2,0,P|275:337|242:331,1,70,8|0,0:0|0:0,0:0:0:0:
131,208,26078,2,0,P|136:160|138:135,2,70,2|0|0,0:0|0:0|0:0,0:0:0:0:
100,286,26861,1,8,0:0:0:0:
250,212,27382,1,0,0:0:0:0:
307,150,27643,6,0,B|327:116|328:84|328:84|353:78|403:75,1,140,2|2,0:0|0:0,0:0:0:0:
481,69,28426,2,0,P|484:29|484:-17,2,70,8|0|0,0:0|0:0|0:0,0:0:0:0:
446,145,29208,2,0,B|446:167|455:196|455:196|454:226|446:249|446:249|454:272|455:302|455:302|446:331|446:354,1,210,2|8,0:0|0:0,0:0:0:0:
286,296,30513,1,0,0:0:0:0:
204,316,30774,6,0,B|168:324|134:317|134:317|92:318|60:340,1,140,2|0,0:0|0:0,0:0:0:0:
11,270,31556,2,0,P|0:238|-1:203,2,70,8|0|0,0:0|0:0|0:0,0:0:0:0:
89,236,32339,2,0,B|73:152|105:184|90:97,1,140,2|0,0:0|0:0,0:0:0:0:
35,33,33121,2,0,P|14:60|5:96,2,70,8|0|2,0:0|0:0|0:0,0:0:0:0:
117,17,33904,6,0,P|138:29|258:54,1,140,2|0,0:0|0:0,0:0:0:0:
330,78,34687,2,0,P|364:71|407:74,2,70,8|0|0,0:0|0:0|0:0,0:0:0:0:
297,155,35469,2,0,B|267:218|276:293|276:293|206:285|174:210|174:210|176:169|198:128,1,350,2|10,0:0|0:0,0:0:0:0:
119,98,37034,6,0,P|126:67|130:30,2,70,6|0|4,0:0|3:0|0:1,0:0:0:0:
56,154,37817,2,0,B|84:200|53:300,1,140,8|4,0:0|0:1,0:0:0:0:
128,333,38600,2,0,P|156:337|203:339,2,70,2|4|4,0:0|0:1|0:1,0:0:0:0:
150,252,39382,2,0,P|178:256|225:258,1,70,8|0,0:0|3:0,0:0:0:0:
301,238,39904,1,2,0:0:0:0:
373,195,40165,6,0,P|408:192|443:192,2,70,2|0|4,0:0|3:0|0:1,0:0:0:0:
301,153,40948,2,0,P|281:124|263:93,2,70,8|0|4,0:0|3:0|0:1,0:0:0:0:
301,238,41730,2,0,P|284:272|264:305,2,70,2|4|0,0:0|0:1|3:0,0:0:0:0:
373,195,42513,2,0,B|406:197|440:179|440:179|438:152|447:109,1,140,8|2,0:0|0:0,0:0:0:0:
401,38,43295,6,0,P|431:27|472:29,2,70,2|0|4,0:0|3:0|0:1,0:0:0:0:
322,68,44078,2,0,B|229:79|276:58|173:67,1,140,8|4,3:2|0:1,0:0:0:0:
104,96,44861,2,0,P|98:58|109:22,2,70,2|4|4,0:0|3:1|0:1,0:0:0:0:
133,174,45643,1,8,0:0:0:0:
207,213,45904,2,0,P|241:207|276:210,1,70,0|2,3:0|0:0,0:0:0:0:
341,263,46426,6,0,B|382:253|410:253|410:253|432:269|457:278|486:271,1,140,2|4,0:0|0:1,0:0:0:0:
470,188,47208,2,0,P|475:150|478:109,2,70,8|0|4,0:0|3:0|3:1,0:0:0:0:
387,169,47991,2,0,B|355:157|347:115|347:115|318:110|272:118,1,140,6|2,0:0|0:0,0:0:0:0:
200,150,48774,2,0,P|158:157|127:153,1,70,12|8,0:0|0:0,0:0:0:0:
53,122,49295,1,2,0:0:0:0:
119,70,49556,6,0,P|147:66|193:51,2,70,6|0|4,0:0|3:0|0:1,0:0:0:0:
40,38,50339,1,8,0:0:0:0:
66,206,50861,1,4,0:1:0:0:
94,284,51121,2,0,P|93:321|87:357,2,70,2|0|0,0:0|3:0|3:0,0:0:0:0:
165,239,51904,2,0,B|218:239|253:217|253:217|282:224|315:217,1,140,8|2,0:0|0:0,0:0:0:0:
348,149,52687,6,0,P|342:114|343:79,2,70,6|4|4,0:0|0:1|0:1,0:0:0:0:
424,183,53469,2,0,B|438:272|410:235|424:331,1,140,8|4,0:0|0:1,0:0:0:0:
339,337,54252,1,2,0:0:0:0:
249,194,54774,1,4,0:1:0:0:
192,131,55034,2,0,P|166:132|120:143,1,70,8|0,0:0|0:0,0:0:0:0:
42,167,55556,1,2,0:0:0:0:
256,192,55817,12,6,58165,0:0:0:0:
244,174,58948,6,0,P|240:137|242:95,2,70,6|4|4,0:0|0:1|0:1,0:0:0:0:
320,209,59730,2,0,P|357:205|399:207,2,70,8|4|0,0:0|0:1|3:0,0:0:0:0:
320,293,60513,2,0,B|295:299|256:269|256:269|217:299|192:293,1,140,2|4,0:0|3:1,0:0:0:0:
111,271,61295,1,8,0:0:0:0:
244,174,61817,1,2,0:0:0:0:
189,110,62078,6,0,P|161:106|112:112,2,70,2|4|4,0:0|3:1|3:1,0:0:0:0:
271,94,62861,2,0,P|299:98|348:92,2,70,8|4|2,0:0|3:1|0:0,0:0:0:0:
216,30,63643,2,0,B|177:13|96:16|51:51|51:51|41:84|30:98,1,210,2|8,0:0|0:0,0:0:0:0:
23,169,64687,2,0,L|24:247,1,70,4|2,3:1|0:0,0:0:0:0:
88,292,65208,6,0,P|115:294|162:289,2,70,2|4|4,0:0|0:1|3:1,0:0:0:0:
107,209,65991,2,0,P|141:205|176:206,1,70,8|4,0:0|3:1,0:0:0:0:
259,220,66513,1,4,0:1:0:0:
301,147,66774,2,0,P|294:111|299:76,2,70,2|4|4,0:0|3:1|3:1,0:0:0:0:
380,173,67556,1,8,0:0:0:0:
276,305,68078,1,2,0:0:0:0:
201,267,68339,6,0,B|147:281|98:263|98:263|82:275|74:293,1,140,6|8,0:0|0:0,0:0:0:0:
1,250,69121,2,0,B|4:199|27:149|27:149|48:158|70:154,1,140,6|8,0:0|0:0,0:0:0:0:
68,69,69904,2,0,P|127:102|144:169,1,140,6|2,0:0|0:0,0:0:0:0:
223,196,70687,2,0,P|256:187|291:185,1,70,6|12,0:0|0:0,0:0:0:0:
375,192,71208,1,2,0:0:0:0:
432,130,71469,6,0,P|429:105|431:60,2,70,6|4|4,0:0|3:1|0:1,0:0:0:0:
458,210,72252,2,0,P|461:244|457:279,2,70,8|4|2,0:0|3:1|3:0,0:0:0:0:
375,192,73034,2,0,B|328:188|289:170|289:170|268:188|234:190,1,140,2|4,0:0|3:1,0:0:0:0:
236,105,73817,1,8,0:0:0:0:
73,148,74339,1,2,0:0:0:0:
84,231,74600,6,0,P|81:262|73:306,2,70,2|4|4,0:0|3:1|0:1,0:0:0:0:
167,226,75382,2,0,P|179:254|194:296,2,70,8|4|4,0:0|3:1|3:1,0:0:0:0:
242,189,76165,2,0,B|298:194|331:241|331:241|385:252|421:192,1,210,2|8,0:0|0:0,0:0:0:0:
440,116,77208,2,0,L|443:38,1,70,4|2,3:1|0:0,0:0:0:0:
359,32,77730,6,0,P|324:28|289:33,2,70,2|4|4,0:0|3:1|0:1,0:0:0:0:
355,116,78513,2,0,P|323:130|295:151,2,70,8|4|0,0:0|0:1|3:0,0:0:0:0:
440,116,79295,2,0,P|446:143|446:196,1,70,2|4,0:0|3:1,0:0:0:0:
418,264,79817,1,0,3:0:0:0:
336,285,80078,2,0,P|286:237|226:275,1,140,8|2,0:0|0:0,0:0:0:0:
146,262,80861,6,0,B|148:216|186:192|196:180|196:180|174:167|144:157,1,140,6|8,0:0|0:0,0:0:0:0:
82,124,81643,2,0,P|134:80|201:90,1,140,6|8,0:0|0:0,0:0:0:0:
278,124,82426,2,0,B|316:130|359:98|359:98|391:110|414:124,1,140,6|2,0:0|0:0,0:0:0:0:
490,130,83208,2,0,P|500:99|498:56,2,70,12|12|2,0:0|0:0|0:0,0:0:0:0:
448,203,83991,1,6,0:0:0:0:
337,38,90252,5,6,0:0:0:0:
333,122,90513,2,0,B|329:191,1,70,2|2,0:0|0:0,0:0:0:0:
300,271,91034,2,0,B|303:340,2,70,8|8|8,0:0|0:0|0:0,0:0:0:0:
226,230,91817,5,6,0:0:0:0:
68,170,92339,1,2,0:0:0:0:
62,86,92600,2,0,B|58:50|58:50|62:13,2,70,8|2|0,0:0|0:0|3:0,0:0:0:0:
145,90,93382,2,0,B|192:94|192:94|237:83|237:83|283:88,1,140,2|0,0:0|3:0,0:0:0:0:
366,103,94165,2,0,B|402:89|402:89|443:97,2,70,8|0|2,0:0|0:0|0:0,0:0:0:0:
358,187,94948,5,2,0:0:0:0:
269,329,95469,1,2,0:0:0:0:
192,294,95730,2,0,B|147:300|147:300|113:321,2,70,8|2|0,0:0|0:0|3:0,0:0:0:0:
185,209,96513,2,0,B|150:213|150:213|118:200|118:200|86:213|86:213|51:209,1,140,2|2,1:0|0:0,0:0:0:0:
4,138,97295,2,0,P|-5:105|-1:62,2,70,8|4|2,0:0|3:1|0:0,0:0:0:0:
80,102,98078,5,2,0:0:0:0:
246,128,98600,1,2,0:0:0:0:
296,195,98861,2,0,B|292:229|292:229|296:267,2,70,8|2|0,0:0|0:0|3:0,0:0:0:0:
345,126,99643,2,0,B|414:116|414:116|437:125|437:125|466:125|466:125|487:133,1,140,2|2,0:0|0:0,0:0:0:0:
482,215,100426,2,0,L|485:290,2,70,8|0|2,0:0|0:0|0:0,0:0:0:0:
398,208,101208,5,2,0:0:0:0:
268,315,101730,1,2,0:0:0:0:
186,299,101991,2,0,B|176:301|168:301|168:301|161:298|153:298|153:298|145:299|137:300|137:300|129:300|122:297|122:297|108:297|95:301|95:301|81:300|71:296|71:296|57:300|46:299,1,140,8|0,0:0|0:0,0:0:0:0:
43,214,102774,2,0,P|45:186|42:140,2,70,6|4|2,0:0|3:1|0:0,0:0:0:0:
127,214,103556,2,0,P|142:190|163:149,2,70,12|8|2,0:0|0:0|0:0,0:0:0:0:
197,260,104339,5,6,0:0:0:0:
291,121,104861,1,0,0:0:0:0:
374,124,105121,2,0,B|379:90|379:90|380:53,2,70,8|2|0,0:0|0:0|3:0,0:0:0:0:
423,192,105904,1,2,0:0:0:0:
374,260,106165,2,0,B|370:294|370:294|375:329,1,70,2|2,1:0|0:0,0:0:0:0:
291,328,106687,2,0,B|256:332|256:332|221:328,2,70,8|0|2,0:0|0:0|0:0,0:0:0:0:
291,243,107469,5,2,0:0:0:0:
127,205,107991,1,0,0:0:0:0:
99,126,108252,2,0,B|94:93|94:93|102:48,2,70,8|2|0,0:0|0:0|3:0,0:0:0:0:
183,126,109034,1,2,0:0:0:0:
257,164,109295,2,0,B|292:157|292:157|338:161,1,70,2|2,0:0|0:0,0:0:0:0:
394,209,109817,2,0,B|390:243|390:243|393:280,2,70,8|0|2,0:0|3:0|0:0,0:0:0:0:
438,137,110600,5,2,0:0:0:0:
311,27,111121,1,0,0:0:0:0:
302,110,111382,2,0,B|267:112|267:112|232:105,2,70,8|2|0,0:0|0:0|3:0,0:0:0:0:
294,194,112165,1,2,0:0:0:0:
214,221,112426,2,0,B|179:227|179:227|179:227|179:227|179:227|179:227|179:227|179:227|179:227|179:227|179:227|179:227|179:227|179:227|179:227|179:227|179:227|179:227|130:222,1,70,2|2,1:0|0:0,0:0:0:0:
70,184,112948,2,0,B|75:147|75:147|72:107,2,70,8|2|2,0:0|0:0|0:0,0:0:0:0:
1,232,113730,5,2,0:0:0:0:
160,285,114252,1,0,0:0:0:0:
231,240,114513,2,0,B|300:232,2,70,8|2|0,0:0|0:0|1:0,0:0:0:0:
259,319,115295,2,0,B|292:315|292:315|363:327|363:327|406:321,1,140,6|2,0:0|3:2,0:0:0:0:
390,238,116078,2,0,P|383:210|378:158,2,70,8|8|8,0:0|0:0|0:0,0:0:0:0:
473,251,116861,1,6,0:0:0:0:
303,191,123121,6,0,B|332:212|354:239,2,70,4|0|0,0:0|0:0|0:0,0:0:0:0:
232,150,123904,2,0,P|235:115|247:82,2,70,0|2|2,1:2|0:0|0:0,0:0:0:0:
232,233,124686,2,0,P|200:248|165:254,2,70,2|2|0,0:0|0:0|0:0,0:0:0:0:
303,191,125469,2,0,B|388:178|354:215|442:192,1,140,2|2,0:0|0:0,0:0:0:0:
415,111,126252,6,0,P|331:92|268:106,1,140,6|8,0:0|0:0,0:0:0:0:
205,141,127034,2,0,B|152:141|152:125|136:130|120:125|120:141|67:141,1,140,6|8,0:0|0:0,0:0:0:0:
70,225,127817,2,0,B|120:225|120:241|136:264|152:241|152:225|205:225,1,140,6|2,0:0|0:0,0:0:0:0:
285,238,128600,2,0,P|288:263|283:311,2,70,6|8|2,0:0|0:0|0:0,0:0:0:0:
330,167,129382,6,0,P|328:141|329:95,2,70,6|4|4,0:0|3:1|0:1,0:0:0:0:
402,210,130165,2,0,P|428:208|474:209,2,70,8|4|0,0:0|0:1|3:0,0:0:0:0:
340,268,130948,2,0,B|306:277|259:253|259:253|235:250|197:258,1,140,2|4,0:0|3:1,0:0:0:0:
119,261,131730,1,8,0:0:0:0:
168,100,132252,1,2,0:0:0:0:
239,56,132513,6,0,P|276:51|313:56,2,70,2|4|4,0:0|3:1|3:1,0:0:0:0:
244,139,133295,2,0,P|273:161|308:176,2,70,8|2|2,0:0|0:0|0:0,0:0:0:0:
168,100,134078,2,0,B|124:124|65:111|65:111|42:161|52:222,1,210,2|8,0:0|0:0,0:0:0:0:
124,252,135121,2,0,P|152:248|199:251,1,70,4|2,0:1|0:0,0:0:0:0:
275,271,135643,6,0,P|269:306|268:350,2,70,2|4|4,0:0|0:1|0:1,0:0:0:0:
310,194,136426,2,0,P|304:159|303:115,2,70,8|4|4,0:0|0:1|0:1,0:0:0:0:
378,242,137208,2,0,P|383:276|385:311,2,70,2|0|4,0:0|3:0|3:1,0:0:0:0:
388,158,137991,2,0,P|385:89|338:40,1,140,8|2,0:0|0:0,0:0:0:0:
254,54,138774,6,0,B|223:65|184:61|184:61|183:107|176:143,1,140,6|8,0:0|0:0,0:0:0:0:
239,188,139556,2,0,P|177:216|117:187,1,140,6|8,0:0|0:0,0:0:0:0:
39,153,140339,2,0,B|23:185|37:219|37:219|48:253|34:293,1,140,6|2,0:0|0:0,0:0:0:0:
108,330,141121,2,0,P|144:333|177:327,1,70,8|8,0:0|0:0,0:0:0:0:
256,296,141643,1,2,0:0:0:0:
333,328,141904,6,0,B|390:320|421:327|421:327|438:300|433:271,1,140,6|4,0:0|3:1,0:0:0:0:
387,207,142687,2,0,B|379:176|388:139|388:139|411:111|406:71,1,140,10|0,0:0|3:0,0:0:0:0:
322,79,143469,2,0,P|266:121|191:122,1,140,2|2,0:0|0:0,0:0:0:0:
117,99,144252,2,0,P|115:65|118:24,2,70,8|4|8,0:0|3:1|0:0,0:0:0:0:
134,181,145034,6,0,B|139:223|135:251|135:251|169:264|216:250,1,140,2|4,0:0|3:1,0:0:0:0:
279,216,145817,2,0,B|347:184|339:232|347:184|355:232|347:184|415:216,1,140,2|8,1:2|0:0,0:0:0:0:
465,148,146600,2,0,B|438:92|442:48|442:48|418:53|394:52,1,140,2|2,0:0|0:0,0:0:0:0:
330,89,147382,2,0,P|293:94|260:92,1,70,8|2,0:0|0:0,0:0:0:0:
181,63,147904,1,4,3:1:0:0:
256,192,149730,5,6,0:0:0:0:
