osu file format v14

[General]
AudioFilename: Memme+-+Sky+Of+The+Earth.mp3
AudioLeadIn: 0
PreviewTime: 2244
Countdown: 0
SampleSet: Soft
StackLeniency: 0.7
Mode: 0
LetterboxInBreaks: 0
WidescreenStoryboard: 1

[Editor]
DistanceSpacing: 1.1
BeatDivisor: 6
GridSize: 4
TimelineZoom: 1.9

[Metadata]
Title:Sky Of The Earth
TitleUnicode:Sky Of The Earth
Artist:Memme
ArtistUnicode:Memme
Creator:LexiaLovesU
Version:Hyper
Source:
Tags:SeeU Gero captin1 Xinely Lust
BeatmapID:585247
BeatmapSetID:234893

[Difficulty]
HPDrainRate:5.5
CircleSize:4
OverallDifficulty:7
ApproachRate:8
SliderMultiplier:2.8
SliderTickRate:1

[Events]
//Background and Video events
0,0,"Hanyijie.full.1753095.jpg",0,0
//Break Periods
2,43142,48193
2,74450,79761
//Storyboard Layer 0 (Background)
//Storyboard Layer 1 (Fail)
//Storyboard Layer 2 (Pass)
//Storyboard Layer 3 (Foreground)
//Storyboard Sound Samples

[TimingPoints]
2244,782.676754500391,4,2,3,60,1,0
2244,-133.333333333333,4,2,3,60,0,0
6940,-86.9565217391303,4,2,3,60,0,0
8505,-100,4,2,3,70,0,0
13984,-83.3333333333333,4,2,3,70,0,0
14505,-200,4,2,3,70,0,0
14766,-200,4,2,3,50,0,0
17375,-133.333333333333,4,2,3,60,0,0
17636,-117.647058823529,4,2,3,60,0,0
17897,-133.333333333333,4,2,3,50,0,0
21028,-76.9230769230769,4,2,3,70,0,0
24158,-133.333333333333,4,2,3,50,0,0
27289,-100,4,2,3,70,0,0
29637,-76.9230769230769,4,2,3,70,0,0
30420,-83.3333333333333,4,2,3,60,0,0
33551,-76.9230769230769,4,2,3,70,0,0
36029,-83.3333333333333,4,2,3,70,0,0
36681,-71.4285714285714,4,2,3,70,0,0
39290,-71.4285714285714,4,2,3,70,0,0
39812,-100,4,2,3,60,0,0
42160,-66.6666666666667,4,2,3,70,0,0
42943,-125,4,2,3,50,0,0
48943,-66.6666666666667,4,2,3,50,0,0
49204,-83.3333333333333,4,2,3,60,0,0
58596,-71.4285714285714,4,2,3,70,0,1
67988,-58.8235294117647,4,2,3,80,0,1
68184,-58.8235294117647,4,2,3,5,0,1
68249,-58.8235294117647,4,2,3,80,0,1
68967,-58.8235294117647,4,2,3,5,0,1
69032,-58.8235294117647,4,2,3,80,0,1
69554,-71.4285714285714,4,2,3,70,0,1
74250,-125,4,2,3,60,0,0
80511,-100,4,2,3,40,0,0
86251,-76.9230769230769,4,2,3,60,0,0
86773,-83.3333333333333,4,2,3,60,0,0
99295,-200,4,2,3,60,0,0
103991,-83.3333333333333,4,2,3,60,0,0
104644,-83.3333333333333,4,2,3,40,0,0
105035,-83.3333333333333,4,2,3,60,0,0
105557,-71.4285714285714,4,2,3,70,0,1
127472,-55.5555555555556,4,2,3,80,0,1
127667,-55.5555555555556,4,2,3,5,0,1
127733,-55.5555555555556,4,2,3,80,0,1
128450,-55.5555555555556,4,2,3,5,0,1
128515,-55.5555555555556,4,2,3,80,0,1
129037,-71.4285714285714,4,2,3,60,0,1
133733,-71.4285714285714,4,2,3,60,0,0

[Colours]
Combo1 : 26,140,255
Combo2 : 232,168,0
Combo3 : 185,241,54
Combo4 : 255,85,85

[HitObjects]
236,312,2244,6,0,L|328:312,1,70.0000026702882,4|0,0:0|0:0,0:0:0:0:
396,300,2765,1,0,0:0:0:0:
396,300,3026,2,0,P|384:228|424:124,1,140.000005340576,2|0,0:0|0:0,0:0:0:0:
444,84,3809,5,2,0:0:0:0:
316,119,4070,2,0,P|285:136|251:144,1,70.0000026702882,2|2,0:0|0:0,0:0:0:0:
164,116,4592,2,0,P|129:123|99:140,2,70.0000026702882,2|0|2,0:0|0:0|0:0,0:0:0:0:
20,140,5374,5,2,0:0:0:0:
20,139,5635,2,0,P|28:176|52:204,1,70.0000026702882,0|2,0:0|0:0,0:0:0:0:
120,256,6157,2,0,L|164:292,1,35.0000013351441,2|0,0:0|0:0,0:0:0:0:
224,252,6418,2,0,L|232:300,1,35.0000013351441,0|0,0:0|0:0,0:0:0:0:
312,312,6679,2,0,L|288:356,1,35.0000013351441,0|0,0:0|0:0,0:0:0:0:
404,304,6940,5,8,0:1:0:0:
404,304,7200,5,8,0:0:0:0:
344,188,7331,1,8,0:0:0:0:
468,256,7461,1,0,1:0:0:0:
332,268,7592,1,0,1:0:0:0:
332,268,7853,5,8,0:0:0:0:
432,176,7983,1,8,0:1:0:0:
412,92,8114,1,8,0:1:0:0:
336,52,8244,1,8,0:1:0:0:
252,64,8374,1,0,0:0:0:0:
180,80,8505,6,0,P|124:60|68:64,1,93.3333333333333,4|0,1:0|0:0,0:0:0:0:
216,172,9027,1,0,0:0:0:0:
216,172,9288,2,0,P|232:232|256:260,1,93.3333333333333,10|2,0:0|0:0,0:0:0:0:
304,308,9679,2,0,L|272:348,1,46.6666666666667,0|0,0:0|0:0,0:0:0:0:
416,300,10070,6,0,P|460:244|468:208,1,93.3333333333333,0|2,1:0|0:0,0:0:0:0:
444,104,10592,1,0,0:0:0:0:
328,64,10853,1,10,0:0:0:0:
352,183,11114,2,0,P|305:184|261:169,1,93.3333333333333,2|0,0:0|1:0,0:0:0:0:
220,148,11505,1,0,0:0:0:0:
180,120,11636,6,0,P|135:105|89:105,1,93.3333333333333,6|0,1:2|0:0,0:0:0:0:
44,120,12027,2,0,L|44:188,2,46.6666666666667,8|0|8,0:1|0:0|0:1,0:0:0:0:
40,212,12418,2,0,B|88:228|88:228|88:228|112:268,1,93.3333333333333,10|2,0:0|0:0,0:0:0:0:
184,360,12940,1,0,0:0:0:0:
228,248,13201,6,0,P|296:252|348:232,1,93.3333333333333,4|2,1:2|0:0,0:0:0:0:
376,220,13592,2,0,L|376:272,2,46.6666666666667,0|2|0,0:0|0:0|0:0,0:0:0:0:
340,88,13984,1,10,0:0:0:0:
440,168,14114,1,2,0:0:0:0:
312,168,14245,1,10,0:0:0:0:
424,88,14375,1,2,0:0:0:0:
376,220,14505,1,2,1:2:0:0:
256,192,14636,12,2,17114,0:0:0:0:
256,192,17636,5,0,0:0:0:0:
256,192,17897,6,0,P|216:248|192:260,1,70.0000026702882,2|2,1:2|0:0,0:0:0:0:
128,264,18419,1,0,0:0:0:0:
44,300,18680,2,0,P|48:244|40:200,1,70.0000026702882,2|0,0:0|0:0,0:0:0:0:
36,188,19071,1,0,0:0:0:0:
36,188,19201,1,0,0:0:0:0:
108,128,19462,6,0,L|178:128,1,70.0000026702882,2|2,0:0|0:0,0:0:0:0:
316,64,19984,2,0,L|246:64,1,70.0000026702882,0|2,0:0|0:0,0:0:0:0:
256,156,20506,1,0,0:0:0:0:
256,156,20636,2,0,L|256:220,2,35.0000013351441,0|0|0,0:0|0:0|0:0,0:0:0:0:
328,228,21028,6,0,P|272:232|200:264,1,121.333327779134,0|0,0:0|0:0,0:0:0:0:
152,308,21419,1,2,0:0:0:0:
80,336,21550,1,0,0:0:0:0:
12,292,21680,1,2,0:0:0:0:
12,292,21810,2,0,P|32:240|36:160,1,121.333327779134,10|2,0:0|0:0,0:0:0:0:
32,28,22332,1,2,0:0:0:0:
128,136,22593,6,0,B|176:176|176:176|233:190,1,121.333327779134,2|2,1:2|0:0,0:0:0:0:
372,144,23115,2,0,B|324:104|324:104|266:89,1,121.333327779134,2|10,0:0|0:0,0:0:0:0:
188,76,23506,2,0,L|176:8,1,60.6666638895672,0|2,0:0|0:0,0:0:0:0:
112,60,23767,1,0,0:0:0:0:
44,103,23898,2,0,L|36:44,1,60.6666638895672,0|0,1:0|0:0,0:0:0:0:
16,172,24158,6,0,P|72:164|108:176,1,70.0000026702882,2|0,0:0|0:0,0:0:0:0:
172,196,24680,1,0,0:0:0:0:
204,280,24941,2,0,B|256:328|256:328|306:280,1,140.000005340576,2|0,0:0|0:0,0:0:0:0:
363,211,25724,6,0,P|386:238|396:272,1,70.0000026702882,2|2,0:0|0:0,0:0:0:0:
408,148,26246,2,0,P|385:121|375:87,1,70.0000026702882,0|2,0:0|0:0,0:0:0:0:
304,32,26767,1,0,0:0:0:0:
220,68,27028,2,0,L|220:116,1,35.0000013351441,0|0,0:0|0:0,0:0:0:0:
268,156,27289,6,0,P|212:160|164:180,2,93.3333333333333,4|0|0,1:0|0:0|0:0,0:0:0:0:
388,164,28072,2,0,P|376:228|400:280,2,93.3333333333333,10|2|2,0:0|0:0|0:0,0:0:0:0:
456,264,28855,2,0,P|432:308|376:328,1,93.3333333333333,0|8,1:0|0:1,0:0:0:0:
280,312,29376,5,0,0:0:0:0:
200,280,29507,1,0,0:0:0:0:
268,232,29637,2,0,L|308:176,1,60.6666638895672,8|0,0:0|0:0,0:0:0:0:
256,84,29898,2,0,L|212:144,1,60.6666638895672,8|8,0:1|0:1,0:0:0:0:
120,132,30159,2,0,L|148:88,3,30.3333319447836,0|0|0|0,1:0|0:0|1:0|0:0,0:0:0:0:
72,144,30420,6,0,P|119:173|150:219,1,111.999996582031,4|0,1:0|0:0,0:0:0:0:
256,276,30942,1,0,0:0:0:0:
361,219,31203,2,0,P|392:173|439:144,1,111.999996582031,10|2,0:0|0:0,0:0:0:0:
480,260,31724,1,0,0:0:0:0:
384,336,31985,2,0,L|264:336,1,111.999996582031,0|8,1:0|0:1,0:0:0:0:
152,312,32507,1,2,0:0:0:0:
152,312,32637,1,0,0:0:0:0:
152,312,32768,2,0,P|172:240|152:164,1,111.999996582031,8|0,0:0|0:0,0:0:0:0:
136,84,33290,2,0,L|200:84,1,55.9999982910157,0|0,1:0|0:0,0:0:0:0:
248,32,33551,6,0,P|232:96|292:176,1,121.333327779134,4|0,1:0|0:0,0:0:0:0:
304,204,33942,1,8,0:1:0:0:
340,272,34072,1,0,0:0:0:0:
312,344,34203,1,8,0:1:0:0:
312,344,34333,2,0,P|212:328|160:340,2,121.333327779134,8|0|2,0:0|0:0|0:0,0:0:0:0:
472,352,35116,5,2,0:0:0:0:
396,216,35377,1,2,0:0:0:0:
456,72,35638,1,2,0:0:0:0:
304,116,35899,2,0,L|216:136,1,60.6666638895672,8|0,0:0|0:0,0:0:0:0:
200,48,36159,6,0,L|164:108,1,55.9999982910157,2|0,0:0|0:0,0:0:0:0:
76,80,36420,2,0,L|104:140,1,55.9999982910157,2|0,1:2|0:0,0:0:0:0:
48,224,36681,6,0,P|108:208|196:224,1,130.666662679037,4|0,1:0|0:0,0:0:0:0:
256,244,37073,2,0,L|232:308,2,65.3333313395183,0|8|0,0:0|0:0|0:0,0:0:0:0:
320,188,37464,6,0,P|324:92|372:24,1,130.666662679037,4|0,1:0|0:0,0:0:0:0:
416,28,37855,1,0,0:0:0:0:
472,92,37986,2,0,L|472:176,1,65.3333313395183,8|0,0:0|0:0,0:0:0:0:
472,244,38247,6,0,P|416:248|340:284,1,130.666662679037,4|0,1:0|0:0,0:0:0:0:
284,336,38638,1,0,0:0:0:0:
200,336,38768,1,8,0:0:0:0:
124,296,38899,1,0,0:0:0:0:
88,220,39029,6,0,P|44:272|48:344,1,130.666662679037,4|8,1:0|0:0,0:0:0:0:
172,224,39421,2,0,P|196:200|216:164,1,65.3333313395183,0|8,0:0|0:0,0:0:0:0:
244,92,39682,1,8,0:0:0:0:
244,92,39812,6,0,P|284:136|360:144,2,140,4|0|10,1:0|0:0|0:0,0:0:0:0:
188,52,40725,2,0,L|188:112,1,46.6666666666667,0|2,0:0|0:0,0:0:0:0:
128,224,41116,1,2,0:0:0:0:
236,316,41377,2,0,P|296:296|344:304,1,93.3333333333333,2|0,1:2|0:0,0:0:0:0:
380,344,41769,2,0,P|376:272|392:232,1,93.3333333333333,8|0,0:0|0:0,0:0:0:0:
252,196,42160,6,0,L|216:236,6,35.0000013351441,8|0|0|0|0|0|0,0:0|0:0|0:0|0:0|0:0|0:0|0:0,0:0:0:0:
256,92,42682,2,0,L|212:108,4,35.0000013351441,4|0|0|0|6,1:2|0:0|0:0|0:0|0:0,0:0:0:0:
240,244,48943,6,0,L|240:280,3,35.0000013351441,0|0|0|0,0:0|0:0|0:0|0:0,0:0:0:0:
236,320,49204,6,0,P|184:336|112:316,1,111.999996582031,0|2,1:0|0:0,0:0:0:0:
68,192,49726,1,2,0:0:0:0:
52,336,49987,1,10,0:0:0:0:
152,228,50248,2,0,P|192:188|212:124,1,111.999996582031,0|2,0:0|0:0,0:0:0:0:
328,52,50769,6,0,L|328:168,1,111.999996582031,2|2,1:2|0:0,0:0:0:0:
408,288,51291,1,2,0:0:0:0:
264,272,51552,2,0,P|212:256|136:276,1,111.999996582031,10|2,0:0|0:0,0:0:0:0:
72,144,52074,1,0,1:0:0:0:
72,144,52204,2,0,L|72:100,1,27.9999991455078,0|0,0:0|0:0,0:0:0:0:
40,80,52335,6,0,P|92:84|160:52,1,111.999996582031,2|0,1:2|0:0,0:0:0:0:
216,36,52726,1,8,0:1:0:0:
280,72,52857,2,0,L|252:108,2,27.9999991455078,0|0|0,0:0|0:0|0:0,0:0:0:0:
352,56,53117,2,0,P|380:52|408:56,1,55.9999982910157,2|0,1:2|0:0,0:0:0:0:
380,124,53362,2,0,L|388:160,3,20.9999993591309,0|0|0|0,0:0|0:0|0:0|0:0,0:0:0:0:
436,224,53656,2,0,L|424:256,4,20.9999993591309,0|0|0|0|0,0:0|0:0|0:0|0:0|0:0,0:0:0:0:
416,280,53900,6,0,P|368:280|296:268,1,111.999996582031,2|8,1:2|0:1,0:0:0:0:
236,244,54292,1,8,0:1:0:0:
184,192,54422,1,8,0:1:0:0:
184,192,54683,2,0,B|140:232|180:312|180:312|100:304|64:256,1,223.999993164063,10|0,0:0|0:0,0:0:0:0:
96,136,55466,6,0,P|136:100|240:100,1,111.999996582031,0|0,1:0|0:0,0:0:0:0:
280,96,55987,1,0,0:0:0:0:
331,168,56248,2,0,P|319:222|333:276,1,111.999996582031,10|0,0:0|0:0,0:0:0:0:
420,168,56770,1,0,0:0:0:0:
420,168,57031,2,0,P|432:113|418:59,2,111.999996582031,2|8|0,1:2|0:1|0:0,0:0:0:0:
380,248,57814,1,8,0:0:0:0:
292,268,58074,2,0,L|292:312,3,27.9999991455078,2|0|0|0,0:0|0:0|0:0|0:0,0:0:0:0:
252,316,58335,2,0,L|252:356,3,27.9999991455078,2|0|0|0,1:2|0:0|0:0|0:0,0:0:0:0:
208,356,58596,6,0,P|156:364|64:332,1,130.666662679037,4|0,1:2|0:0,0:0:0:0:
40,176,59118,2,0,L|40:104,1,65.3333313395183,2|0,0:0|0:0,0:0:0:0:
84,40,59379,2,0,P|152:24|216:48,1,130.666662679037,10|0,0:0|0:0,0:0:0:0:
292,192,59901,1,2,0:0:0:0:
368,228,60031,1,2,0:0:0:0:
452,204,60162,6,0,B|456:268|456:268|396:336,1,130.666662679037,2|2,1:2|0:0,0:0:0:0:
244,336,60683,2,0,P|204:328|152:328,1,65.3333313395183,2|0,0:0|0:0,0:0:0:0:
100,352,60944,2,0,P|96:296|120:220,1,130.666662679037,10|0,0:0|0:0,0:0:0:0:
172,160,61336,1,0,0:0:0:0:
88,144,61466,2,0,P|48:136|12:124,1,65.3333313395183,2|0,1:2|0:0,0:0:0:0:
144,84,61727,6,0,P|192:40|332:36,1,195.999994018555,2|8,0:0|0:1,0:0:0:0:
364,104,62249,2,0,L|364:176,1,65.3333313395183,0|8,0:0|0:1,0:0:0:0:
448,272,62510,2,0,L|448:124,1,130.666662679037,8|0,0:0|0:0,0:0:0:0:
376,244,62901,1,0,0:0:0:0:
376,244,63031,2,0,P|340:240|288:244,1,65.3333313395183,2|0,0:0|0:0,0:0:0:0:
208,268,63292,5,2,1:2:0:0:
252,64,63553,1,2,0:0:0:0:
104,212,63814,1,2,0:0:0:0:
116,296,63945,1,0,0:0:0:0:
180,352,64075,2,0,B|216:340|252:340|252:340|252:340|288:360|332:360,1,130.666662679037,10|2,0:0|0:0,0:0:0:0:
392,344,64466,1,0,0:0:0:0:
392,344,64597,2,0,L|392:288,3,32.6666656697591,0|0|0|0,1:0|0:0|0:0|0:0,0:0:0:0:
392,268,64858,6,0,P|352:272|252:240,1,130.666662679037,2|0,1:2|0:0,0:0:0:0:
148,124,65379,2,0,L|148:208,1,65.3333313395183,2|0,0:0|0:0,0:0:0:0:
92,60,65640,2,0,P|144:40|216:76,2,130.666662679037,8|0|0,0:0|0:0|0:0,0:0:0:0:
48,252,66423,6,0,B|72:280|72:280|112:292|112:292,1,65.3333313395183,2|0,1:2|0:0,0:0:0:0:
196,276,66684,2,0,P|192:236|200:200,1,65.3333313395183,2|0,0:0|0:0,0:0:0:0:
284,172,66945,2,0,P|288:224|280:252,1,65.3333313395183,2|2,0:0|0:0,0:0:0:0:
216,132,67206,2,0,P|252:100|336:112,1,130.666662679037,10|0,0:0|0:0,0:0:0:0:
420,280,67727,2,0,L|420:196,1,65.3333313395183,2|2,1:2|0:0,0:0:0:0:
468,48,67988,6,0,B|440:48|416:56|416:56|376:56|376:56|348:64|304:56,1,158.666669692993,0|4,1:0|1:2,0:0:0:0:
104,72,68510,1,0,0:0:0:0:
168,144,68641,1,0,0:0:0:0:
76,164,68771,6,0,B|88:196|88:196|64:232|72:260|72:260|104:288|160:280,1,158.666669692993,0|4,1:0|1:2,0:0:0:0:
312,248,69293,1,2,0:0:0:0:
232,196,69423,1,2,0:0:0:0:
372,200,69554,6,0,B|408:176|432:172|472:188|472:188|412:136|424:92,2,195.999994018555,4|8|8,1:2|0:0|0:0,0:0:0:0:
248,272,70597,2,0,P|188:264|156:188,1,130.666662679037,0|0,0:0|1:0,0:0:0:0:
256,192,71119,12,4,74250,1:0:0:0:
120,264,80511,6,0,P|188:224|216:224,1,93.3333333333333,0|8,1:0|0:1,0:0:0:0:
300,244,81033,1,0,0:0:0:0:
300,244,81163,1,0,0:0:0:0:
300,244,81294,2,0,L|300:136,2,93.3333333333333,8|0|0,0:1|0:0|0:0,0:0:0:0:
368,324,82077,6,0,L|348:368,2,46.6666666666667,8|0|8,0:1|0:0|0:1,0:0:0:0:
412,296,82468,2,0,L|432:352,2,46.6666666666667,0|8|8,0:0|0:1|0:1,0:0:0:0:
388,252,82859,2,0,P|372:200|388:152,1,93.3333333333333,8|8,0:1|0:1,0:0:0:0:
432,76,83381,1,8,0:1:0:0:
432,76,83511,1,0,0:0:0:0:
432,76,83642,6,0,P|356:80|320:68,1,93.3333333333333,2|2,0:0|0:0,0:0:0:0:
240,56,84164,1,2,0:0:0:0:
144,88,84425,2,0,L|144:192,1,93.3333333333333,8|8,0:1|0:1,0:0:0:0:
152,284,84946,2,0,L|96:284,1,46.6666666666667,2|2,0:0|0:0,0:0:0:0:
192,288,85207,2,0,P|228:324|276:336,1,93.3333333333333,2|8,0:0|0:1,0:0:0:0:
320,340,85599,1,8,0:1:0:0:
368,328,85729,2,0,L|368:380,2,46.6666666666667,8|0|8,0:1|0:0|0:1,0:0:0:0:
388,196,86251,6,0,L|436:212,3,30.3333319447836,8|0|0|0,0:0|0:0|0:0|0:0,0:0:0:0:
372,164,86528,2,0,L|408:156,4,22.7499989585877,0|0|0|0|0,0:0|0:0|0:0|0:0|0:0,0:0:0:0:
344,148,86773,6,0,L|224:200,1,111.999996582031,4|0,1:0|0:0,0:0:0:0:
124,260,87294,2,0,L|124:328,1,55.9999982910157,0|0,0:0|0:0,0:0:0:0:
52,324,87555,2,0,L|52:196,1,111.999996582031,10|0,0:0|0:0,0:0:0:0:
80,68,88077,1,0,0:0:0:0:
212,132,88338,6,0,P|238:139|266:140,1,55.9999982910157,2|0,1:2|0:0,0:0:0:0:
324,92,88599,2,0,P|351:92|378:100,1,55.9999982910157,0|0,0:0|0:0,0:0:0:0:
424,164,88860,2,0,P|450:171|478:172,1,55.9999982910157,0|0,0:0|0:0,0:0:0:0:
464,100,89121,2,0,B|440:236|440:236|424:272|364:296,1,223.999993164063,10|2,0:0|1:2,0:0:0:0:
304,292,89773,1,0,0:0:0:0:
232,276,89903,6,0,P|148:272|104:280,1,111.999996582031,2|0,1:2|0:0,0:0:0:0:
60,144,90425,2,0,L|60:224,1,55.9999982910157,0|0,0:0|0:0,0:0:0:0:
132,192,90686,2,0,B|192:200|192:200|288:176,1,111.999996582031,10|0,0:0|0:0,0:0:0:0:
308,160,91077,2,0,P|312:192|304:224,2,55.9999982910157,0|0|0,0:0|0:0|0:0,0:0:0:0:
252,112,91469,6,0,P|276:76|352:48,1,111.999996582031,2|2,1:2|0:0,0:0:0:0:
432,156,91990,1,0,0:0:0:0:
432,156,92251,2,0,B|448:212|448:212|438:265,1,111.999996582031,10|0,0:0|0:0,0:0:0:0:
376,308,92643,1,8,0:1:0:0:
304,324,92773,2,0,L|240:324,1,55.9999982910157,8|0,1:0|0:0,0:0:0:0:
192,368,93034,6,0,P|216:292|192:232,1,111.999996582031,0|0,1:0|0:0,0:0:0:0:
168,200,93425,1,0,0:0:0:0:
168,200,93556,2,0,L|240:172,1,55.9999982910157,0|0,0:0|0:0,0:0:0:0:
292,164,93817,2,0,P|288:92|304:24,2,111.999996582031,10|2|0,0:0|0:0|0:0,0:0:0:0:
404,256,94599,6,0,L|404:188,2,55.9999982910157,0|0|8,1:0|0:0|0:1,0:0:0:0:
444,316,94991,2,0,L|488:264,2,55.9999982910157,0|8|0,0:0|0:1|0:0,0:0:0:0:
396,372,95382,2,0,P|368:364|268:364,1,111.999996582031,8|8,0:0|0:1,0:0:0:0:
140,348,95904,1,0,1:0:0:0:
76,216,96165,6,0,P|104:164|100:104,1,111.999996582031,4|0,1:0|0:0,0:0:0:0:
88,40,96556,1,8,0:1:0:0:
88,40,96686,2,0,L|176:40,1,55.9999982910157,2|8,0:0|0:1,0:0:0:0:
216,40,96947,2,0,B|268:56|268:56|352:28,1,111.999996582031,14|2,0:0|0:0,0:0:0:0:
468,36,97469,2,0,L|468:108,1,55.9999982910157,2|2,0:0|0:0,0:0:0:0:
472,164,97730,6,0,B|432:212|432:212|348:236|244:192,1,223.999993164063,6|8,1:2|0:1,0:0:0:0:
140,144,98513,2,0,L|140:208,1,55.9999982910157,10|0,0:0|0:0,0:0:0:0:
152,272,98774,1,2,0:0:0:0:
152,272,98839,2,0,L|112:284,2,27.9999991455078,0|0|0,0:0|0:0|0:0,0:0:0:0:
180,296,99035,2,0,L|168:336,4,27.9999991455078,0|0|0|0|0,0:0|0:0|0:0|0:0|1:0,0:0:0:0:
256,192,102426,12,0,103731,0:0:0:0:
440,160,103991,6,0,L|440:232,1,55.9999982910157,4|0,1:2|0:0,0:0:0:0:
368,236,104252,2,0,L|336:304,1,55.9999982910157,0|0,0:0|0:0,0:0:0:0:
272,284,104513,2,0,L|212:324,1,55.9999982910157,0|8,0:0|0:1,0:0:0:0:
152,307,104774,2,0,P|156:280|154:252,2,55.9999982910157,8|8|2,0:0|0:0|0:0,0:0:0:0:
84,228,105165,2,0,P|79:255|81:283,2,55.9999982910157,0|2|0,0:0|0:0|0:0,0:0:0:0:
140,164,105557,6,0,P|228:160|296:136,1,130.666662679037,4|0,1:2|0:0,0:0:0:0:
424,76,106079,2,0,L|424:148,1,65.3333313395183,2|0,0:0|0:0,0:0:0:0:
420,228,106340,2,0,P|400:264|304:308,1,130.666662679037,10|0,0:0|0:0,0:0:0:0:
156,300,106861,1,2,0:0:0:0:
156,300,106992,1,2,0:0:0:0:
156,300,107122,6,0,B|168:236|168:236|144:168,2,130.666662679037,0|2|2,1:0|0:0|0:0,0:0:0:0:
68,156,107905,2,0,P|104:104|188:108,1,130.666662679037,8|0,0:0|0:0,0:0:0:0:
320,176,108427,2,0,L|416:176,1,65.3333313395183,0|0,1:0|0:0,0:0:0:0:
452,124,108688,6,0,P|432:164|460:268,1,130.666662679037,4|0,1:2|0:0,0:0:0:0:
312,352,109209,1,2,0:0:0:0:
228,356,109340,1,0,0:0:0:0:
268,280,109470,2,0,L|268:136,1,130.666662679037,8|0,0:0|0:0,0:0:0:0:
116,72,109992,2,0,L|116:144,1,65.3333313395183,2|0,0:0|0:0,0:0:0:0:
116,224,110253,5,2,1:2:0:0:
228,356,110514,1,2,0:0:0:0:
308,208,110775,1,2,0:0:0:0:
392,220,110905,1,8,0:1:0:0:
460,172,111036,2,0,P|476:232|472:260,1,65.3333313395183,10|0,0:0|0:0,0:0:0:0:
388,140,111296,2,0,P|340:116|272:40,1,130.666662679037,2|0,0:0|1:0,0:0:0:0:
124,112,111818,6,0,L|124:32,2,65.3333313395183,4|0|0,0:0|0:0|0:0,0:0:0:0:
192,268,112340,1,2,0:0:0:0:
220,128,112601,2,0,P|276:116|368:124,2,130.666662679037,10|0|2,0:0|0:0|0:0,0:0:0:0:
80,248,113384,6,0,P|84:288|64:332,1,65.3333313395183,2|0,1:2|0:0,0:0:0:0:
80,172,113644,2,0,P|124:184|152:224,1,65.3333313395183,2|0,0:0|0:0,0:0:0:0:
16,208,113905,2,0,P|8:160|20:128,1,65.3333313395183,2|2,0:0|0:0,0:0:0:0:
88,72,114166,2,0,L|232:72,1,130.666662679037,8|0,0:0|0:0,0:0:0:0:
388,44,114688,2,0,B|384:76|384:76|400:120,1,65.3333313395183,2|2,1:2|0:0,0:0:0:0:
460,160,114949,6,0,P|412:180|352:252,1,130.666662679037,2|0,1:2|0:0,0:0:0:0:
228,348,115471,1,2,0:0:0:0:
228,348,115601,1,8,0:1:0:0:
228,348,115732,2,0,B|160:356|160:356|103:331,1,130.666662679037,8|2,0:0|0:0,0:0:0:0:
152,168,116253,2,0,L|152:233,1,65.3333313395183,0|0,0:0|0:0,0:0:0:0:
100,104,116514,6,0,B|156:79|156:79|224:87,2,130.666662679037,2|8|2,1:2|0:1|0:0,0:0:0:0:
248,196,117297,2,0,P|268:248|352:272,1,130.666662679037,10|8,0:0|0:1,0:0:0:0:
368,196,117688,1,8,0:1:0:0:
452,200,117819,1,2,0:0:0:0:
472,284,117949,1,0,0:0:0:0:
400,332,118080,6,0,P|336:364|268:336,1,130.666662679037,6|0,1:2|0:0,0:0:0:0:
124,288,118601,2,0,L|124:368,1,65.3333313395183,0|0,0:0|0:0,0:0:0:0:
180,236,118862,2,0,P|112:252|100:184,1,130.666662679037,8|0,0:0|0:0,0:0:0:0:
212,88,119384,2,0,L|296:88,1,65.3333313395183,0|0,0:0|0:0,0:0:0:0:
340,27,119645,6,0,P|326:91|347:152,1,130.666662679037,0|2,1:0|0:0,0:0:0:0:
460,280,120167,2,0,P|473:216|452:155,1,130.666662679037,2|8,0:0|0:0,0:0:0:0:
312,252,120689,1,8,0:1:0:0:
312,252,120949,2,0,L|224:252,1,65.3333313395183,2|0,1:2|0:0,0:0:0:0:
188,312,121210,6,0,P|164:256|192:188,1,130.666662679037,2|0,1:2|0:0,0:0:0:0:
256,144,121602,1,8,0:1:0:0:
180,104,121732,2,0,L|180:24,1,65.3333313395183,2|8,0:0|0:1,0:0:0:0:
83,59,121993,2,0,P|180:76|275:54,1,195.999994018555,10|0,0:0|0:0,0:0:0:0:
356,32,122515,2,0,L|356:100,1,65.3333313395183,2|0,0:0|0:0,0:0:0:0:
368,180,122776,5,2,1:2:0:0:
468,44,123037,1,2,0:0:0:0:
440,240,123298,2,0,L|440:320,1,65.3333313395183,0|8,0:0|0:1,0:0:0:0:
500,368,123558,2,0,P|416:344|348:352,1,130.666662679037,10|2,0:0|0:0,0:0:0:0:
204,316,124080,2,0,L|128:316,1,65.3333313395183,2|0,1:2|0:0,0:0:0:0:
280,352,124341,6,0,P|288:304|224:232,1,130.666662679037,2|0,1:2|0:0,0:0:0:0:
76,212,124863,2,0,L|76:136,1,65.3333313395183,0|0,0:0|0:0,0:0:0:0:
152,104,125124,2,0,P|208:112|288:100,1,130.666662679037,8|0,0:0|0:0,0:0:0:0:
440,44,125646,1,0,0:0:0:0:
472,124,125776,1,0,0:0:0:0:
444,204,125906,6,0,P|436:264|440:288,1,65.3333313395183,2|0,1:2|0:0,0:0:0:0:
384,336,126167,2,0,B|352:344|352:344|320:338,1,65.3333313395183,2|0,0:0|0:0,0:0:0:0:
268,244,126428,2,0,B|300:236|300:236|331:241,1,65.3333313395183,0|0,0:0|0:0,0:0:0:0:
224,332,126689,2,0,P|168:340|88:320,1,130.666662679037,8|0,0:0|0:0,0:0:0:0:
88,152,127211,2,0,L|88:240,1,65.3333313395183,4|2,1:2|0:0,0:0:0:0:
80,72,127472,6,0,B|136:72|160:116|160:116|192:108|240:68,1,167.999994873047,0|4,1:0|1:2,0:0:0:0:
296,44,127863,1,0,0:0:0:0:
288,128,127994,2,0,L|288:228,1,83.9999974365235,0|0,0:0|0:0,0:0:0:0:
368,156,128254,6,0,B|384:228|336:292|336:292|376:284,1,167.999994873047,4|4,1:0|1:2,0:0:0:0:
444,276,128646,1,0,0:0:0:0:
456,192,128776,2,0,L|456:92,1,83.9999974365235,0|0,0:0|0:0,0:0:0:0:
380,64,129037,6,0,B|340:76|292:63|292:63|264:64|264:64|224:52|184:64,1,195.999994018555,4|10,1:2|0:0,0:0:0:0:
68,292,129820,2,0,P|120:232|184:212,1,130.666662679037,10|2,0:0|0:0,0:0:0:0:
336,220,130342,2,0,L|336:140,1,65.3333313395183,2|0,1:2|0:0,0:0:0:0:
256,192,130602,12,6,133733,1:2:0:0:
332,232,133994,6,0,L|408:232,2,65.3333313395183,2|0|2,0:0|0:0|0:0,0:0:0:0:
188,252,134516,2,0,P|148:304|76:328,1,130.666662679037,8|2,0:0|0:0,0:0:0:0:
24,292,134907,2,0,B|24:252|24:252|40:204,1,65.3333313395183,0|2,0:0|0:0,0:0:0:0:
80,176,135168,1,0,0:0:0:0:
100,108,135299,6,0,B|152:104|152:104|152:104|216:112|248:152,1,130.666662679037,8|2,0:0|0:0,0:0:0:0:
276,184,135690,2,0,P|288:208|332:244,1,65.3333313395183,0|0,0:0|0:0,0:0:0:0:
388,244,135951,2,0,P|416:272|432:300,1,65.3333313395183,0|8,0:0|0:0,0:0:0:0:
292,344,136342,1,2,0:0:0:0:
156,292,136603,1,2,0:0:0:0:
28,356,136864,6,0,P|48:288|48:208,1,130.666662679037,4|2,0:0|0:0,0:0:0:0:
40,156,137255,1,0,0:0:0:0:
40,156,137386,2,0,L|136:156,1,65.3333313395183,2|0,0:0|0:0,0:0:0:0:
148,96,137647,2,0,P|144:144|188:216,1,130.666662679037,8|0,0:0|0:0,0:0:0:0:
248,248,138038,2,0,L|248:320,2,65.3333313395183,0|2|0,0:0|0:0|0:0,0:0:0:0:
244,176,138429,6,0,P|276:160|384:168,1,130.666662679037,4|2,0:0|0:0,0:0:0:0:
424,208,138821,2,0,P|440:172|436:136,2,65.3333313395183,8|2|0,0:0|0:0|0:0,0:0:0:0:
356,232,139212,1,4,0:0:0:0:
