osu file format v14

[General]
AudioFilename: audio.mp3
AudioLeadIn: 0
PreviewTime: 13333
Countdown: 0
SampleSet: Soft
StackLeniency: 0.4
Mode: 0
LetterboxInBreaks: 0
WidescreenStoryboard: 1

[Editor]
Bookmarks: 34666,36666,37333,37999,39999,55666
DistanceSpacing: 1
BeatDivisor: 4
GridSize: 4
TimelineZoom: 1.700003

[Metadata]
Title:Plasma Gun
TitleUnicode:Plasma Gun
Artist:Memme
ArtistUnicode:Memme
Creator:emu1337
Version:sleepy's Normal
Source:O2Jam U
Tags:electronic instrumental ParkMemme shooting trance tynamo -tynamo sleepy sleepymateo ratina0 lmt yukiyo
BeatmapID:2779003
BeatmapSetID:1341551

[Difficulty]
HPDrainRate:3
CircleSize:3
OverallDifficulty:4
ApproachRate:5
SliderMultiplier:1.1
SliderTickRate:1

[Events]
//Background and Video events
0,0,"clouds-1609726326065-5941.jpg",0,0
//Break Periods
//Storyboard Layer 0 (Background)
//Storyboard Layer 1 (Fail)
//Storyboard Layer 2 (Pass)
//Storyboard Layer 3 (Foreground)
//Storyboard Layer 4 (Overlay)
//Storyboard Sound Samples

[TimingPoints]
0,333.333333333333,4,2,1,70,1,0
2666,-117.647058823529,4,2,1,55,0,0
7999,-117.647058823529,4,2,1,65,0,0
11333,-117.647058823529,4,2,1,75,0,0
13333,-100,4,2,1,75,0,0
23999,-117.647058823529,4,2,1,75,0,0
24166,-117.647058823529,4,2,1,65,0,0
34666,-100,4,2,1,75,0,1
34749,-100,4,2,1,55,0,1
34999,-100,4,2,1,60,0,1
35333,-100,4,2,1,65,0,1
35666,-100,4,2,1,70,0,1
35999,-100,4,2,1,75,0,1
36333,-100,4,2,1,80,0,1
36666,-100,4,2,1,85,0,1
36999,-100,4,2,1,90,0,1
37666,-100,4,2,1,85,0,1
37999,-100,4,2,1,80,0,1
38333,-100,4,2,1,75,0,1
38666,-100,4,2,1,70,0,1
38999,-100,4,2,1,65,0,1
39333,-100,4,2,1,60,0,1
39666,-100,4,2,1,55,0,1
40333,-100,4,2,1,60,0,1
40666,-100,4,2,1,65,0,1
40999,-100,4,2,1,70,0,1
41333,-100,4,2,1,75,0,1
41666,-100,4,2,1,80,0,1
41999,-100,4,2,1,85,0,1
42333,-100,4,2,1,90,0,1
42666,-100,4,2,1,95,0,1
43833,-100,4,2,1,95,0,0
43999,-100,4,2,1,65,0,0
45333,-100,4,2,1,75,0,0
55999,-100,4,2,1,65,0,0

[Colours]
Combo1 : 164,194,230
Combo2 : 187,234,234

[HitObjects]
317,329,2666,5,6,0:0:0:0:
349,241,2999,1,2,0:0:0:0:
308,156,3333,2,0,P|258:140|206:152,1,93.500001783371,2|0,0:0|0:0,0:0:0:0:
172,139,3833,2,0,B|132:147|132:147|72:132,2,93.500001783371,2|2|0,0:0|0:0|0:0,0:0:0:0:
197,48,4833,2,0,L|257:52,2,46.7500008916855,2|2|2,0:0|0:0|0:0,0:0:0:0:
148,20,5333,5,2,0:0:0:0:
60,53,5666,1,2,0:0:0:0:
19,137,5999,2,0,P|40:180|91:215,1,93.500001783371,2|2,0:0|0:0,0:0:0:0:
113,234,6499,2,0,B|148:223|148:223|215:242,2,93.500001783371,2|2|0,0:0|0:0|0:0,0:0:0:0:
88,327,7499,1,2,0:0:0:0:
88,327,7666,2,0,L|143:340,1,46.7500008916855,2|2,0:0|0:0,0:0:0:0:
178,352,7999,6,0,P|224:331|278:334,1,93.500001783371,6|0,3:2|3:2,0:0:0:0:
359,335,8666,2,0,P|372:286|409:246,1,93.500001783371,0|0,3:2|3:2,0:0:0:0:
431,220,9166,1,0,0:0:0:0:
431,220,9333,2,0,P|402:178|395:124,1,93.500001783371,0|0,3:2|3:2,0:0:0:0:
367,47,9999,2,0,P|316:42|271:12,1,93.500001783371,0|0,3:2|3:2,0:0:0:0:
238,14,10499,1,0,0:0:0:0:
238,14,10666,6,0,L|175:9,1,46.7500008916855,4|0,3:2|0:0,0:0:0:0:
157,43,10999,2,0,L|95:47,1,46.7500008916855,0|0,3:2|0:0,0:0:0:0:
66,29,11333,2,0,P|34:65|27:119,1,93.500001783371,6|2,3:2|3:2,0:0:0:0:
77,186,11999,5,2,3:2:0:0:
164,218,12333,1,0,3:2:0:0:
257,221,12666,2,0,P|256:250|265:284,1,46.7500008916855,2|2,3:2|0:2,0:0:0:0:
299,291,12999,2,0,P|298:320|292:352,1,46.7500008916855,2|2,0:2|0:2,0:0:0:0:
271,373,13333,6,0,L|148:365,1,110,6|10,3:2|3:2,0:0:0:0:
110,371,13833,1,2,0:2:0:0:
110,371,13999,1,2,3:2:0:0:
33,291,14333,1,10,3:2:0:0:
82,193,14666,2,0,P|83:164|92:130,1,55,0|2,3:2|0:0,0:0:0:0:
50,98,14999,2,0,P|49:69|40:35,1,55,10|2,3:2|0:0,0:0:0:0:
90,14,15333,2,0,L|225:26,1,110,2|10,3:2|3:2,0:0:0:0:
307,46,15999,6,0,P|331:26|367:12,2,55,2|2|10,3:2|0:0|3:2,0:0:0:0:
233,128,16666,1,2,3:2:0:0:
251,236,16999,1,8,3:2:0:0:
344,293,17333,2,0,P|397:275|461:283,1,110,0|10,3:2|3:2,0:0:0:0:
504,260,17833,1,2,0:0:0:0:
504,260,17999,2,0,L|509:138,1,110,2|10,3:2|3:2,0:0:0:0:
490,41,18666,6,0,P|432:18|372:23,1,110,6|10,3:2|3:2,0:0:0:0:
334,28,19166,1,2,0:0:0:0:
334,28,19332,1,2,3:2:0:0:
262,111,19666,1,10,3:2:0:0:
286,218,19999,2,0,L|349:227,1,55,4|2,3:2|0:0,0:0:0:0:
389,200,20333,2,0,L|452:191,1,55,10|2,3:2|0:0,0:0:0:0:
486,227,20666,2,0,P|476:277|428:335,1,110,2|10,3:2|3:2,0:0:0:0:
334,346,21333,6,0,L|268:351,2,55,6|2|10,3:2|0:0|3:2,0:0:0:0:
368,241,21999,1,6,3:2:0:0:
327,138,22333,1,8,3:2:0:0:
234,78,22666,2,0,L|170:74,1,55,8|8,2:2|2:2,0:0:0:0:
133,106,22999,2,0,L|69:110,1,55,8|8,2:2|2:2,0:0:0:0:
31,78,23333,2,0,P|-2:122|-4:191,1,110,8|10,2:2|2:2,0:0:0:0:
45,252,23999,6,0,L|184:278,4,140.250002675057,6|2|2|2|2,3:2|3:2|0:2|0:2|0:2,0:0:0:0:
93,171,26333,1,10,3:2:0:0:
186,171,26666,6,0,L|277:64,4,140.250002675057,2|2|2|2|0,3:2|3:2|0:2|0:2|0:0,0:0:0:0:
190,264,28999,2,0,L|193:325,1,46.7500008916855,2|2,3:2|3:2,0:0:0:0:
210,354,29333,6,0,L|59:332,4,140.250002675057,2|2|2|2|2,3:2|3:2|0:2|0:2|0:2,0:0:0:0:
300,328,31666,1,10,3:2:0:0:
386,362,31999,6,0,P|430:339|457:299,1,93.500001783371,2|0,3:2|0:0,0:0:0:0:
464,210,32666,2,0,L|474:160,2,46.7500008916855,2|2|2,3:2|0:2|0:2,0:0:0:0:
417,215,33166,2,0,P|368:193|308:196,1,93.500001783371,2|2,3:2|0:2,0:0:0:0:
189,173,33999,2,0,L|179:72,1,93.500001783371,10|10,0:2|0:2,0:0:0:0:
193,38,34499,1,10,0:2:0:0:
193,38,34666,6,0,P|237:20|307:16,1,110,14|8,3:2|3:2,0:0:0:0:
408,26,35333,2,0,L|420:138,1,110,10|8,3:2|3:2,0:0:0:0:
392,185,35833,1,0,0:0:0:0:
392,185,35999,2,0,P|333:211|300:254,1,110,10|8,3:2|3:2,0:0:0:0:
252,342,36666,1,10,3:2:0:0:
143,362,36999,1,8,3:2:0:0:
44,312,37333,6,0,L|30:189,1,110,10|8,3:2|3:2,0:0:0:0:
44,93,38000,2,0,P|93:102|165:98,1,110,10|8,3:2|3:2,0:0:0:0:
196,65,38500,1,0,0:0:0:0:
196,65,38666,2,0,L|314:73,1,110,10|8,3:2|3:2,0:0:0:0:
405,25,39333,1,10,3:2:0:0:
490,94,39666,1,8,3:2:0:0:
487,203,39999,6,0,L|483:319,1,110,10|8,3:2|3:2,0:0:0:0:
391,374,40666,2,0,P|334:356|287:313,1,110,10|8,3:2|3:2,0:0:0:0:
266,284,41166,1,0,0:0:0:0:
266,284,41332,2,0,L|256:158,1,110,10|8,3:2|3:2,0:0:0:0:
272,65,41999,1,10,3:2:0:0:
175,12,42332,1,8,3:2:0:0:
73,55,42666,6,0,P|76:84|75:114,1,55,8|8,3:2|3:2,0:0:0:0:
119,142,42999,2,0,P|116:171|117:201,1,55,8|8,3:2|3:2,0:0:0:0:
65,219,43333,2,0,P|44:272|50:338,1,110,8|8,3:2|3:2,0:0:0:0:
85,362,43833,2,0,L|212:373,1,110,8|10,3:2|0:2,0:0:0:0:
359,359,44666,2,0,P|386:350|417:347,1,55,2|2,0:2|3:2,0:0:0:0:
460,320,44999,2,0,P|465:292|478:263,1,55,10|10,3:2|3:2,0:0:0:0:
455,216,45333,6,0,L|457:100,1,110,6|10,3:2|3:2,0:0:0:0:
489,62,45833,1,2,0:2:0:0:
489,62,45999,1,2,3:2:0:0:
388,16,46333,1,10,3:2:0:0:
289,63,46666,2,0,P|234:70|175:57,1,110,2|10,3:2|3:2,0:0:0:0:
70,60,47333,2,0,L|64:119,1,55,10|10,0:2|0:2,0:0:0:0:
110,144,47666,2,0,L|116:203,1,55,10|10,0:2|0:2,0:0:0:0:
76,237,47999,6,0,L|71:301,2,55,6|2|10,3:2|0:2|3:2,0:0:0:0:
11,147,48666,1,2,3:2:0:0:
68,53,48999,1,8,3:2:0:0:
175,58,49333,2,0,P|208:56|237:44,1,55,8|8,0:0|0:0,0:0:0:0:
277,74,49666,2,0,P|310:76|339:88,1,55,8|8,0:0|0:0,0:0:0:0:
372,47,49999,2,0,L|495:54,1,110,8|8,0:0|0:0,0:0:0:0:
506,160,50666,6,0,P|487:216|439:261,1,110,6|10,3:2|3:2,0:0:0:0:
410,285,51166,1,2,0:2:0:0:
410,285,51332,1,2,3:2:0:0:
299,283,51666,1,10,3:2:0:0:
208,220,51999,2,0,L|202:95,1,110,0|10,3:2|3:2,0:0:0:0:
280,32,52666,2,0,P|313:30|346:43,1,55,10|10,0:2|0:2,0:0:0:0:
360,84,52999,2,0,P|388:101|423:107,1,55,10|10,0:2|0:2,0:0:0:0:
457,77,53333,6,0,P|490:75|523:88,2,55,6|2|10,3:2|0:2|3:2,0:0:0:0:
373,6,53999,1,2,3:2:0:0:
265,30,54333,1,8,3:2:0:0:
214,126,54666,2,0,L|224:203,1,55,2|2,3:2|0:2,0:0:0:0:
268,208,54999,2,0,L|257:273,1,55,10|0,3:2|0:0,0:0:0:0:
224,305,55333,2,0,P|164:299|112:319,1,110,8|10,0:0|0:2,0:0:0:0:
21,263,55999,6,0,L|29:139,1,110,2|8,3:2|0:2,0:0:0:0:
66,113,56499,2,0,P|117:126|194:117,1,110,2|8,3:2|0:2,0:0:0:0:
232,136,56999,1,8,0:2:0:0:
232,136,57166,1,6,3:2:0:0:
256,192,57333,12,0,58666,0:0:0:0:
