osu file format v14

[General]
AudioFilename: audio.mp3
AudioLeadIn: 0
PreviewTime: 13333
Countdown: 0
SampleSet: Soft
StackLeniency: 0.4
Mode: 0
LetterboxInBreaks: 0
WidescreenStoryboard: 1

[Editor]
Bookmarks: 34666,45333
DistanceSpacing: 0.1
BeatDivisor: 4
GridSize: 32
TimelineZoom: 2.600003

[Metadata]
Title:Plasma Gun
TitleUnicode:Plasma Gun
Artist:Memme
ArtistUnicode:Memme
Creator:emu1337
Version:Yukiyo's Extra
Source:O2Jam U
Tags:electronic instrumental ParkMemme shooting trance tynamo -tynamo sleepy sleepymateo ratina0 lmt yukiyo
BeatmapID:2779005
BeatmapSetID:1341551

[Difficulty]
HPDrainRate:6
CircleSize:4.7
OverallDifficulty:9
ApproachRate:9.4
SliderMultiplier:1.6
SliderTickRate:1

[Events]
//Background and Video events
0,0,"clouds-1609726326065-5941.jpg",0,0
//Break Periods
//Storyboard Layer 0 (Background)
//Storyboard Layer 1 (Fail)
//Storyboard Layer 2 (Pass)
//Storyboard Layer 3 (Foreground)
//Storyboard Layer 4 (Overlay)
//Storyboard Sound Samples

[TimingPoints]
0,333.333333333333,4,2,1,70,1,0
1999,-333.333333333333,4,2,1,70,0,0
2666,-100,4,2,1,55,0,0
7999,-100,4,2,1,65,0,0
11333,-100,4,2,1,75,0,0
11999,-25,4,2,1,75,0,0
13333,-52.6315789473684,4,2,1,75,0,0
16666,-142.857142857143,4,2,1,75,0,0
22166,-83.3333333333333,4,2,1,75,0,0
23999,-55.5555555555556,4,2,1,75,0,0
24166,-55.5555555555556,4,2,1,65,0,0
25666,-71.4285714285714,4,2,1,65,0,0
26666,-58.8235294117647,4,2,1,65,0,0
29833,-45.4545454545455,4,2,1,65,0,0
30333,-37.037037037037,4,2,1,65,0,0
31999,-125,4,2,1,65,0,0
32833,-55.5555555555556,4,2,1,65,0,0
33166,-47.6190476190476,4,2,1,65,0,0
34166,-35.7142857142857,4,2,1,65,0,0
34666,-71.4285714285714,4,2,1,75,0,1
34749,-71.4285714285714,4,2,1,55,0,1
34999,-71.4285714285714,4,2,1,60,0,1
35333,-71.4285714285714,4,2,1,65,0,1
35666,-71.4285714285714,4,2,1,70,0,1
35999,-71.4285714285714,4,2,1,75,0,1
36333,-71.4285714285714,4,2,1,80,0,1
36666,-71.4285714285714,4,2,1,85,0,1
36999,-71.4285714285714,4,2,1,90,0,1
37666,-71.4285714285714,4,2,1,85,0,1
37999,-71.4285714285714,4,2,1,80,0,1
38333,-71.4285714285714,4,2,1,75,0,1
38666,-71.4285714285714,4,2,1,70,0,1
38999,-71.4285714285714,4,2,1,65,0,1
39333,-71.4285714285714,4,2,1,60,0,1
39666,-71.4285714285714,4,2,1,55,0,1
40333,-71.4285714285714,4,2,1,60,0,1
40666,-71.4285714285714,4,2,1,65,0,1
40999,-71.4285714285714,4,2,1,70,0,1
41333,-71.4285714285714,4,2,1,75,0,1
41666,-71.4285714285714,4,2,1,80,0,1
41999,-71.4285714285714,4,2,1,85,0,1
42333,-71.4285714285714,4,2,1,90,0,1
42666,-37.037037037037,4,2,1,95,0,1
43499,-30.3030303030303,4,2,1,95,0,1
43833,-30.3030303030303,4,2,1,95,0,0
43999,-30.3030303030303,4,2,1,65,0,0
44166,-41.6666666666667,4,2,1,65,0,0
44333,-30.3030303030303,4,2,1,65,0,0
44999,-27.027027027027,4,2,1,65,0,0
45333,-52.6315789473684,4,2,1,75,0,0
46999,-47.6190476190476,4,2,1,75,0,0
47333,-27.027027027027,4,2,1,75,0,0
47999,-52.6315789473684,4,2,1,75,0,0
49333,-25,4,2,1,75,0,0
50666,-52.6315789473684,4,2,1,75,0,0
52666,-27.027027027027,4,2,1,75,0,0
53416,-52.6315789473684,4,2,1,75,0,0
54666,-34.4827586206897,4,2,1,75,0,0
54999,-25,4,2,1,75,0,0
55999,-25,4,2,1,65,0,0
57166,-83.3333333333333,4,2,1,65,0,0

[Colours]
Combo1 : 164,194,230
Combo2 : 187,234,234

[HitObjects]
109,53,1999,6,0,P|77:60|109:64,1,83.9999974365235
103,71,2666,6,0,L|92:150,1,80,6|0,0:0|0:0,0:0:0:0:
92,150,2999,1,2,0:0:0:0:
198,324,3333,1,2,0:0:0:0:
201,339,3499,1,2,0:0:0:0:
59,261,3833,1,2,0:0:0:0:
54,279,4166,1,2,0:0:0:0:
168,211,4333,1,2,0:0:0:0:
171,231,4666,1,0,0:0:0:0:
76,137,4833,1,2,0:0:0:0:
73,157,4999,1,2,0:0:0:0:
166,84,5166,1,2,0:0:0:0:
106,19,5333,6,0,L|185:8,1,80,2|0,0:0|0:0,0:0:0:0:
185,8,5666,1,2,0:0:0:0:
446,48,5999,1,2,0:0:0:0:
450,28,6333,1,2,0:0:0:0:
322,103,6499,1,2,0:0:0:0:
318,87,6833,1,2,0:0:0:0:
449,155,6999,1,2,0:0:0:0:
454,138,7166,1,0,0:0:0:0:
349,222,7333,1,0,0:0:0:0:
346,204,7499,1,2,0:0:0:0:
447,281,7666,1,2,0:0:0:0:
447,271,7749,1,0,0:0:0:0:
448,263,7833,1,2,0:0:0:0:
291,347,7999,6,0,B|280:355|280:355|217:332,1,80,6|0,3:2|0:0,0:0:0:0:
187,260,8333,2,0,B|198:252|198:252|260:274,1,80,0|0,3:2|0:0,0:0:0:0:
323,208,8666,2,0,B|313:218|313:218|336:279,1,80,0|0,3:2|0:0,0:0:0:0:
430,366,8999,1,0,3:2:0:0:
430,366,9166,2,0,B|440:356|440:356|416:294,1,80,0|0,0:0|3:2,0:0:0:0:
283,350,9499,1,0,0:0:0:0:
283,350,9666,2,0,B|306:365|306:365|356:348,1,80,0|0,3:2|0:0,0:0:0:0:
187,273,9999,2,0,B|210:258|210:258|260:274,1,80,0|0,3:2|0:0,0:0:0:0:
94,361,10333,2,0,B|117:376|117:376|167:359,1,80,0|0,3:2|0:0,0:0:0:0:
165,355,10666,5,4,3:2:0:0:
160,331,10749,1,0,0:0:0:0:
156,307,10833,1,0,0:0:0:0:
152,283,10916,1,0,0:0:0:0:
148,263,10999,1,0,3:2:0:0:
145,242,11083,1,0,0:0:0:0:
141,222,11166,1,0,0:0:0:0:
138,206,11249,1,0,0:0:0:0:
135,190,11333,1,6,3:2:0:0:
132,174,11416,1,2,0:2:0:0:
130,158,11499,1,2,0:2:0:0:
128,146,11583,1,2,0:2:0:0:
126,134,11666,1,2,3:2:0:0:
125,126,11749,1,2,3:2:0:0:
124,117,11833,1,2,3:2:0:0:
123,113,11916,1,2,3:2:0:0:
122,107,11999,6,0,B|249:93|249:93|222:75,1,160,2|0,3:2|0:0,0:0:0:0:
300,174,12166,2,0,B|326:156|326:156|199:142,1,160
224,215,12333,6,0,B|204:239|216:285|216:285|158:173|62:167|62:167|91:176|102:192,2,320,0|0|2,3:2|0:0|3:2,0:0:0:0:
170,300,12749,5,2,0:2:0:0:
193,292,12833,1,2,0:2:0:0:
216,285,12916,1,2,0:2:0:0:
317,333,12999,2,0,B|306:372|250:406|203:359|181:277|202:216|315:261|396:291|443:204|432:108|379:48|266:73|247:161|293:213|353:204,1,480,2|2,0:2|0:2,0:0:0:0:
394,285,13333,5,6,3:2:0:0:
417,277,13416,1,2,0:0:0:0:
441,272,13499,1,2,0:0:0:0:
386,363,13666,1,10,3:2:0:0:
267,298,13833,1,2,0:2:0:0:
291,305,13916,1,2,0:2:0:0:
314,311,13999,1,2,3:2:0:0:
251,215,14166,1,2,0:2:0:0:
219,362,14333,1,10,3:2:0:0:
314,311,14499,1,2,0:0:0:0:
176,270,14666,5,0,3:2:0:0:
341,222,14833,1,2,0:0:0:0:
362,216,14916,1,2,0:0:0:0:
384,210,14999,1,10,3:2:0:0:
285,161,15166,1,2,0:0:0:0:
264,364,15333,1,2,3:2:0:0:
270,330,15416,1,2,0:0:0:0:
274,302,15499,1,2,0:0:0:0:
50,120,15666,5,10,3:2:0:0:
50,120,15833,1,2,0:0:0:0:
140,190,15999,5,2,3:2:0:0:
134,168,16083,1,2,0:0:0:0:
128,147,16166,1,2,0:0:0:0:
63,247,16333,1,10,3:2:0:0:
178,311,16499,5,2,0:0:0:0:
174,323,16583,1,2,0:0:0:0:
170,335,16666,2,0,L|121:321,1,27.9999991455078,2|0,3:2|0:0,0:0:0:0:
83,285,16833,2,0,L|34:271,1,27.9999991455078,2|0,0:0|0:0,0:0:0:0:
243,297,16999,1,8,3:2:0:0:
246,305,17083,1,0,0:0:0:0:
248,313,17166,1,0,0:0:0:0:
195,378,17333,5,0,3:2:0:0:
184,213,17499,1,2,0:0:0:0:
173,252,17583,1,2,0:0:0:0:
161,292,17666,1,10,3:2:0:0:
101,189,17833,1,2,0:0:0:0:
259,76,17999,1,2,3:2:0:0:
305,130,18083,1,2,0:0:0:0:
234,145,18166,1,2,0:0:0:0:
89,0,18333,1,10,3:2:0:0:
43,54,18417,1,2,0:0:0:0:
114,69,18500,1,2,0:0:0:0:
339,48,18666,5,6,3:2:0:0:
371,41,18749,1,2,0:0:0:0:
398,36,18833,1,2,0:0:0:0:
305,130,18999,1,10,3:2:0:0:
195,210,19166,1,2,0:0:0:0:
224,214,19249,1,2,0:0:0:0:
251,219,19333,1,2,3:2:0:0:
296,290,19499,1,2,0:0:0:0:
208,69,19666,1,10,3:2:0:0:
216,97,19749,1,2,0:0:0:0:
225,127,19832,1,2,0:0:0:0:
341,209,19999,5,4,3:2:0:0:
493,137,20166,1,2,0:0:0:0:
461,123,20249,1,2,0:0:0:0:
426,106,20333,1,10,3:2:0:0:
442,230,20499,1,2,0:0:0:0:
315,57,20666,1,2,3:2:0:0:
355,39,20749,1,2,0:0:0:0:
398,21,20833,1,2,0:0:0:0:
372,331,20999,5,10,3:2:0:0:
372,331,21166,1,2,0:0:0:0:
321,252,21333,5,6,3:2:0:0:
343,244,21416,1,2,0:0:0:0:
365,237,21499,1,2,0:0:0:0:
451,348,21666,1,10,3:2:0:0:
282,330,21833,1,2,0:0:0:0:
254,320,21916,1,2,0:0:0:0:
230,312,21999,2,0,L|219:262,1,27.9999991455078,6|0,3:2|0:0,0:0:0:0:
140,263,22166,2,0,L|130:215,1,47.9999985351563,2|0,0:0|0:0,0:0:0:0:
22,37,22333,5,8,3:2:0:0:
28,45,22416,1,0,0:0:0:0:
35,51,22499,1,0,0:0:0:0:
481,137,22666,5,8,2:2:0:0:
302,80,22833,1,8,2:2:0:0:
305,32,22916,1,8,2:2:0:0:
349,56,22999,1,8,2:2:0:0:
422,304,23166,1,8,2:2:0:0:
397,376,23249,1,8,2:2:0:0:
343,321,23333,5,8,2:2:0:0:
333,316,23416,1,8,2:2:0:0:
322,309,23499,1,8,2:2:0:0:
314,305,23583,1,8,2:2:0:0:
258,358,23666,5,10,2:2:0:0:
209,344,23749,1,2,2:2:0:0:
161,329,23833,1,2,2:2:0:0:
113,316,23916,1,2,2:2:0:0:
69,304,23999,6,0,B|22:276|9:153|154:152|195:74|135:-15|11:54|102:98,1,359.999989013672,6|0,3:2|0:0,0:0:0:0:
85,87,24499,2,0,B|53:50|83:35|134:32|145:48|140:87|118:118|121:148|140:173|166:192|205:202|237:197|281:184|288:125|261:97|192:98,1,359.999989013672,2|0,3:2|0:0,0:0:0:0:
242,109,24999,6,0,B|275:130|247:169|247:169|318:141|386:181|405:233|357:328|257:285|294:221,1,359.999989013672,2|0,0:2|0:0,0:0:0:0:
290,233,25499,6,0,P|296:266|329:274,1,71.9999978027344,2|0,0:2|0:0,0:0:0:0:
360,202,25666,2,0,P|382:121|363:40,1,167.999994873047,2|0,0:2|0:0,0:0:0:0:
363,40,25999,2,0,P|421:99|500:123,1,167.999994873047,2|0,0:2|0:0,0:0:0:0:
500,123,26333,5,10,3:2:0:0:
160,46,26666,6,0,B|134:53|98:27|98:27|142:59|183:130|164:182|128:206|70:197|42:147|83:108,1,340.000006484985,2|0,3:2|0:0,0:0:0:0:
69,126,27166,6,0,B|55:164|91:195|135:187|148:151|148:151|225:142|240:218|211:266|211:266|215:251|205:224,1,340.000006484985,2|0,3:2|0:0,0:0:0:0:
206,227,27666,6,0,B|216:244|211:267|211:267|235:230|225:197|225:197|274:292|352:221|352:221|309:229|275:196,1,340.000006484985,2|0,0:2|0:0,0:0:0:0:
290,208,28166,6,0,B|327:231|355:218|355:218|394:138|288:82|288:82|259:25|313:-6|360:8|385:58|322:96,1,408.000007781983,2|0,0:2|0:0,0:0:0:0:
64,195,28999,5,2,3:2:0:0:
18,180,29083,1,2,0:2:0:0:
18,132,29166,1,2,3:2:0:0:
64,117,29249,1,2,0:2:0:0:
91,156,29333,6,0,P|96:216|143:124,1,272.000005187988,2|0,3:2|0:0,0:0:0:0:
169,130,29833,6,0,P|174:70|250:178,1,352.000010742188,2|0,3:2|0:0,0:0:0:0:
256,176,30333,6,0,P|354:323|345:148,1,432.000001647949,2|0,0:2|0:0,0:0:0:0:
383,167,30833,6,0,B|291:188|249:124|249:124|195:129|171:184|171:184|86:114|-12:178|-12:178|50:159|86:177,1,540.000002059937,2|0,0:2|0:0,0:0:0:0:
73,172,31333,5,2,0:2:0:0:
220,359,31666,1,10,3:2:0:0:
220,359,31999,6,0,P|198:293|166:233,1,128,2|0,3:2|0:0,0:0:0:0:
237,273,32666,6,0,P|242:241|252:219,1,32,2|0,3:2|0:0,0:0:0:0:
201,168,32833,6,0,P|206:179|208:164,4,35.9999989013672,2|0|0|0|2,0:2|0:0|0:0|0:0|0:2,0:0:0:0:
13,113,33166,2,0,B|20:64|69:49|69:49|51:122|119:166|119:166|127:120|157:95|191:90,1,335.999989746094,2|2,3:2|0:2,0:0:0:0:
463,166,33833,6,0,P|424:167|421:104,1,83.9999974365235
468,91,33999,5,10,0:2:0:0:
301,273,34166,2,0,P|294:312|376:352,2,111.999996582031,10|10|10,0:2|0:2|0:2,0:0:0:0:
149,113,34499,6,0,P|142:74|224:34,1,111.999996582031,10|10,0:2|0:2,0:0:0:0:
225,97,34666,5,14,3:2:0:0:
227,107,34749,1,2,0:0:0:0:
229,118,34833,1,2,0:0:0:0:
231,128,34916,1,2,0:0:0:0:
233,138,34999,1,8,3:2:0:0:
235,149,35083,1,0,0:0:0:0:
237,159,35166,5,0,0:0:0:0:
226,155,35249,1,0,0:0:0:0:
215,152,35333,1,10,3:2:0:0:
204,149,35416,1,2,0:0:0:0:
193,146,35499,1,2,0:0:0:0:
182,143,35583,1,2,0:0:0:0:
171,140,35666,5,8,3:2:0:0:
173,156,35749,1,0,0:0:0:0:
175,172,35833,1,0,0:0:0:0:
178,188,35916,1,0,0:0:0:0:
181,204,35999,1,10,3:2:0:0:
184,220,36083,1,2,0:0:0:0:
187,236,36166,5,2,0:0:0:0:
212,225,36249,1,2,0:0:0:0:
238,214,36333,1,8,3:2:0:0:
263,203,36416,1,0,0:0:0:0:
289,193,36499,1,0,0:0:0:0:
315,182,36583,1,0,0:0:0:0:
341,172,36666,5,10,3:2:0:0:
319,139,36749,1,2,0:0:0:0:
346,111,36833,1,2,0:0:0:0:
382,124,36916,1,2,0:0:0:0:
381,163,36999,1,8,3:2:0:0:
411,188,37083,1,0,0:0:0:0:
448,178,37166,1,0,0:0:0:0:
461,143,37249,1,0,0:0:0:0:
432,115,37333,5,10,3:2:0:0:
430,126,37416,1,2,0:0:0:0:
428,137,37499,1,2,0:0:0:0:
426,148,37583,1,2,0:0:0:0:
424,159,37666,1,8,3:2:0:0:
422,170,37749,1,0,0:0:0:0:
420,181,37833,5,0,0:0:0:0:
398,174,37916,1,0,0:0:0:0:
376,167,37999,1,10,3:2:0:0:
354,160,38083,1,2,0:0:0:0:
332,153,38166,1,2,0:0:0:0:
310,146,38249,1,2,0:0:0:0:
288,139,38333,5,8,3:2:0:0:
276,170,38416,1,0,0:0:0:0:
264,201,38499,1,0,0:0:0:0:
252,232,38583,1,0,0:0:0:0:
240,263,38666,1,10,3:2:0:0:
228,294,38749,1,2,0:0:0:0:
217,326,38833,5,2,0:0:0:0:
196,286,38916,1,2,0:0:0:0:
175,246,38999,1,8,3:2:0:0:
153,206,39083,1,0,0:0:0:0:
132,166,39166,1,0,0:0:0:0:
111,126,39249,1,0,0:0:0:0:
90,86,39333,1,10,3:2:0:0:
68,46,39416,1,2,0:0:0:0:
48,5,39499,1,2,0:0:0:0:
48,17,39583,1,2,0:0:0:0:
47,32,39666,5,8,3:2:0:0:
108,25,39749,1,0,0:0:0:0:
169,20,39833,1,0,0:0:0:0:
230,15,39916,1,0,0:0:0:0:
291,10,39999,5,10,3:2:0:0:
286,26,40083,1,2,0:0:0:0:
281,42,40166,1,2,0:0:0:0:
276,58,40249,1,2,0:0:0:0:
271,74,40333,1,8,3:2:0:0:
267,90,40416,1,0,0:0:0:0:
263,106,40499,5,0,0:0:0:0:
285,123,40583,1,0,0:0:0:0:
306,140,40666,1,10,3:2:0:0:
327,157,40749,1,2,0:0:0:0:
349,174,40833,1,2,0:0:0:0:
370,191,40916,1,2,0:0:0:0:
390,209,40999,5,8,3:2:0:0:
414,177,41083,1,0,0:0:0:0:
403,139,41166,1,0,0:0:0:0:
366,126,41249,1,0,0:0:0:0:
329,141,41333,1,10,3:2:0:0:
320,179,41416,1,2,0:0:0:0:
303,214,41499,1,2,0:0:0:0:
265,225,41583,1,2,0:0:0:0:
234,200,41666,1,8,3:2:0:0:
229,161,41749,1,0,0:0:0:0:
251,128,41833,1,0,0:0:0:0:
257,137,41916,1,0,0:0:0:0:
258,148,41999,5,10,3:2:0:0:
207,172,42083,1,2,0:0:0:0:
151,170,42166,1,2,0:0:0:0:
100,146,42249,1,2,0:0:0:0:
70,97,42333,5,8,3:2:0:0:
92,99,42416,1,0,0:0:0:0:
109,112,42499,1,0,0:0:0:0:
115,133,42583,1,0,0:0:0:0:
113,148,42666,6,0,B|86:229|86:229|75:209,1,108.000000411987,8|0,3:2|0:0,0:0:0:0:
175,343,42833,2,0,B|148:262|148:262|137:281,1,108.000000411987,8|0,3:2|0:0,0:0:0:0:
218,119,42999,6,0,B|191:200|191:200|180:180,1,108.000000411987,8|0,3:2|0:0,0:0:0:0:
280,314,43166,2,0,B|253:233|253:233|242:252,1,108.000000411987,8|0,3:2|0:0,0:0:0:0:
331,84,43333,6,0,B|304:165|304:165|293:145,1,108.000000411987,8|0,3:2|0:0,0:0:0:0:
438,333,43499,6,0,B|362:342|343:303|331:274|322:210|371:184|429:217|414:256,1,264.0000025177,8|8,3:2|3:2,0:0:0:0:
351,352,43749,1,8,3:2:0:0:
342,342,43833,1,8,3:2:0:0:
132,281,44166,6,0,L|108:215,1,47.9999985351563,10|0,0:2|0:0,0:0:0:0:
143,280,44249,2,0,L|119:214,1,47.9999985351563,10|0,0:2|0:0,0:0:0:0:
149,279,44333,6,0,B|91:285|56:312|56:312|42:268|-20:237|-20:237|29:241|34:273,2,264.0000025177,10|2|2,0:2|0:2|0:2,0:0:0:0:
197,367,44749,1,0,0:0:0:0:
203,356,44833,1,2,3:2:0:0:
209,344,44916,1,0,0:0:0:0:
284,300,44999,6,0,B|329:231|273:168|273:168|341:233|416:208|416:208|414:133|322:91,1,443.999998306275,10|0,3:2|0:0,0:0:0:0:
225,104,45333,6,0,P|188:112|150:110,1,75.9999979705811,6|2,3:2|0:2,0:0:0:0:
19,15,45499,2,0,P|93:6|164:32,1,151.999995941162,2|10,0:2|3:2,0:0:0:0:
274,169,45833,2,0,P|295:212|298:282,1,75.9999979705811,2|2,0:2|0:2,0:0:0:0:
128,352,45999,2,0,P|161:285|221:239,1,151.999995941162,2|2,3:2|0:2,0:0:0:0:
475,156,46333,2,0,P|492:189|502:226,1,75.9999979705811,10|2,3:2|0:2,0:0:0:0:
500,309,46499,2,0,P|488:345|469:378,1,75.9999979705811,2|2,0:2|0:2,0:0:0:0:
258,342,46666,2,0,P|328:315|403:316,1,151.999995941162,2|2,3:2|0:2,0:0:0:0:
469,378,46916,1,2,0:2:0:0:
323,305,46999,2,0,P|294:226|296:142,1,167.999994873047,10|2,3:2|0:2,0:0:0:0:
512,71,47333,6,0,B|463:92|463:92|485:-12,1,147.999999435425,10|10,0:2|0:2,0:0:0:0:
419,266,47499,2,0,B|406:192|406:192|448:149|448:149|419:63|419:63|365:108,1,295.99999887085,10|10,0:2|0:2,0:0:0:0:
328,202,47749,1,10,0:2:0:0:
246,163,47833,2,0,B|233:237|233:237|275:280|275:280|246:366|246:366|192:320,1,295.99999887085,10|6,0:2|3:2,0:0:0:0:
137,240,48083,5,2,0:2:0:0:
137,239,48166,2,0,P|64:258|5:305,1,151.999995941162,2|10,0:2|3:2,0:0:0:0:
270,198,48499,2,0,P|239:175|203:165,1,75.9999979705811,2|2,0:2|0:2,0:0:0:0:
0,163,48666,2,0,P|86:133|143:55,1,151.999995941162,2|2,3:2|0:2,0:0:0:0:
306,39,48999,2,0,P|274:59|249:88,1,75.9999979705811,8|0,3:2|0:0,0:0:0:0:
203,165,49166,2,0,P|194:201|197:239,1,75.9999979705811
450,330,49333,6,0,B|513:303|487:213|393:217|348:277|419:396|199:326,1,320,8|8,0:0|0:0,0:0:0:0:
46,241,49583,5,8,0:0:0:0:
46,241,49666,2,0,B|-17:214|9:124|103:128|148:188|77:307|297:237,1,320,8|8,0:0|0:0,0:0:0:0:
447,158,49916,5,8,0:0:0:0:
447,158,49999,2,0,B|510:131|484:41|390:45|345:105|416:224|196:154,1,320,8|8,0:0|0:0,0:0:0:0:
170,75,50249,1,8,0:0:0:0:
170,75,50333,2,0,B|108:58|95:9|95:9|110:46|149:49,1,160,8|8,0:0|0:0,0:0:0:0:
80,150,50499,2,0,B|18:167|5:216|5:216|20:179|59:176,1,160,10|0,0:2|0:0,0:0:0:0:
149,375,50666,6,0,P|121:349|108:313,1,75.9999979705811,6|2,3:2|0:2,0:0:0:0:
235,164,50833,2,0,P|253:236|229:307,1,151.999995941162,2|10,0:2|3:2,0:0:0:0:
22,185,51166,2,0,P|50:209|85:224,1,75.9999979705811,2|2,0:2|0:2,0:0:0:0:
231,68,51333,2,0,P|157:80|104:133,1,151.999995941162,2|2,3:2|0:2,0:0:0:0:
290,336,51666,2,0,P|338:331|395:281,1,75.9999979705811,10|0,3:2|0:0,0:0:0:0:
412,260,51833,2,0,P|437:231|450:196,1,75.9999979705811,2|0,0:2|0:0,0:0:0:0:
158,207,51999,2,0,P|223:244|298:248,1,151.999995941162,0|2,3:2|0:2,0:0:0:0:
271,49,52249,1,2,0:2:0:0:
167,20,52333,2,0,P|186:92|236:148,1,151.999995941162,10|2,3:2|0:2,0:0:0:0:
512,182,52666,6,0,B|501:225|501:225|437:157|437:157|447:155,1,147.999999435425,10|10,0:2|0:2,0:0:0:0:
357,344,52833,2,0,B|413:247|413:247|320:137|320:137|319:180,1,295.99999887085,10|10,0:2|0:2,0:0:0:0:
139,89,53083,1,10,0:2:0:0:
189,7,53166,2,0,B|245:104|245:104|152:214|152:214|151:171,1,295.99999887085,10|6,0:2|3:2,0:0:0:0:
0,356,53416,5,2,0:2:0:0:
0,354,53499,2,0,P|23:283|79:232,1,151.999995941162,2|10,0:2|3:2,0:0:0:0:
306,240,53833,2,0,P|246:247|192:235,1,75.9999979705811,2|2,0:2|0:2,0:0:0:0:
4,89,53999,2,0,P|76:109|136:155,1,151.999995941162,2|2,3:2|0:2,0:0:0:0:
305,363,54333,1,8,3:2:0:0:
332,351,54416,1,0,0:0:0:0:
359,339,54499,1,0,0:0:0:0:
387,327,54583,1,0,0:0:0:0:
414,314,54666,6,0,P|459:283|440:232,1,116.000003540039,2|2,3:2|0:2,0:0:0:0:
279,156,54833,2,0,P|260:104|305:73,1,116.000003540039,2|0,0:2|0:0,0:0:0:0:
505,148,54999,6,0,B|409:140|409:140|329:252|329:252|232:240,1,320,10|0,3:2|0:0,0:0:0:0:
13,177,55333,5,8,0:0:0:0:
44,161,55499,5,10,0:2:0:0:
40,176,55583,1,8,0:0:0:0:
36,191,55666,1,10,0:2:0:0:
33,206,55749,1,8,0:0:0:0:
29,221,55833,1,10,0:2:0:0:
466,295,55999,6,0,L|150:345,1,320,2|8,3:2|0:2,0:0:0:0:
84,305,56249,1,8,0:2:0:0:
90,286,56333,1,8,0:2:0:0:
44,161,56499,6,0,L|360:210,1,320,2|0,3:2|0:0,0:0:0:0:
474,82,56833,1,8,0:2:0:0:
468,101,56917,1,8,0:2:0:0:
462,118,56999,1,8,0:2:0:0:
249,364,57166,6,0,B|336:361|361:309|369:278|360:243|342:215|300:194|265:192|246:196|224:205|211:219|198:231|181:252|172:273|153:292|130:300|110:303|60:286|45:270|27:249|16:223|7:180|11:139|7:93|67:75|100:67|130:67|165:76|182:86|193:106|194:132|191:167|170:196|145:206|96:190,1,863.999973632813,6|0,3:2|0:0,0:0:0:0:
