osu file format v14

[General]
AudioFilename: audio.mp3
AudioLeadIn: 0
PreviewTime: 13333
Countdown: 0
SampleSet: Soft
StackLeniency: 0.6
Mode: 0
LetterboxInBreaks: 0
WidescreenStoryboard: 1

[Editor]
DistanceSpacing: 0.85
BeatDivisor: 4
GridSize: 32
TimelineZoom: 1.700003

[Metadata]
Title:Plasma Gun
TitleUnicode:Plasma Gun
Artist:Memme
ArtistUnicode:Memme
Creator:emu1337
Version:RatinA0's Hard
Source:O2Jam U
Tags:electronic instrumental ParkMemme shooting trance tynamo -tynamo sleepy sleepymateo ratina0 lmt yukiyo
BeatmapID:2779002
BeatmapSetID:1341551

[Difficulty]
HPDrainRate:4.5
CircleSize:4
OverallDifficulty:6.6
ApproachRate:7.5
SliderMultiplier:1.8
SliderTickRate:1

[Events]
//Background and Video events
0,0,"clouds-1609726326065-5941.jpg",0,0
//Break Periods
//Storyboard Layer 0 (Background)
//Storyboard Layer 1 (Fail)
//Storyboard Layer 2 (Pass)
//Storyboard Layer 3 (Foreground)
//Storyboard Layer 4 (Overlay)
//Storyboard Sound Samples

[TimingPoints]
0,333.333333333333,4,2,1,70,1,0
2666,-166.666666666667,4,2,1,55,0,0
7333,-142.857142857143,4,2,1,55,0,0
7999,-125,4,2,1,65,0,0
10666,-111.111111111111,4,2,1,65,0,0
11333,-111.111111111111,4,2,1,75,0,0
13333,-100,4,2,1,75,0,0
22666,-111.111111111111,4,2,1,75,0,0
23999,-125,4,2,1,75,0,0
24166,-125,4,2,1,65,0,0
34666,-111.111111111111,4,2,1,75,0,1
34749,-111.111111111111,4,2,1,55,0,1
34999,-111.111111111111,4,2,1,60,0,1
35333,-111.111111111111,4,2,1,65,0,1
35666,-111.111111111111,4,2,1,70,0,1
35999,-111.111111111111,4,2,1,75,0,1
36333,-111.111111111111,4,2,1,80,0,1
36666,-111.111111111111,4,2,1,85,0,1
36999,-111.111111111111,4,2,1,90,0,1
37666,-111.111111111111,4,2,1,85,0,1
37999,-111.111111111111,4,2,1,80,0,1
38333,-111.111111111111,4,2,1,75,0,1
38666,-111.111111111111,4,2,1,70,0,1
38999,-111.111111111111,4,2,1,65,0,1
39333,-111.111111111111,4,2,1,60,0,1
39666,-111.111111111111,4,2,1,55,0,1
40333,-111.111111111111,4,2,1,60,0,1
40666,-111.111111111111,4,2,1,65,0,1
40999,-111.111111111111,4,2,1,70,0,1
41333,-111.111111111111,4,2,1,75,0,1
41666,-111.111111111111,4,2,1,80,0,1
41999,-111.111111111111,4,2,1,85,0,1
42333,-111.111111111111,4,2,1,90,0,1
42666,-100,4,2,1,95,0,1
43833,-100,4,2,1,95,0,0
43999,-100,4,2,1,65,0,0
45333,-100,4,2,1,75,0,0
54999,-83.3333333333333,4,2,1,75,0,0
55999,-100,4,2,1,65,0,0
57166,-142.857142857143,4,2,1,65,0,0

[Colours]
Combo1 : 164,194,230
Combo2 : 187,234,234

[HitObjects]
278,111,2666,6,0,L|393:144,2,107.999996704102,6|2|2,0:0|0:0|0:0,0:0:0:0:
236,49,3499,1,2,0:0:0:0:
236,49,3833,6,0,B|205:40|205:40|126:62,1,107.999996704102,2|2,0:0|0:0,0:0:0:0:
57,47,4333,2,0,L|39:163,1,107.999996704102,2|0,0:0|0:0,0:0:0:0:
86,215,4833,1,2,0:0:0:0:
161,200,4999,2,0,L|170:258,1,53.9999983520508,2|2,0:0|0:0,0:0:0:0:
121,313,5333,6,0,L|6:346,2,107.999996704102,2|2|2,0:0|0:0|0:0,0:0:0:0:
191,341,6166,2,0,L|246:345,1,53.9999983520508,2|2,0:0|0:0,0:0:0:0:
291,283,6499,2,0,L|401:291,1,107.999996704102,2|2,0:0|0:0,0:0:0:0:
470,336,6999,1,2,0:0:0:0:
470,336,7333,6,0,P|483:297|473:261,1,62.9999980773926,0|2,0:0|0:0,0:0:0:0:
431,204,7666,2,0,P|426:164|441:130,1,62.9999980773926,2|2,0:0|0:0,0:0:0:0:
494,72,7999,6,0,L|398:59,1,72,6|0,3:2|0:0,0:0:0:0:
353,101,8333,2,0,L|274:91,1,72,0|0,3:2|0:0,0:0:0:0:
224,36,8666,2,0,L|66:16,1,144,0|0,3:2|3:2,0:0:0:0:
67,103,9166,6,0,B|139:111|139:111|167:179,1,144
196,250,9666,2,0,B|152:308|152:308|80:298,1,144,0|0,3:2|3:2,0:0:0:0:
7,271,10166,1,0,0:0:0:0:
21,193,10333,2,0,B|93:202,1,72,0|0,3:2|0:0,0:0:0:0:
166,177,10666,6,0,B|210:119,3,40.4999987640381,4|0|0|0,3:2|0:0|0:0|0:0,0:0:0:0:
230,110,10999,2,0,B|302:119,3,40.4999987640381,0|0|0|0,3:2|0:0|0:0|0:0,0:0:0:0:
320,132,11333,2,0,B|348:199,3,40.4999987640381,6|2|2|2,3:2|0:2|0:2|0:2,0:0:0:0:
346,220,11666,2,0,B|302:279,3,40.4999987640381,2|2|2|2,3:2|3:2|3:2|3:2,0:0:0:0:
281,287,11999,5,2,3:2:0:0:
281,287,12333,5,0,3:2:0:0:
281,287,12666,5,2,3:2:0:0:
371,350,12833,1,2,0:2:0:0:
371,350,12916,1,2,0:2:0:0:
371,350,12999,1,2,0:2:0:0:
371,350,13083,1,2,0:2:0:0:
371,350,13166,1,2,0:2:0:0:
466,320,13333,6,0,L|510:327,2,45,6|2|2,3:2|0:0|0:0,0:0:0:0:
424,252,13666,2,0,L|408:145,1,90,10|2,3:2|0:2,0:0:0:0:
416,148,13916,1,2,0:2:0:0:
421,133,13999,2,0,L|405:26,1,90,2|2,3:2|0:2,0:0:0:0:
330,63,14333,2,0,B|299:69|299:69|242:55,1,90,10|2,3:2|0:0,0:0:0:0:
167,29,14666,5,0,3:2:0:0:
128,98,14833,2,0,L|84:105,2,45,2|2|10,0:0|0:0|3:2,0:0:0:0:
203,123,15166,2,0,B|219:165|219:165|205:220,1,90,2|2,0:0|3:2,0:0:0:0:
199,227,15416,1,2,0:0:0:0:
191,245,15499,2,0,B|103:267,1,90,2|10,0:0|3:2,0:0:0:0:
35,303,15833,1,2,0:0:0:0:
80,365,15999,6,0,L|125:372,2,45,2|2|2,3:2|0:0|0:0,0:0:0:0:
200,340,16333,1,10,3:2:0:0:
273,373,16499,2,0,L|318:366,2,45,2|2|2,0:0|0:0|3:2,0:0:0:0:
393,348,16833,2,0,L|408:240,1,90,2|8,0:0|3:2,0:0:0:0:
415,246,17083,1,0,0:0:0:0:
424,233,17166,1,0,0:0:0:0:
479,175,17333,6,0,B|499:133|499:133|489:74,1,90,0|2,3:2|0:0,0:0:0:0:
432,37,17666,2,0,B|386:39|386:39|339:78,1,90,10|2,3:2|0:0,0:0:0:0:
326,139,17999,2,0,B|351:177,2,45,2|2|2,3:2|0:0|0:0,0:0:0:0:
262,91,18333,2,0,L|135:71,1,90,10|2,3:2|0:0,0:0:0:0:
104,37,18666,6,0,L|60:30,2,45,6|2|2,3:2|0:0|0:0,0:0:0:0:
109,116,18999,2,0,L|93:223,1,90,10|2,3:2|0:0,0:0:0:0:
101,220,19249,1,2,0:0:0:0:
106,235,19333,2,0,L|213:251,1,90,2|2,3:2|0:0,0:0:0:0:
70,307,19666,2,0,L|26:300,2,45,10|2|2,3:2|0:0|0:0,0:0:0:0:
129,362,19999,5,4,3:2:0:0:
202,336,20166,2,0,L|246:343,2,45,2|2|10,0:0|0:0|3:2,0:0:0:0:
213,257,20499,2,0,B|220:212|220:212|261:172,1,90,2|2,0:0|3:2,0:0:0:0:
270,171,20749,1,2,0:0:0:0:
289,162,20833,2,0,B|405:181,1,90,2|10,0:0|3:2,0:0:0:0:
456,182,21166,1,2,0:0:0:0:
486,269,21333,6,0,L|441:262,2,45,6|2|2,3:2|0:0|0:0,0:0:0:0:
366,294,21666,1,10,3:2:0:0:
293,261,21833,2,0,L|248:268,2,45,2|2|6,0:0|0:0|3:2,0:0:0:0:
173,286,22166,2,0,L|66:270,1,90,2|8,0:0|3:2,0:0:0:0:
68,270,22416,1,0,0:0:0:0:
52,268,22499,1,0,0:0:0:0:
0,199,22666,5,8,2:2:0:0:
87,173,22833,2,0,L|140:181,2,40.4999987640381,8|8|8,2:2|2:2|2:2,0:0:0:0:
24,106,23166,1,8,2:2:0:0:
24,106,23249,1,8,2:2:0:0:
24,106,23333,2,0,L|49:74,3,40.4999987640381,8|8|8|8,2:2|2:2|2:2|2:2,0:0:0:0:
90,58,23666,2,0,L|130:63,3,40.4999987640381,10|2|2|2,2:2|2:2|2:2|2:2,0:0:0:0:
164,91,23999,6,0,B|213:97|213:97|249:86|249:86|305:94,1,144,6|0,3:2|0:0,0:0:0:0:
371,155,24499,2,0,B|420:161|420:161|456:150|456:150|512:158,1,144,2|0,3:2|0:0,0:0:0:0:
512,256,24999,2,0,L|286:224,1,216,2|2,0:2|0:2,0:0:0:0:
223,216,25666,1,2,0:2:0:0:
320,351,25999,1,2,0:2:0:0:
478,297,26333,1,10,3:2:0:0:
478,297,26666,6,0,B|443:265|443:265|326:275,1,144,2|0,3:2|0:0,0:0:0:0:
261,291,27166,2,0,B|226:323|226:323|109:313,1,144,2|0,3:2|0:0,0:0:0:0:
52,352,27666,2,0,B|7:303|7:303|21:139,2,216,2|2|0,0:2|0:2|0:0,0:0:0:0:
183,264,28999,6,0,B|196:231,3,36,2|2|2|2,3:2|0:2|3:2|0:2,0:0:0:0:
215,214,29333,2,0,B|240:147|240:147|172:114,1,144,2|0,3:2|0:0,0:0:0:0:
244,55,29833,2,0,B|311:80|311:80|342:14,1,144,2|0,3:2|0:0,0:0:0:0:
410,77,30333,2,0,B|365:176|365:176|470:224,2,216,2|2|2,0:2|0:2|0:2,0:0:0:0:
282,201,31666,6,0,B|192:226,1,72,10|0,3:2|0:0,0:0:0:0:
201,128,31999,2,0,B|182:343,1,216,2|2,3:2|0:2,0:0:0:0:
269,316,32666,1,2,3:2:0:0:
340,349,32833,2,0,B|349:383,2,36,2|0|2,0:2|0:0|0:2,0:0:0:0:
363,273,33166,2,0,B|396:257|396:257|436:269,1,72,2|0,3:2|0:0,0:0:0:0:
489,320,33499,2,0,B|521:281|521:281|494:117,1,216,2|10,0:2|0:2,0:0:0:0:
430,58,34166,2,0,B|433:23,2,36,10|10|10,0:2|0:2|0:2,0:0:0:0:
409,148,34499,5,10,0:2:0:0:
409,148,34583,1,10,0:2:0:0:
409,148,34666,2,0,B|313:140,1,80.9999975280763,14|2,3:2|0:0,0:0:0:0:
274,83,34999,2,0,B|219:162,1,80.9999975280763,8|0,3:2|0:0,0:0:0:0:
150,167,35333,2,0,B|191:254,1,80.9999975280763,10|2,3:2|0:0,0:0:0:0:
160,316,35666,2,0,B|256:324,1,80.9999975280763,8|0,3:2|0:0,0:0:0:0:
98,265,35999,6,0,B|57:268,3,40.4999987640381,10|2|2|2,3:2|0:0|0:0|0:0,0:0:0:0:
24,240,36333,2,0,B|0:206,3,40.4999987640381,8|0|0|0,3:2|0:0|0:0|0:0,0:0:0:0:
8,163,36666,2,0,B|25:126,3,40.4999987640381,10|2|2|2,3:2|0:0|0:0|0:0,0:0:0:0:
66,110,36999,2,0,L|106:106,3,40.4999987640381,8|0|0|0,3:2|0:0|0:0|0:0,0:0:0:0:
140,133,37333,6,0,B|181:130|181:130|216:107,1,80.9999975280763,10|2,3:2|0:0,0:0:0:0:
269,51,37666,2,0,B|292:85|292:85|329:103,1,80.9999975280763,8|0,3:2|0:0,0:0:0:0:
404,121,37999,2,0,B|386:158|386:158|388:199,1,80.9999975280763,10|2,3:2|0:0,0:0:0:0:
410,272,38333,2,0,B|369:275|369:275|334:298,1,80.9999975280763,8|0,3:2|0:0,0:0:0:0:
282,352,38666,6,0,B|258:317|258:317|221:299,1,80.9999975280763,10|2,3:2|0:0,0:0:0:0:
147,299,38999,2,0,B|113:321,2,40.4999987640381,8|0|0,3:2|0:0|0:0,0:0:0:0:
177,229,39333,2,0,B|176:191|176:191|154:155,1,80.9999975280763,10|2,3:2|0:0,0:0:0:0:
75,146,39666,2,0,B|41:124,3,40.4999987640381,8|0|0|0,3:2|0:0|0:0|0:0,0:0:0:0:
25,111,39999,6,0,L|11:24,1,80.9999975280763,10|2,3:2|0:0,0:0:0:0:
83,2,40333,1,8,3:2:0:0:
146,50,40499,2,0,L|233:36,1,80.9999975280763,0|10,0:0|3:2,0:0:0:0:
277,98,40833,1,2,0:0:0:0:
226,159,40999,2,0,L|138:172,1,80.9999975280763,8|0,3:2|0:0,0:0:0:0:
294,202,41333,5,10,3:2:0:0:
265,276,41499,2,0,L|185:289,1,80.9999975280763,2|8,0:0|3:2,0:0:0:0:
328,325,41833,1,0,0:0:0:0:
408,320,41999,2,0,L|421:240,1,80.9999975280763,10|2,3:2|0:0,0:0:0:0:
476,182,42333,2,0,L|489:101,1,80.9999975280763,8|0,3:2|0:0,0:0:0:0:
469,24,42666,5,8,3:2:0:0:
377,12,42833,1,8,3:2:0:0:
285,0,42999,2,0,L|271:88,1,90,8|8,3:2|3:2,0:0:0:0:
256,177,43333,1,8,3:2:0:0:
165,189,43499,2,0,L|151:100,1,90,8|8,3:2|3:2,0:0:0:0:
147,77,43749,1,8,3:2:0:0:
144,55,43833,1,8,3:2:0:0:
33,169,44166,5,10,0:2:0:0:
36,191,44249,1,10,0:2:0:0:
40,214,44333,2,0,L|54:303,1,90,10|2,0:2|0:2,0:0:0:0:
123,335,44666,2,0,L|226:325,1,90,2|2,0:2|3:2,0:0:0:0:
264,269,44999,1,10,3:2:0:0:
256,193,45166,1,10,3:2:0:0:
299,127,45333,6,0,L|389:119,1,90,6|2,3:2|0:2,0:0:0:0:
275,48,45666,2,0,B|238:19|238:19|153:20,1,90,10|2,3:2|0:2,0:0:0:0:
174,23,45916,1,2,0:2:0:0:
153,26,45999,2,0,B|110:31|110:31|77:65,1,90,2|2,3:2|0:2,0:0:0:0:
50,154,46333,2,0,L|95:150,3,45,10|2|2|2,3:2|0:2|0:2|0:2,0:0:0:0:
111,164,46666,6,0,B|122:192|122:192|111:278,1,90,2|2,3:2|0:2,0:0:0:0:
52,341,46999,2,0,B|80:330|80:330|166:341,1,90,10|2,3:2|0:2,0:0:0:0:
230,361,47333,2,0,L|275:367,2,45,10|10|10,0:2|0:2|0:2,0:0:0:0:
363,329,47666,1,10,0:2:0:0:
363,329,47749,1,10,0:2:0:0:
363,329,47833,1,10,0:2:0:0:
288,261,47999,6,0,L|264:149,1,90,6|2,3:2|0:2,0:0:0:0:
251,84,48333,1,10,3:2:0:0:
336,110,48499,1,2,0:2:0:0:
423,87,48666,2,0,L|447:-25,1,90,2|2,3:2|0:2,0:0:0:0:
512,155,48999,2,0,B|484:166|484:166|454:168|454:168|426:178,1,90,8|0,3:2|0:0,0:0:0:0:
377,250,49333,5,8,0:0:0:0:
288,261,49499,2,0,L|243:270,2,45,8|8|8,0:0|0:0|0:0,0:0:0:0:
195,201,49833,2,0,L|150:191,2,45,8|8|8,0:0|0:0|0:0,0:0:0:0:
107,265,50166,1,8,0:0:0:0:
107,265,50249,1,8,0:0:0:0:
107,265,50333,2,0,L|0:286,1,90,8|10,0:0|0:2,0:0:0:0:
151,344,50666,6,0,L|257:365,1,90,6|2,3:2|0:2,0:0:0:0:
335,367,50999,2,0,B|369:335|369:335|383:251,1,90,10|2,3:2|0:2,0:0:0:0:
376,271,51249,1,2,0:2:0:0:
377,250,51333,2,0,B|379:207|379:207|351:169,1,90,2|2,3:2|0:2,0:0:0:0:
261,139,51666,1,10,3:2:0:0:
195,201,51833,1,2,0:2:0:0:
111,167,51999,6,0,B|100:139|100:139|107:79,1,90,0|2,3:2|0:2,0:0:0:0:
178,23,52333,2,0,B|206:12|206:12|292:23,1,90,10|2,3:2|0:2,0:0:0:0:
333,79,52666,2,0,L|378:85,2,45,10|10|10,0:2|0:2|0:2,0:0:0:0:
461,41,52999,1,10,0:2:0:0:
461,41,53083,1,10,0:2:0:0:
461,41,53166,1,10,0:2:0:0:
512,116,53333,6,0,L|488:228,1,90,6|2,3:2|0:2,0:0:0:0:
478,293,53667,1,10,3:2:0:0:
398,252,53833,1,2,0:2:0:0:
319,296,54000,2,0,L|343:408,1,90,2|2,3:2|0:2,0:0:0:0:
239,260,54333,2,0,B|209:264|209:264|182:277|182:277|152:282,1,90,8|0,3:2|0:0,0:0:0:0:
65,322,54666,5,2,3:2:0:0:
65,322,54749,1,2,0:2:0:0:
65,322,54833,1,2,0:2:0:0:
0,249,54999,2,0,B|21:208|21:208|233:172,1,215.999993408203,10|8,3:2|0:0,0:0:0:0:
280,174,55499,2,0,L|342:163,2,53.9999983520508,10|8|10,0:2|0:0|0:2,0:0:0:0:
239,260,55833,1,10,0:2:0:0:
318,300,55999,5,2,3:2:0:0:
397,340,56166,2,0,L|405:385,2,45,8|8|8,0:2|0:2|0:2,0:0:0:0:
476,298,56499,2,0,L|491:209,1,90,2|0,3:2|0:0,0:0:0:0:
421,152,56833,2,0,L|413:107,2,45,8|8|8,0:2|0:2|0:2,0:0:0:0:
512,67,57166,6,0,B|441:-20|344:6|265:29|379:111|226:151|107:176|62:136|5:72|110:-8|130:57,1,566.999982696534,6|0,3:2|0:0,0:0:0:0:
