osu file format v14

[General]
AudioFilename: audio.mp3
AudioLeadIn: 0
PreviewTime: 13333
Countdown: 0
SampleSet: Soft
StackLeniency: 0.4
Mode: 0
LetterboxInBreaks: 0
WidescreenStoryboard: 1

[Editor]
Bookmarks: 34666,36666,37333,37999,39999,55666
DistanceSpacing: 0.8
BeatDivisor: 8
GridSize: 4
TimelineZoom: 1.700003

[Metadata]
Title:Plasma Gun
TitleUnicode:Plasma Gun
Artist:Memme
ArtistUnicode:Memme
Creator:emu1337
Version:LMT's Obliteration
Source:O2Jam U
Tags:electronic instrumental ParkMemme shooting trance tynamo -tynamo sleepy sleepymateo ratina0 lmt yukiyo
BeatmapID:2779001
BeatmapSetID:1341551

[Difficulty]
HPDrainRate:5
CircleSize:4
OverallDifficulty:9.5
ApproachRate:9.7
SliderMultiplier:1.6
SliderTickRate:1

[Events]
//Background and Video events
0,0,"clouds-1609726326065-5941.jpg",0,0
//Break Periods
//Storyboard Layer 0 (Background)
//Storyboard Layer 1 (Fail)
//Storyboard Layer 2 (Pass)
//Storyboard Layer 3 (Foreground)
//Storyboard Layer 4 (Overlay)
//Storyboard Sound Samples

[TimingPoints]
0,333.333333333333,4,2,1,70,1,0
2666,-100,4,2,1,55,0,0
7999,-66.6666666666667,4,2,1,65,0,0
11333,-66.6666666666667,4,2,1,75,0,0
11999,-200,4,2,1,75,0,0
12333,-33.3333333333333,4,2,1,75,0,0
13166,-25,4,2,1,75,0,0
13333,-100,4,2,1,75,0,0
21999,-50,4,2,1,75,0,0
24166,-50,4,2,1,65,0,0
26333,-1000,4,2,1,65,0,0
26666,-50,4,2,1,65,0,0
31666,-1000,4,2,1,65,0,0
31999,-50,4,2,1,65,0,0
34666,-50,4,2,1,75,0,1
34749,-50,4,2,1,55,0,1
34999,-50,4,2,1,60,0,1
35333,-50,4,2,1,65,0,1
35666,-50,4,2,1,70,0,1
35999,-50,4,2,1,75,0,1
36333,-50,4,2,1,80,0,1
36666,-50,4,2,1,85,0,1
36999,-50,4,2,1,90,0,1
37666,-50,4,2,1,85,0,1
37999,-50,4,2,1,80,0,1
38333,-50,4,2,1,75,0,1
38666,-50,4,2,1,70,0,1
38999,-50,4,2,1,65,0,1
39333,-50,4,2,1,60,0,1
39666,-50,4,2,1,55,0,1
40333,-50,4,2,1,60,0,1
40666,-50,4,2,1,65,0,1
40999,-50,4,2,1,70,0,1
41333,-50,4,2,1,75,0,1
41666,-50,4,2,1,80,0,1
41999,-50,4,2,1,85,0,1
42333,-50,4,2,1,90,0,1
42666,-50,4,2,1,95,0,1
43499,-33.3333333333333,4,2,1,95,0,1
43833,-33.3333333333333,4,2,1,95,0,0
43999,-33.3333333333333,4,2,1,65,0,0
44666,-200,4,2,1,65,0,0
44999,-33.3333333333333,4,2,1,65,0,0
45333,-33.3333333333333,4,2,1,75,0,0
50499,-25,4,2,1,75,0,0
50749,-33.3333333333333,4,2,1,75,0,0
54999,-25,4,2,1,75,0,0
55999,-25,4,2,1,65,0,0
56499,-33.3333333333333,4,2,1,65,0,0
57166,-40,4,2,1,65,0,0

[Colours]
Combo1 : 164,194,230
Combo2 : 187,234,234

[HitObjects]
165,118,2666,6,0,P|137:111|69:85,1,80,6|0,0:0|0:0,0:0:0:0:
208,185,2999,1,2,0:0:0:0:
370,67,3333,2,0,P|376:161|385:241,1,160,2|0,0:0|0:0,0:0:0:0:
283,346,3833,6,0,P|305:303|328:266,1,80,2|0,0:0|0:0,0:0:0:0:
80,237,4166,2,0,P|39:225|-7:210,1,80,2|2,0:0|0:0,0:0:0:0:
6,220,4666,1,0,0:0:0:0:
83,246,4833,1,2,0:0:0:0:
161,215,4999,1,2,0:0:0:0:
171,135,5166,1,2,0:0:0:0:
129,67,5333,6,0,P|77:46|45:29,1,80,2|0,0:0|0:0,0:0:0:0:
195,16,5666,1,2,0:0:0:0:
412,156,5999,2,0,P|422:243|442:334,1,160,2|2,0:0|0:0,0:0:0:0:
486,118,6499,6,0,P|494:49|497:28,1,80,2|0,0:0|0:0,0:0:0:0:
275,345,6833,2,0,P|289:288|298:261,1,80,2|2,0:0|0:0,0:0:0:0:
281,175,7499,1,2,0:0:0:0:
93,133,7666,6,0,B|86:125|86:125|81:136,4,20,2|0|0|0|2,0:0|0:0|0:0|0:0|0:0,0:0:0:0:
132,55,7999,6,0,P|105:124|83:204,1,120.000004577637,6|0,3:2|0:0,0:0:0:0:
101,268,8333,2,0,P|117:312|189:312,1,120.000004577637,0|0,3:2|0:0,0:0:0:0:
428,141,8666,2,0,P|297:164|163:224,1,240.000009155274,0|0,3:2|3:2,0:0:0:0:
338,191,9166,6,0,P|409:163|470:149,1,120.000004577637,0|0,0:0|3:2,0:0:0:0:
131,100,9499,1,0,0:0:0:0:
218,50,9666,2,0,P|154:94|-8:192,1,240.000009155274,0|0,3:2|3:2,0:0:0:0:
222,55,10166,6,0,P|285:12|305:-2,1,60.0000022888184
207,226,10333,2,0,P|186:198|221:154,1,60.0000022888184,0|0,3:2|0:0,0:0:0:0:
349,261,10499,2,0,P|308:297|277:278,1,60.0000022888184
293,189,10666,5,4,3:2:0:0:
288,181,10749,1,0,0:0:0:0:
297,177,10833,1,0,0:0:0:0:
302,186,10916,1,0,0:0:0:0:
437,265,10999,5,0,3:2:0:0:
433,278,11083,1,0,0:0:0:0:
443,275,11166,1,0,0:0:0:0:
428,269,11250,1,0,0:0:0:0:
432,122,11333,5,6,3:2:0:0:
444,105,11416,1,2,0:2:0:0:
472,87,11499,1,2,0:2:0:0:
512,77,11583,1,2,0:2:0:0:
470,98,11666,5,2,3:2:0:0:
438,138,11749,1,2,3:2:0:0:
421,199,11833,1,2,3:2:0:0:
389,123,11916,1,2,3:2:0:0:
322,70,11999,6,0,B|325:62|315:57|309:55|309:55|329:52|334:60|325:85,1,60,2|0,3:2|0:0,0:0:0:0:
397,32,12333,2,0,P|331:61|260:144,1,120.000004577637,0|0,3:2|0:0,0:0:0:0:
256,159,12499,2,0,B|254:207|308:212|328:191|327:175|287:180,1,120.000004577637
227,285,12666,5,2,3:2:0:0:
183,218,12749,1,2,0:2:0:0:
110,186,12833,1,2,0:2:0:0:
137,209,12916,1,2,0:2:0:0:
147,237,12999,5,2,0:2:0:0:
137,163,13083,1,2,0:2:0:0:
73,119,13166,2,0,B|69:105|28:86|28:86|100:102|149:164|182:315|90:292,1,320,2|6,0:2|3:2,0:0:0:0:
59,338,13666,5,10,3:2:0:0:
342,272,13833,1,2,0:2:0:0:
420,273,13916,1,2,0:2:0:0:
348,262,13999,1,2,3:2:0:0:
401,177,14166,1,2,0:2:0:0:
512,59,14333,1,10,3:2:0:0:
430,19,14499,1,2,0:0:0:0:
345,66,14666,1,0,3:2:0:0:
221,173,14833,5,2,0:0:0:0:
181,113,14916,1,2,0:0:0:0:
237,167,14999,1,10,3:2:0:0:
143,239,15166,1,2,0:0:0:0:
66,119,15333,1,2,3:2:0:0:
54,189,15416,1,2,0:0:0:0:
255,265,15583,1,0,0:0:0:0:
234,335,15666,2,0,B|228:342|228:342|166:334,1,40,10|0,3:2|0:0,0:0:0:0:
122,321,15833,2,0,L|18:303,1,80,2|2,0:0|3:2,0:0:0:0:
390,246,16166,5,2,0:0:0:0:
455,174,16333,1,10,3:2:0:0:
191,22,16499,1,2,0:0:0:0:
120,11,16583,1,2,0:0:0:0:
174,60,16666,1,2,3:2:0:0:
278,55,16833,1,2,0:0:0:0:
419,91,16999,1,8,3:2:0:0:
421,55,17083,1,0,0:0:0:0:
407,89,17166,1,0,0:0:0:0:
372,119,17249,1,0,0:0:0:0:
397,88,17333,1,0,3:2:0:0:
189,230,17499,5,2,0:0:0:0:
211,306,17583,1,2,0:0:0:0:
199,237,17666,1,10,3:2:0:0:
108,280,17833,1,2,0:0:0:0:
350,351,17999,1,2,3:2:0:0:
340,278,18083,1,2,0:0:0:0:
484,176,18249,1,0,0:0:0:0:
438,119,18333,1,10,3:2:0:0:
447,113,18416,1,2,0:0:0:0:
456,109,18499,1,2,0:0:0:0:
253,147,18666,5,6,3:2:0:0:
336,176,18749,1,2,0:0:0:0:
275,135,18833,1,2,0:0:0:0:
182,81,18999,1,10,3:2:0:0:
32,193,19166,1,2,0:0:0:0:
61,119,19249,1,2,0:0:0:0:
49,192,19333,1,2,3:2:0:0:
148,170,19499,1,2,0:0:0:0:
69,321,19666,1,10,3:2:0:0:
125,374,19749,1,2,0:0:0:0:
82,315,19833,1,2,0:0:0:0:
487,366,19999,5,4,3:2:0:0:
343,301,20166,5,2,0:0:0:0:
405,252,20249,1,2,0:0:0:0:
359,303,20333,1,10,3:2:0:0:
311,216,20499,1,2,0:0:0:0:
488,34,20666,1,2,3:2:0:0:
464,101,20749,1,2,0:0:0:0:
207,15,20916,1,0,0:0:0:0:
281,22,20999,2,0,L|258:85,1,40,10|0,3:2|0:0,0:0:0:0:
208,119,21166,2,0,B|195:119|195:119|103:87,1,80,2|6,0:0|3:2,0:0:0:0:
268,364,21499,5,2,0:0:0:0:
180,327,21666,1,10,3:2:0:0:
21,251,21833,5,2,0:0:0:0:
0,323,21917,1,2,0:0:0:0:
3,244,21999,2,0,B|19:211|83:240|86:286|33:279,1,80,6|0,3:2|0:0,0:0:0:0:
170,193,22166,2,0,B|206:187|170:289|22:286|45:217,1,160,2|8,0:0|3:2,0:0:0:0:
259,178,22416,1,0,0:0:0:0:
259,178,22499,1,0,0:0:0:0:
195,14,22666,5,8,2:2:0:0:
381,139,22833,5,8,2:2:0:0:
323,66,22916,1,8,2:2:0:0:
435,0,22999,1,8,2:2:0:0:
408,253,23166,5,8,2:2:0:0:
331,317,23249,1,8,2:2:0:0:
447,372,23333,1,8,2:2:0:0:
458,360,23416,1,8,2:2:0:0:
450,356,23499,1,8,2:2:0:0:
459,370,23583,1,8,2:2:0:0:
431,359,23666,5,10,2:2:0:0:
406,273,23749,1,2,2:2:0:0:
427,178,23833,1,2,2:2:0:0:
503,97,23916,1,2,2:2:0:0:
506,108,23999,6,0,B|432:88|342:108|242:210|162:146,1,320,6|0,3:2|0:0,0:0:0:0:
110,37,24499,2,0,B|260:46|376:120|374:260|276:235,1,320,2|0,3:2|0:0,0:0:0:0:
253,255,24999,1,2,0:2:0:0:
79,342,25499,5,2,0:2:0:0:
43,278,25666,1,2,0:2:0:0:
55,202,25833,1,2,0:2:0:0:
118,157,25999,1,2,0:2:0:0:
447,76,26333,6,0,L|445:87,1,12,10|0,3:2|0:0,0:0:0:0:
379,9,26666,2,0,B|423:12|477:91|369:232|260:219,1,320,2|0,3:2|0:0,0:0:0:0:
146,112,27166,2,0,B|133:93|111:82|85:78|85:78|136:76|180:94|257:151|277:206|265:240,1,320,2|0,3:2|0:0,0:0:0:0:
256,297,27666,1,2,0:2:0:0:
251,308,28166,1,2,0:2:0:0:
171,115,28999,5,2,3:2:0:0:
150,92,29083,1,2,0:2:0:0:
122,83,29166,1,2,3:2:0:0:
94,86,29249,1,2,0:2:0:0:
65,100,29333,6,0,B|69:114|212:92|193:-3|456:67|266:203|265:124,1,320,2|0,3:2|0:0,0:0:0:0:
158,3,29833,2,0,P|240:119|344:306,1,320,2|0,3:2|0:0,0:0:0:0:
378,360,30333,1,2,0:2:0:0:
379,350,30833,1,2,0:2:0:0:
377,340,31333,1,2,0:2:0:0:
120,216,31666,6,0,L|108:213,1,12,10|0,3:2|0:0,0:0:0:0:
29,218,31999,2,0,B|-1:146|188:111|294:309|206:349,1,320,2|0,3:2|0:0,0:0:0:0:
152,369,32499,1,2,0:2:0:0:
330,104,32666,6,0,B|326:65|374:42|366:79,1,80,2|0,3:2|0:0,0:0:0:0:
272,34,32833,2,0,P|314:153|322:244,1,160,2|2,0:2|0:2,0:0:0:0:
328,259,33083,1,0,0:0:0:0:
429,207,33166,6,0,B|366:176|296:190|237:261|103:262|103:201,1,320,2|2,3:2|0:2,0:0:0:0:
74,159,33833,2,0,P|80:144|29:95,1,80
13,210,33999,1,10,0:2:0:0:
149,62,34166,5,10,0:2:0:0:
218,126,34249,1,10,0:2:0:0:
314,34,34333,1,10,0:2:0:0:
440,181,34499,5,10,0:2:0:0:
353,149,34583,1,10,0:2:0:0:
308,274,34666,1,14,3:2:0:0:
102,335,34999,5,8,3:2:0:0:
98,321,35083,1,0,0:0:0:0:
78,312,35166,1,0,0:0:0:0:
56,314,35250,1,0,0:0:0:0:
76,304,35333,1,10,3:2:0:0:
113,314,35416,1,2,0:0:0:0:
145,345,35499,1,2,0:0:0:0:
182,352,35583,1,2,0:0:0:0:
227,340,35666,1,8,3:2:0:0:
241,320,35749,1,0,0:0:0:0:
240,307,35833,1,0,0:0:0:0:
230,300,35916,1,0,0:0:0:0:
218,296,35999,5,10,3:2:0:0:
259,276,36083,1,2,0:0:0:0:
308,285,36166,1,2,0:0:0:0:
328,314,36249,1,2,0:0:0:0:
325,327,36333,5,8,3:2:0:0:
316,281,36416,1,0,0:0:0:0:
341,240,36499,1,0,0:0:0:0:
393,238,36583,1,0,0:0:0:0:
390,245,36666,5,10,3:2:0:0:
356,221,36749,1,2,0:0:0:0:
363,167,36833,1,2,0:0:0:0:
416,138,36916,1,2,0:0:0:0:
449,95,36999,1,8,3:2:0:0:
434,52,37083,1,0,0:0:0:0:
414,40,37166,1,0,0:0:0:0:
399,42,37249,1,0,0:0:0:0:
396,51,37333,5,10,3:2:0:0:
358,30,37416,1,2,0:0:0:0:
311,38,37499,1,2,0:0:0:0:
269,83,37583,1,2,0:0:0:0:
207,126,37666,1,8,3:2:0:0:
132,136,37749,1,0,0:0:0:0:
72,96,37833,5,0,0:0:0:0:
67,84,37916,1,0,0:0:0:0:
73,74,37999,1,10,3:2:0:0:
116,56,38083,1,2,0:0:0:0:
167,67,38166,1,2,0:0:0:0:
202,107,38249,1,2,0:0:0:0:
232,172,38333,5,8,3:2:0:0:
290,213,38416,1,0,0:0:0:0:
346,219,38499,1,0,0:0:0:0:
390,192,38583,1,0,0:0:0:0:
387,182,38666,1,10,3:2:0:0:
377,167,38749,1,2,0:0:0:0:
346,149,38833,5,2,0:0:0:0:
310,146,38916,1,2,0:0:0:0:
344,158,38999,1,8,3:2:0:0:
367,174,39083,1,0,0:0:0:0:
349,144,39166,1,0,0:0:0:0:
353,109,39249,1,0,0:0:0:0:
380,83,39333,1,10,3:2:0:0:
380,94,39416,1,2,0:0:0:0:
377,106,39499,1,2,0:0:0:0:
382,120,39583,1,2,0:0:0:0:
397,112,39666,5,8,3:2:0:0:
376,77,39749,1,0,0:0:0:0:
328,60,39833,1,0,0:0:0:0:
275,72,39916,1,0,0:0:0:0:
231,129,39999,5,10,3:2:0:0:
198,110,40083,1,2,0:0:0:0:
155,123,40166,1,2,0:0:0:0:
108,141,40249,1,2,0:0:0:0:
68,126,40333,1,8,3:2:0:0:
52,103,40416,1,0,0:0:0:0:
66,114,40499,5,0,0:0:0:0:
105,125,40583,1,0,0:0:0:0:
140,111,40666,1,10,3:2:0:0:
157,79,40749,1,2,0:0:0:0:
144,41,40833,1,2,0:0:0:0:
105,16,40916,1,2,0:0:0:0:
130,41,40999,5,8,3:2:0:0:
152,84,41083,1,0,0:0:0:0:
169,136,41166,1,0,0:0:0:0:
167,189,41249,1,0,0:0:0:0:
149,238,41333,1,10,3:2:0:0:
114,285,41416,1,2,0:0:0:0:
151,250,41499,5,2,0:0:0:0:
195,229,41583,1,2,0:0:0:0:
242,230,41666,1,8,3:2:0:0:
284,253,41749,1,0,0:0:0:0:
257,250,41833,1,0,0:0:0:0:
237,258,41916,1,0,0:0:0:0:
222,275,41999,5,10,3:2:0:0:
236,277,42083,1,2,0:0:0:0:
247,285,42166,1,2,0:0:0:0:
237,289,42250,1,2,0:0:0:0:
225,296,42333,5,8,3:2:0:0:
296,274,42416,1,0,0:0:0:0:
369,280,42499,1,0,0:0:0:0:
437,314,42583,1,0,0:0:0:0:
489,371,42666,6,0,P|468:324|433:275,1,80,8|0,3:2|0:0,0:0:0:0:
399,205,42833,2,0,P|361:166|315:130,1,80,8|0,3:2|0:0,0:0:0:0:
261,89,42999,2,0,P|225:69|165:49,1,80,8|0,3:2|0:0,0:0:0:0:
99,24,43166,2,0,P|62:12|1:1,1,80,8|0,3:2|0:0,0:0:0:0:
35,350,43333,6,0,P|66:346|146:326,1,80,8|0,3:2|0:0,0:0:0:0:
237,191,43499,2,0,B|212:176|179:189|149:211|149:211|154:199|154:199|104:257|68:277|-26:269,1,240.000009155274,8|8,3:2|3:2,0:0:0:0:
67,166,43749,1,8,3:2:0:0:
196,324,43833,1,8,3:2:0:0:
454,114,44166,5,10,0:2:0:0:
422,184,44249,1,10,0:2:0:0:
380,120,44333,1,10,0:2:0:0:
413,23,44499,5,2,0:2:0:0:
339,264,44666,5,2,0:2:0:0:
339,264,44749,2,0,L|336:297,1,20,0|2,0:0|3:2,0:0:0:0:
119,63,44916,5,0,0:0:0:0:
119,63,44999,2,0,P|146:100|99:207,1,120.000004577637,10|0,3:2|0:0,0:0:0:0:
72,232,45166,2,0,B|46:243|-19:218|11:148|50:201,1,120.000004577637,10|0,3:2|0:0,0:0:0:0:
214,294,45333,6,0,P|190:288|153:277,1,60.0000022888184,6|0,3:2|0:0,0:0:0:0:
200,296,45416,2,0,P|167:290|109:277,1,60.0000022888184,2|0,0:2|0:0,0:0:0:0:
300,367,45499,2,0,B|256:373|168:324|190:174|291:186|249:212,1,240.000009155274,2|10,0:2|3:2,0:0:0:0:
450,203,45833,6,0,P|426:197|389:186,1,60.0000022888184,2|0,0:2|0:0,0:0:0:0:
436,205,45916,2,0,P|403:199|345:186,1,60.0000022888184,2|0,0:2|0:0,0:0:0:0:
477,129,45999,2,0,B|422:112|352:160|344:229|227:218|226:184,1,240.000009155274,2|2,3:2|0:2,0:0:0:0:
173,1,46333,5,10,3:2:0:0:
105,40,46416,1,2,0:2:0:0:
164,146,46499,5,2,0:2:0:0:
99,186,46583,1,2,0:2:0:0:
46,114,46666,6,0,B|76:85|205:154|207:240|284:193,1,240.000009155274,2|2,3:2|0:2,0:0:0:0:
391,281,46916,2,0,L|382:354,1,60.0000022888184,2|0,0:2|0:0,0:0:0:0:
365,119,46999,2,0,P|424:273|500:371,1,240.000009155274,10|2,3:2|0:2,0:0:0:0:
245,354,47333,5,10,0:2:0:0:
162,291,47416,1,10,0:2:0:0:
26,340,47499,1,10,0:2:0:0:
210,13,47666,5,10,0:2:0:0:
280,75,47749,1,10,0:2:0:0:
400,15,47833,1,10,0:2:0:0:
499,140,47999,6,0,P|482:147|424:169,1,60.0000022888184,6|0,3:2|0:0,0:0:0:0:
495,151,48083,2,0,L|439:190,1,60.0000022888184,2|0,0:2|0:0,0:0:0:0:
360,126,48166,2,0,B|410:101|493:171|501:251|459:289,1,240.000009155274,2|10,0:2|3:2,0:0:0:0:
150,209,48499,6,0,P|115:202|74:193,1,60.0000022888184,2|0,0:2|0:0,0:0:0:0:
81,204,48583,2,0,P|56:205|63:158,1,60.0000022888184,2|0,0:2|0:0,0:0:0:0:
102,279,48666,2,0,P|77:161|33:49,1,240.000009155274,2|2,3:2|0:2,0:0:0:0:
254,208,48999,5,8,3:2:0:0:
283,165,49083,1,0,0:0:0:0:
269,164,49166,1,0,0:0:0:0:
262,355,49333,5,8,0:0:0:0:
458,368,49499,5,8,0:0:0:0:
404,291,49583,1,8,0:0:0:0:
479,188,49666,1,8,0:0:0:0:
170,184,49833,5,8,0:0:0:0:
210,102,49916,1,8,0:0:0:0:
119,6,49999,1,8,0:0:0:0:
7,306,50166,5,8,0:0:0:0:
91,263,50249,1,8,0:0:0:0:
182,312,50333,1,8,0:0:0:0:
266,263,50416,1,8,0:0:0:0:
327,332,50499,2,0,B|347:347|189:350|221:170|363:120|370:135|412:130,1,320,10|6,0:2|3:2,0:0:0:0:
465,61,50749,6,0,P|442:50|386:30,1,60.0000022888184,2|0,0:2|0:0,0:0:0:0:
335,31,50833,2,0,B|429:68|481:139|478:245,1,240.000009155274,2|10,0:2|3:2,0:0:0:0:
133,378,51166,6,0,P|88:366|30:351,1,60.0000022888184,2|0,0:2|0:0,0:0:0:0:
127,366,51249,2,0,P|93:343|62:323,1,60.0000022888184,2|0,0:2|0:0,0:0:0:0:
37,196,51333,2,0,B|35:286|119:358|189:364|204:283,1,240.000009155274,2|2,3:2|0:2,0:0:0:0:
333,193,51666,6,0,B|314:164|224:239|321:296|333:254,1,120.000004577637,10|0,3:2|0:0,0:0:0:0:
393,141,51833,2,0,B|393:202|291:257|190:257|205:213,1,240.000009155274,2|0,0:2|3:2,0:0:0:0:
82,63,52166,6,0,P|68:46|19:3,1,60.0000022888184,2|0,0:2|0:0,0:0:0:0:
31,27,52249,2,0,P|22:42|52:30,1,60.0000022888184,2|0,0:2|0:0,0:0:0:0:
218,32,52333,2,0,B|170:16|135:26|44:44|27:131|124:168,1,240.000009155274,10|2,3:2|0:2,0:0:0:0:
359,12,52666,5,10,0:2:0:0:
454,31,52749,1,10,0:2:0:0:
306,91,52833,1,10,0:2:0:0:
254,344,52999,5,10,0:2:0:0:
169,293,53083,1,10,0:2:0:0:
324,255,53166,1,10,0:2:0:0:
117,225,53333,6,0,B|103:243|56:258|87:225,1,60.0000022888184,6|0,3:2|0:0,0:0:0:0:
122,217,53416,2,0,B|131:190|204:188|137:222,1,60.0000022888184,2|0,0:2|0:0,0:0:0:0:
13,201,53499,2,0,B|47:178|161:211|171:291|253:249,1,240.000009155274,2|10,0:2|3:2,0:0:0:0:
470,207,53833,6,0,B|471:217|434:223|431:211|431:211|440:213|454:206,1,60.0000022888184,2|0,0:2|0:0,0:0:0:0:
431,172,53916,2,0,B|448:178|456:202|446:216|446:216|444:208|441:198,1,60.0000022888184,2|0,0:2|0:0,0:0:0:0:
417,27,53999,2,0,B|474:42|513:94|514:166|438:245|444:201,1,240.000009155274,2|2,3:2|0:2,0:0:0:0:
235,78,54333,5,8,3:2:0:0:
202,44,54416,1,0,0:0:0:0:
216,44,54499,1,0,0:0:0:0:
339,264,54666,5,2,3:2:0:0:
280,338,54749,1,2,0:2:0:0:
247,199,54833,1,2,0:2:0:0:
11,193,54999,6,0,P|125:221|479:372,1,480,10|0,3:2|0:0,0:0:0:0:
384,342,55333,5,8,0:0:0:0:
442,123,55499,5,10,0:2:0:0:
384,171,55583,1,8,0:0:0:0:
372,97,55666,1,10,0:2:0:0:
456,199,55749,1,8,0:0:0:0:
276,128,55833,5,10,0:2:0:0:
499,9,55999,5,2,3:2:0:0:
259,302,56166,5,8,0:2:0:0:
182,247,56249,1,8,0:2:0:0:
312,209,56333,1,8,0:2:0:0:
128,314,56499,6,0,B|107:338|86:354|51:368|51:368|112:353|197:245|159:105,1,360.000013732911,2|0,3:2|0:0,0:0:0:0:
149,16,56833,5,8,0:2:0:0:
57,53,56916,1,8,0:2:0:0:
196,82,56999,1,8,0:2:0:0:
425,159,57166,6,0,B|427:253|264:282|251:38|419:-23|484:72|484:72|431:38|372:42|304:124|324:316|408:387|473:360|473:360|445:354|428:345|388:298|387:278|387:278|338:351|243:398|70:363|0:257|165:196|216:205|239:235|259:250|259:250|191:251|153:238|58:251|24:310|35:351|35:351|37:333|56:320,1,1800,6|0,3:2|0:0,0:0:0:0:
