osu file format v14

[General]
AudioFilename: audio.mp3
AudioLeadIn: 0
PreviewTime: 13333
Countdown: 0
SampleSet: Soft
StackLeniency: 0.6
Mode: 0
LetterboxInBreaks: 0
WidescreenStoryboard: 1

[Editor]
Bookmarks: 34666,36666,37333,37999,39999,55666
DistanceSpacing: 0.8
BeatDivisor: 4
GridSize: 4
TimelineZoom: 1.700003

[Metadata]
Title:Plasma Gun
TitleUnicode:Plasma Gun
Artist:Memme
ArtistUnicode:Memme
Creator:emu1337
Version:Extreme
Source:O2Jam U
Tags:electronic instrumental ParkMemme shooting trance tynamo -tynamo sleepy sleepymateo ratina0 lmt yukiyo
BeatmapID:2779000
BeatmapSetID:1341551

[Difficulty]
HPDrainRate:5
CircleSize:4.4
OverallDifficulty:9.2
ApproachRate:9.4
SliderMultiplier:1.6
SliderTickRate:1

[Events]
//Background and Video events
0,0,"clouds-1609726326065-5941.jpg",0,0
//Break Periods
//Storyboard Layer 0 (Background)
//Storyboard Layer 1 (Fail)
//Storyboard Layer 2 (Pass)
//Storyboard Layer 3 (Foreground)
//Storyboard Layer 4 (Overlay)
//Storyboard Sound Samples

[TimingPoints]
0,333.333333333333,4,2,1,70,1,0
2666,-142.857142857143,4,2,1,55,0,0
7666,-50,4,2,1,55,0,0
7999,-100,4,2,1,65,0,0
11333,-100,4,2,1,75,0,0
11999,-50,4,2,1,75,0,0
13333,-80,4,2,1,75,0,0
22666,-100,4,2,1,75,0,0
24166,-100,4,2,1,65,0,0
34666,-100,4,2,1,75,0,1
34749,-100,4,2,1,55,0,1
34999,-100,4,2,1,60,0,1
35333,-100,4,2,1,65,0,1
35666,-100,4,2,1,70,0,1
35999,-100,4,2,1,75,0,1
36333,-100,4,2,1,80,0,1
36666,-100,4,2,1,85,0,1
36999,-100,4,2,1,90,0,1
37666,-100,4,2,1,85,0,1
37999,-100,4,2,1,80,0,1
38333,-100,4,2,1,75,0,1
38666,-100,4,2,1,70,0,1
38999,-100,4,2,1,65,0,1
39333,-100,4,2,1,60,0,1
39666,-100,4,2,1,55,0,1
40333,-100,4,2,1,60,0,1
40666,-100,4,2,1,65,0,1
40999,-100,4,2,1,70,0,1
41333,-100,4,2,1,75,0,1
41666,-100,4,2,1,80,0,1
41999,-100,4,2,1,85,0,1
42333,-100,4,2,1,90,0,1
42666,-80,4,2,1,95,0,1
43833,-80,4,2,1,95,0,0
43999,-80,4,2,1,65,0,0
45333,-80,4,2,1,75,0,0
54999,-55.5555555555556,4,2,1,75,0,0
55666,-68.9655172413793,4,2,1,75,0,0
55999,-80,4,2,1,65,0,0
57166,-80,4,2,1,65,0,0

[Colours]
Combo1 : 164,194,230
Combo2 : 187,234,234

[HitObjects]
412,65,2666,5,6,0:0:0:0:
469,114,2833,1,0,0:0:0:0:
450,185,2999,1,2,0:0:0:0:
286,261,3333,1,2,0:0:0:0:
267,332,3499,1,2,0:0:0:0:
267,332,3833,5,2,0:0:0:0:
343,141,4166,1,2,0:0:0:0:
343,141,4333,1,2,0:0:0:0:
141,162,4666,1,0,0:0:0:0:
141,162,4833,1,2,0:0:0:0:
222,140,4999,1,2,0:0:0:0:
200,54,5166,1,2,0:0:0:0:
117,74,5333,5,2,0:0:0:0:
117,74,5666,1,2,0:0:0:0:
117,74,5999,1,2,0:0:0:0:
200,54,6166,1,2,0:0:0:0:
247,127,6333,1,2,0:0:0:0:
191,199,6499,5,2,0:0:0:0:
382,339,6833,1,2,0:0:0:0:
347,254,6999,1,2,0:0:0:0:
130,349,7333,1,0,0:0:0:0:
222,362,7499,1,2,0:0:0:0:
222,362,7666,2,0,B|212:323|212:323|321:143,1,240,2|0,0:0|0:0,0:0:0:0:
378,116,7999,6,0,L|462:132,1,80,6|0,3:2|0:0,0:0:0:0:
243,64,8333,2,0,L|321:49,1,80,0|0,3:2|0:0,0:0:0:0:
91,219,8666,2,0,L|175:235,1,80,0|0,3:2|0:0,0:0:0:0:
0,42,9000,2,0,L|78:27,1,80,0|0,3:2|0:0,0:0:0:0:
155,132,9333,5,0,3:2:0:0:
64,124,9499,1,0,0:0:0:0:
262,226,9666,1,0,3:2:0:0:
171,234,9832,1,0,0:0:0:0:
357,161,9999,5,0,3:2:0:0:
358,171,10083,1,0,0:0:0:0:
359,180,10166,1,0,0:0:0:0:
360,191,10249,1,0,0:0:0:0:
379,207,10333,1,0,3:2:0:0:
377,228,10417,1,0,0:0:0:0:
375,247,10500,1,0,0:0:0:0:
372,267,10583,1,0,0:0:0:0:
381,295,10666,5,4,3:2:0:0:
356,279,10749,1,0,0:0:0:0:
329,275,10833,1,0,0:0:0:0:
289,273,10916,1,0,0:0:0:0:
245,286,10999,1,0,3:2:0:0:
196,295,11083,1,0,0:0:0:0:
141,280,11166,1,0,0:0:0:0:
99,236,11249,1,0,0:0:0:0:
92,177,11333,5,6,3:2:0:0:
126,120,11416,1,2,0:2:0:0:
189,91,11499,1,2,0:2:0:0:
258,95,11583,1,2,0:2:0:0:
318,134,11666,1,2,3:2:0:0:
344,201,11749,1,2,3:2:0:0:
331,277,11833,1,2,3:2:0:0:
276,333,11916,1,2,3:2:0:0:
202,351,11999,6,0,B|86:328|86:328|170:306,1,160,2|0,3:2|0:0,0:0:0:0:
331,277,12333,2,0,B|351:356|351:356|259:329,1,160,0|0,3:2|0:0,0:0:0:0:
433,156,12666,5,2,3:2:0:0:
390,178,12749,1,2,0:2:0:0:
344,200,12833,1,2,0:2:0:0:
295,188,12916,1,2,0:2:0:0:
245,168,12999,5,2,0:2:0:0:
175,198,13082,1,2,0:2:0:0:
114,235,13165,1,2,0:2:0:0:
89,303,13249,1,2,0:2:0:0:
70,369,13333,6,0,L|6:353,2,50,6|2|2,3:2|0:0|0:0,0:0:0:0:
245,168,13666,2,0,B|267:145|267:145|259:68,1,100,10|2,3:2|0:2,0:0:0:0:
220,92,13916,1,2,0:0:0:0:
183,105,13999,2,0,L|168:5,1,100,2|2,3:2|0:0,0:0:0:0:
336,29,14333,1,10,3:2:0:0:
423,75,14500,1,2,0:0:0:0:
385,167,14666,6,0,L|401:275,1,100,0|2,3:2|0:0,0:0:0:0:
407,309,14916,1,2,0:0:0:0:
414,352,14999,1,10,3:2:0:0:
482,221,15166,1,2,0:0:0:0:
266,259,15333,1,2,3:2:0:0:
230,290,15416,1,2,0:0:0:0:
222,335,15499,1,2,0:0:0:0:
123,235,15666,1,10,3:2:0:0:
319,335,15833,1,2,0:0:0:0:
108,228,15999,6,0,L|50:242,2,50,2|2|2,3:2|0:0|0:0,0:0:0:0:
294,77,16333,2,0,B|309:124|309:124|285:190,1,100,10|2,3:2|0:0,0:0:0:0:
377,33,16666,1,2,3:2:0:0:
211,125,16833,1,2,0:0:0:0:
391,196,16999,1,8,3:2:0:0:
391,196,17083,1,0,0:0:0:0:
391,196,17166,1,0,0:0:0:0:
236,285,17333,6,0,L|249:394,1,100,0|2,3:2|0:0,0:0:0:0:
59,239,17666,2,0,L|70:139,1,100,10|2,3:2|0:0,0:0:0:0:
200,26,17999,1,2,3:2:0:0:
205,75,18082,1,2,0:0:0:0:
211,125,18165,1,2,0:0:0:0:
78,71,18333,1,10,3:2:0:0:
70,139,18416,1,2,0:0:0:0:
62,208,18499,1,2,0:0:0:0:
54,276,18582,1,0,0:0:0:0:
47,345,18666,6,0,L|-2:356,2,50,6|2|2,3:2|0:0|0:0,0:0:0:0:
261,266,18999,2,0,B|298:259|298:259|382:284,1,100,10|2,3:2|0:0,0:0:0:0:
363,319,19249,1,2,0:0:0:0:
370,359,19333,1,2,3:2:0:0:
146,315,19499,1,2,0:0:0:0:
275,177,19666,1,10,3:2:0:0:
267,221,19749,1,2,0:0:0:0:
261,266,19833,1,2,0:0:0:0:
427,197,19999,6,0,L|408:78,1,100,4|2,3:2|0:0,0:0:0:0:
421,58,20249,1,2,0:0:0:0:
432,17,20332,1,10,3:2:0:0:
512,135,20499,1,2,0:0:0:0:
327,61,20666,1,2,3:2:0:0:
286,68,20749,1,2,0:0:0:0:
245,75,20833,1,2,0:0:0:0:
166,182,20999,1,10,3:2:0:0:
137,0,21166,1,2,0:0:0:0:
164,197,21333,6,0,L|154:251,2,50,6|2|2,3:2|0:0|0:0,0:0:0:0:
352,264,21666,2,0,L|370:369,1,100,10|2,3:2|0:0,0:0:0:0:
265,190,21999,1,6,3:2:0:0:
460,256,22166,1,2,0:0:0:0:
262,360,22333,1,8,3:2:0:0:
262,360,22416,1,0,0:0:0:0:
262,360,22499,1,0,0:0:0:0:
183,268,22666,5,8,2:2:0:0:
87,299,22833,1,8,2:2:0:0:
89,312,22916,1,8,2:2:0:0:
92,324,22999,1,8,2:2:0:0:
9,237,23166,1,8,2:2:0:0:
11,224,23249,1,8,2:2:0:0:
14,211,23332,5,8,2:2:0:0:
25,189,23416,1,8,2:2:0:0:
50,170,23499,1,8,2:2:0:0:
83,161,23583,1,8,2:2:0:0:
127,162,23666,5,10,2:2:0:0:
183,172,23749,1,2,2:2:0:0:
245,197,23833,1,2,2:2:0:0:
302,237,23916,1,2,2:2:0:0:
349,293,23999,6,0,B|381:324|381:324|501:311,1,160,6|0,3:2|0:0,0:0:0:0:
391,215,24499,2,0,B|359:184|359:184|239:197,1,160,2|0,3:2|0:0,0:0:0:0:
182,262,24999,2,0,B|174:291|174:291|193:347,2,80,2|0|0,0:2|0:0|0:0,0:0:0:0:
87,73,25499,1,2,0:2:0:0:
73,159,25666,1,2,0:2:0:0:
159,175,25832,1,2,0:2:0:0:
173,85,25999,1,2,0:2:0:0:
173,85,26166,1,0,0:0:0:0:
73,159,26332,1,10,3:2:0:0:
287,37,26666,6,0,L|459:55,1,160,2|0,3:2|0:0,0:0:0:0:
415,138,27166,2,0,L|433:310,1,160,2|0,3:2|0:0,0:0:0:0:
366,363,27666,1,2,0:2:0:0:
275,348,27833,1,0,0:0:0:0:
215,279,27999,1,0,0:0:0:0:
218,189,28166,2,0,B|239:130|239:130|164:71|164:71|68:102|68:102|70:165,1,320,2|0,0:2|0:0,0:0:0:0:
137,214,28999,1,2,3:2:0:0:
149,241,29083,1,2,0:2:0:0:
154,277,29166,1,2,3:2:0:0:
139,324,29249,1,2,0:2:0:0:
102,357,29333,6,0,B|63:382|63:382|77:266,1,160,2|0,3:2|0:0,0:0:0:0:
218,189,29833,2,0,B|257:164|257:164|243:280,1,160,2|0,3:2|0:0,0:0:0:0:
431,331,30333,2,0,L|517:319,2,80,2|0|0,0:2|0:0|0:0,0:0:0:0:
269,366,30833,1,2,0:2:0:0:
334,304,30999,1,0,0:0:0:0:
390,234,31166,1,0,0:0:0:0:
485,247,31333,1,2,0:2:0:0:
485,247,31499,1,0,0:0:0:0:
446,157,31666,1,10,3:2:0:0:
254,16,31999,5,2,3:2:0:0:
254,16,32666,5,2,3:2:0:0:
292,90,32833,1,2,0:2:0:0:
251,160,32999,1,2,0:2:0:0:
250,169,33083,1,0,0:0:0:0:
249,178,33166,1,2,3:2:0:0:
248,188,33999,5,10,0:2:0:0:
293,270,34166,1,10,0:2:0:0:
294,279,34250,1,10,0:2:0:0:
295,288,34333,1,10,0:2:0:0:
205,331,34499,1,10,0:2:0:0:
204,340,34583,1,10,0:2:0:0:
203,349,34666,5,14,3:2:0:0:
185,357,34749,1,2,0:0:0:0:
162,360,34833,1,2,0:0:0:0:
133,351,34916,1,2,0:0:0:0:
108,333,34999,1,8,3:2:0:0:
90,298,35083,1,0,0:0:0:0:
89,258,35166,1,0,0:0:0:0:
112,218,35249,1,0,0:0:0:0:
159,193,35333,1,10,3:2:0:0:
211,191,35416,1,2,0:0:0:0:
257,218,35499,1,2,0:0:0:0:
309,246,35583,1,2,0:0:0:0:
369,255,35666,1,8,3:2:0:0:
432,236,35749,1,0,0:0:0:0:
474,181,35833,1,0,0:0:0:0:
480,109,35916,1,0,0:0:0:0:
443,45,35999,1,10,3:2:0:0:
374,19,36083,1,2,0:0:0:0:
300,28,36166,1,2,0:0:0:0:
235,69,36249,1,2,0:0:0:0:
202,136,36333,1,8,3:2:0:0:
201,212,36416,1,0,0:0:0:0:
237,283,36499,1,0,0:0:0:0:
308,315,36583,1,0,0:0:0:0:
388,306,36666,6,0,L|431:295,3,40,10|2|2|2,3:2|0:0|0:0|0:0,0:0:0:0:
474,181,36999,2,0,L|517:192,3,40,8|0|0|0,3:2|0:0|0:0|0:0,0:0:0:0:
368,79,37333,5,10,3:2:0:0:
391,152,37416,1,2,0:0:0:0:
364,224,37499,1,2,0:0:0:0:
307,274,37583,1,2,0:0:0:0:
237,283,37666,1,8,3:2:0:0:
174,257,37749,1,0,0:0:0:0:
133,209,37833,1,0,0:0:0:0:
123,154,37916,1,0,0:0:0:0:
135,103,37999,1,10,3:2:0:0:
165,63,38083,1,2,0:0:0:0:
211,44,38166,1,2,0:0:0:0:
257,48,38249,1,2,0:0:0:0:
293,71,38333,1,8,3:2:0:0:
306,109,38416,1,0,0:0:0:0:
295,139,38499,1,0,0:0:0:0:
280,163,38583,1,0,0:0:0:0:
257,173,38666,6,0,P|233:174|205:160,3,40,10|2|2|2,3:2|0:0|0:0|0:0,0:0:0:0:
155,210,38999,2,0,P|142:189|140:158,3,40,8|0|0|0,3:2|0:0|0:0|0:0,0:0:0:0:
68,147,39333,2,0,P|79:125|105:108,3,40,10|2|2|2,3:2|0:0|0:0|0:0,0:0:0:0:
78,41,39666,2,0,P|102:40|130:54,3,40,8|0|0|0,3:2|0:0|0:0|0:0,0:0:0:0:
198,14,39999,5,10,3:2:0:0:
219,24,40083,1,2,0:0:0:0:
239,41,40166,1,2,0:0:0:0:
252,69,40249,1,2,0:0:0:0:
254,106,40333,1,8,3:2:0:0:
242,148,40416,1,0,0:0:0:0:
217,181,40499,1,0,0:0:0:0:
198,227,40583,1,0,0:0:0:0:
206,277,40666,1,10,3:2:0:0:
236,317,40749,1,2,0:0:0:0:
286,338,40833,1,2,0:0:0:0:
345,343,40916,1,2,0:0:0:0:
404,325,40999,1,8,3:2:0:0:
447,279,41083,1,0,0:0:0:0:
464,215,41166,1,0,0:0:0:0:
457,148,41249,1,0,0:0:0:0:
417,93,41333,1,10,3:2:0:0:
358,54,41416,1,2,0:0:0:0:
290,39,41499,1,2,0:0:0:0:
217,45,41583,1,2,0:0:0:0:
145,68,41666,1,8,3:2:0:0:
86,116,41749,1,0,0:0:0:0:
46,183,41833,1,0,0:0:0:0:
40,262,41916,1,0,0:0:0:0:
82,328,41999,1,10,3:2:0:0:
154,361,42083,1,2,0:0:0:0:
233,366,42166,1,2,0:0:0:0:
311,349,42249,1,2,0:0:0:0:
376,302,42333,1,8,3:2:0:0:
422,233,42416,1,0,0:0:0:0:
442,153,42499,1,0,0:0:0:0:
440,70,42583,1,0,0:0:0:0:
396,0,42666,6,0,L|290:18,1,100,8|8,3:2|3:2,0:0:0:0:
40,262,42999,2,0,L|146:280,1,100,8|8,3:2|3:2,0:0:0:0:
476,324,43333,1,8,3:2:0:0:
295,97,43499,1,8,3:2:0:0:
213,355,43666,1,8,3:2:0:0:
211,363,43749,1,8,3:2:0:0:
208,372,43833,1,8,3:2:0:0:
270,287,44165,5,10,0:2:0:0:
272,295,44248,1,10,0:2:0:0:
275,304,44333,2,0,B|287:330|287:330|361:338,1,100,10|2,0:2|0:2,0:0:0:0:
203,240,44666,1,2,0:2:0:0:
348,254,44833,1,2,3:2:0:0:
128,276,44999,1,10,3:2:0:0:
350,171,45166,1,10,3:2:0:0:
175,85,45333,6,0,L|156:35,2,50,6|2|2,3:2|0:2|0:2,0:0:0:0:
46,222,45666,2,0,B|31:288|31:288|51:327,1,100,10|2,3:2|0:2,0:0:0:0:
68,350,45916,1,2,0:2:0:0:
101,381,45999,2,0,L|207:367,1,100,2|2,3:2|0:2,0:0:0:0:
253,210,46333,1,10,3:2:0:0:
259,157,46416,1,2,0:2:0:0:
265,103,46499,1,2,0:2:0:0:
272,52,46583,1,2,0:2:0:0:
282,3,46666,6,0,B|309:40|309:40|300:93,1,100,2|2,3:2|0:2,0:0:0:0:
194,273,46999,2,0,B|167:236|167:236|176:183,1,100,10|2,3:2|0:2,0:0:0:0:
417,79,47333,5,10,0:2:0:0:
430,149,47416,1,10,0:2:0:0:
445,220,47499,1,10,0:2:0:0:
282,343,47666,1,10,0:2:0:0:
297,272,47749,1,10,0:2:0:0:
310,202,47832,1,10,0:2:0:0:
176,182,47999,6,0,L|108:172,2,50,6|2|2,3:2|0:2|0:2,0:0:0:0:
373,333,48333,2,0,L|475:306,1,100,10|2,3:2|0:2,0:0:0:0:
310,202,48666,1,2,3:2:0:0:
282,343,48833,1,2,0:2:0:0:
251,132,48999,1,8,3:2:0:0:
251,132,49083,1,0,0:0:0:0:
251,132,49166,1,0,0:0:0:0:
158,87,49333,5,8,0:0:0:0:
126,174,49499,1,8,0:0:0:0:
127,187,49583,1,8,0:0:0:0:
129,200,49666,1,8,0:0:0:0:
194,256,49833,1,8,0:0:0:0:
193,269,49917,1,8,0:0:0:0:
191,282,50000,1,8,0:0:0:0:
118,332,50166,1,8,0:0:0:0:
117,345,50250,1,8,0:0:0:0:
115,358,50333,1,8,0:0:0:0:
114,371,50416,1,8,0:0:0:0:
112,384,50499,1,10,0:2:0:0:
46,279,50666,6,0,L|43:229,2,50,6|2|2,3:2|0:2|0:2,0:0:0:0:
217,368,50999,2,0,B|249:377|249:377|331:363,1,100,10|2,3:2|0:2,0:0:0:0:
334,326,51249,1,2,0:2:0:0:
347,283,51333,2,0,L|339:171,1,100,2|2,3:2|0:2,0:0:0:0:
332,59,51666,1,10,3:2:0:0:
427,222,51833,1,2,0:2:0:0:
235,130,51999,6,0,B|211:155|211:155|123:163,1,100,0|2,3:2|0:2,0:0:0:0:
332,59,52333,2,0,B|356:34|356:34|421:28,1,100,10|2,3:2|0:2,0:0:0:0:
235,130,52666,5,10,0:2:0:0:
248,200,52749,1,10,0:2:0:0:
263,271,52832,1,10,0:2:0:0:
145,160,52999,1,10,0:2:0:0:
132,90,53082,1,10,0:2:0:0:
117,19,53165,1,10,0:2:0:0:
50,190,53333,6,0,L|37:259,2,50,6|2|2,3:2|0:2|0:2,0:0:0:0:
263,271,53666,2,0,B|269:309|269:309|238:400,1,100,10|2,3:2|0:2,0:0:0:0:
348,240,53999,1,2,3:2:0:0:
174,308,54166,1,2,0:2:0:0:
353,378,54333,1,8,3:2:0:0:
353,378,54416,1,0,0:0:0:0:
353,378,54499,1,0,0:0:0:0:
414,303,54666,5,2,3:2:0:0:
454,287,54749,1,2,0:2:0:0:
495,272,54833,1,2,0:2:0:0:
482,176,54999,2,0,B|446:164|446:164|274:222,1,215.999993408203,10|0,3:2|0:0,0:0:0:0:
212,246,55333,1,8,0:0:0:0:
150,184,55499,1,10,0:2:0:0:
141,173,55583,1,8,0:0:0:0:
134,164,55666,2,0,L|142:101,1,58.0000017700196,10|8,0:2|0:0,0:0:0:0:
227,72,55833,1,10,0:2:0:0:
322,109,55999,5,2,3:2:0:0:
285,197,56166,1,8,0:2:0:0:
282,209,56249,1,8,0:2:0:0:
278,221,56333,1,8,0:2:0:0:
322,109,56499,2,0,L|301:3,1,100,2|0,3:2|0:0,0:0:0:0:
362,249,56833,1,8,0:2:0:0:
365,261,56916,1,8,0:2:0:0:
369,273,57000,1,8,0:2:0:0:
469,165,57166,6,0,B|424:96|251:45|202:328|17:168|17:168|198:8|243:279|385:208,1,900,6|0,3:2|0:0,0:0:0:0:
