osu file format v14

[General]
AudioFilename: audio.mp3
AudioLeadIn: 0
PreviewTime: 13333
Countdown: 0
SampleSet: Soft
StackLeniency: 0.6
Mode: 0
LetterboxInBreaks: 0
WidescreenStoryboard: 1

[Editor]
Bookmarks: 34666,36666,37333,37999,39999,55666
DistanceSpacing: 0.8
BeatDivisor: 4
GridSize: 4
TimelineZoom: 1.700003

[Metadata]
Title:Plasma Gun
TitleUnicode:Plasma Gun
Artist:Memme
ArtistUnicode:Memme
Creator:emu1337
Version:Extra
Source:O2Jam U
Tags:electronic instrumental ParkMemme shooting trance tynamo -tynamo sleepy sleepymateo ratina0 lmt yukiyo
BeatmapID:2778999
BeatmapSetID:1341551

[Difficulty]
HPDrainRate:5
CircleSize:3.6
OverallDifficulty:8.5
ApproachRate:9.2
SliderMultiplier:1.6
SliderTickRate:1

[Events]
//Background and Video events
0,0,"clouds-1609726326065-5941.jpg",0,0
//Break Periods
//Storyboard Layer 0 (Background)
//Storyboard Layer 1 (Fail)
//Storyboard Layer 2 (Pass)
//Storyboard Layer 3 (Foreground)
//Storyboard Layer 4 (Overlay)
//Storyboard Sound Samples

[TimingPoints]
0,333.333333333333,4,2,1,70,1,0
2666,-142.857142857143,4,2,1,55,0,0
7666,-58.8235294117647,4,2,1,55,0,0
7999,-100,4,2,1,65,0,0
11333,-100,4,2,1,75,0,0
11999,-58.8235294117647,4,2,1,75,0,0
13333,-80,4,2,1,75,0,0
22666,-100,4,2,1,75,0,0
24166,-100,4,2,1,65,0,0
34666,-100,4,2,1,75,0,1
34749,-100,4,2,1,55,0,1
34999,-100,4,2,1,60,0,1
35333,-100,4,2,1,65,0,1
35666,-100,4,2,1,70,0,1
35999,-100,4,2,1,75,0,1
36333,-100,4,2,1,80,0,1
36666,-100,4,2,1,85,0,1
36999,-100,4,2,1,90,0,1
37666,-100,4,2,1,85,0,1
37999,-100,4,2,1,80,0,1
38333,-100,4,2,1,75,0,1
38666,-100,4,2,1,70,0,1
38999,-100,4,2,1,65,0,1
39333,-100,4,2,1,60,0,1
39666,-100,4,2,1,55,0,1
40333,-100,4,2,1,60,0,1
40666,-100,4,2,1,65,0,1
40999,-100,4,2,1,70,0,1
41333,-100,4,2,1,75,0,1
41666,-100,4,2,1,80,0,1
41999,-100,4,2,1,85,0,1
42333,-100,4,2,1,90,0,1
42666,-80,4,2,1,95,0,1
43833,-80,4,2,1,95,0,0
43999,-80,4,2,1,65,0,0
45333,-80,4,2,1,75,0,0
54999,-68.9655172413793,4,2,1,75,0,0
55999,-80,4,2,1,65,0,0
57166,-95.2380952380952,4,2,1,65,0,0

[Colours]
Combo1 : 164,194,230
Combo2 : 187,234,234

[HitObjects]
350,109,2666,6,0,L|465:142,1,111.999996582031,6|2,0:0|0:0,0:0:0:0:
314,35,3333,1,2,0:0:0:0:
314,35,3499,1,2,0:0:0:0:
314,35,3833,6,0,B|283:26|283:26|204:48,1,111.999996582031,2|2,0:0|0:0,0:0:0:0:
131,29,4333,2,0,L|113:145,1,111.999996582031,2|0,0:0|0:0,0:0:0:0:
53,191,4833,1,2,0:0:0:0:
111,243,4999,1,2,0:0:0:0:
117,322,5166,1,2,0:0:0:0:
239,279,5333,5,2,0:0:0:0:
239,279,5666,2,0,L|301:274,1,55.9999982910157,2|0,0:0|0:0,0:0:0:0:
375,197,5999,1,2,0:0:0:0:
375,197,6166,2,0,L|313:192,1,55.9999982910157,2|2,0:0|0:0,0:0:0:0:
204,102,6499,6,0,L|212:157,1,55.9999982910157,2|0,0:0|0:0,0:0:0:0:
142,197,6833,1,2,0:0:0:0:
101,267,6999,2,0,L|109:323,1,55.9999982910157,2|0,0:0|0:0,0:0:0:0:
169,381,7333,1,0,0:0:0:0:
169,381,7499,1,2,0:0:0:0:
225,320,7666,2,0,B|294:332|294:332|336:356|336:356|419:371,1,204.000003890991,2|0,0:0|0:0,0:0:0:0:
477,316,7999,6,0,L|490:220,1,80,6|0,3:2|0:0,0:0:0:0:
358,143,8333,2,0,L|368:222,1,80,0|0,3:2|0:0,0:0:0:0:
433,79,8666,1,0,3:2:0:0:
339,44,8833,1,0,0:0:0:0:
358,143,8999,1,0,3:2:0:0:
191,122,9166,6,0,L|76:140,1,80,0|0,0:0|3:2,0:0:0:0:
267,168,9499,1,0,0:0:0:0:
133,232,9666,2,0,L|53:219,1,80,0|0,3:2|0:0,0:0:0:0:
287,253,9999,1,0,3:2:0:0:
288,262,10082,1,0,0:0:0:0:
290,272,10165,1,0,0:0:0:0:
292,282,10249,1,0,0:0:0:0:
294,292,10333,2,0,L|286:354,3,40,0|0|0|0,3:2|0:0|0:0|0:0,0:0:0:0:
214,353,10666,5,4,3:2:0:0:
193,359,10749,1,0,0:0:0:0:
162,358,10833,1,0,0:0:0:0:
133,339,10916,1,0,0:0:0:0:
113,307,10999,1,0,3:2:0:0:
111,267,11083,1,0,0:0:0:0:
131,228,11166,1,0,0:0:0:0:
171,204,11249,1,0,0:0:0:0:
211,181,11333,5,6,3:2:0:0:
240,138,11416,1,2,0:2:0:0:
238,83,11499,1,2,0:2:0:0:
198,36,11583,1,2,0:2:0:0:
132,29,11666,1,2,3:2:0:0:
78,74,11749,1,2,3:2:0:0:
77,147,11833,1,2,3:2:0:0:
132,196,11916,1,2,3:2:0:0:
211,181,11999,6,0,B|279:198|279:198|321:122,1,136.000002593994,2|0,3:2|0:0,0:0:0:0:
487,107,12333,2,0,B|419:124|419:124|377:48,1,136.000002593994,0|0,3:2|0:0,0:0:0:0:
283,6,12666,5,2,3:2:0:0:
270,43,12749,1,2,0:2:0:0:
258,81,12833,1,2,0:2:0:0:
282,112,12916,1,2,0:2:0:0:
310,139,12999,5,2,0:2:0:0:
360,189,13082,1,2,0:2:0:0:
407,242,13165,1,2,0:2:0:0:
377,308,13249,1,2,0:2:0:0:
345,372,13333,6,0,L|273:359,2,50,6|2|2,3:2|0:0|0:0,0:0:0:0:
180,286,13666,2,0,L|73:302,1,100,10|2,3:2|0:2,0:0:0:0:
45,312,13916,1,2,0:2:0:0:
6,320,13999,2,0,B|0:289|0:289|20:202,1,100,2|2,3:2|0:2,0:0:0:0:
302,199,14333,2,0,B|271:205|271:205|184:185,1,100,10|2,3:2|0:0,0:0:0:0:
62,30,14666,5,0,3:2:0:0:
117,183,14833,1,2,0:0:0:0:
121,145,14916,1,2,0:0:0:0:
124,104,14999,2,0,B|173:107|173:107|219:81,1,100,10|2,3:2|0:0,0:0:0:0:
375,32,15333,1,2,3:2:0:0:
414,34,15416,1,2,0:0:0:0:
451,54,15499,1,2,0:0:0:0:
304,144,15666,1,10,3:2:0:0:
273,0,15833,1,2,0:0:0:0:
394,123,15999,6,0,L|405:187,2,50,2|2|2,3:2|0:0|0:0,0:0:0:0:
284,339,16333,2,0,L|293:240,1,100,10|2,3:2|0:0,0:0:0:0:
366,384,16666,1,2,3:2:0:0:
205,285,16833,1,2,0:0:0:0:
384,255,16999,1,8,3:2:0:0:
384,255,17083,1,0,0:0:0:0:
384,255,17166,1,0,0:0:0:0:
228,130,17333,6,0,B|186:136|186:136|127:123,1,100,0|2,3:2|0:0,0:0:0:0:
414,94,17666,2,0,B|456:88|456:88|515:101,1,100,10|2,3:2|0:0,0:0:0:0:
317,79,17999,1,2,3:2:0:0:
323,112,18083,1,2,0:0:0:0:
330,146,18166,1,2,0:0:0:0:
270,238,18333,1,10,3:2:0:0:
201,255,18416,1,2,0:0:0:0:
134,273,18499,1,2,0:0:0:0:
66,291,18582,1,0,0:0:0:0:
0,309,18666,6,0,L|11:364,2,50,6|2|2,3:2|0:0|0:0,0:0:0:0:
115,181,18999,2,0,B|136:154|136:154|126:84,1,100,10|2,3:2|0:0,0:0:0:0:
94,60,19249,1,2,0:0:0:0:
57,29,19333,2,0,B|36:56|36:56|46:126,1,100,2|2,3:2|0:0,0:0:0:0:
201,255,19666,1,10,3:2:0:0:
210,297,19749,1,2,0:0:0:0:
219,338,19833,1,2,0:0:0:0:
340,183,19999,6,0,B|388:168|388:168|444:193,1,100,4|2,3:2|0:0,0:0:0:0:
472,175,20249,1,2,0:0:0:0:
496,143,20333,2,0,L|509:27,1,100,10|2,3:2|0:0,0:0:0:0:
329,92,20666,1,2,3:2:0:0:
294,103,20749,1,2,0:0:0:0:
261,114,20833,1,2,0:0:0:0:
367,10,20999,1,10,3:2:0:0:
340,183,21166,1,2,0:0:0:0:
185,67,21333,6,0,L|122:56,2,50,6|2|2,3:2|0:0|0:0,0:0:0:0:
246,218,21666,2,0,B|241:264|241:264|193:310,1,100,10|2,3:2|0:0,0:0:0:0:
83,137,21999,1,6,3:2:0:0:
128,359,22166,1,2,0:0:0:0:
150,219,22333,1,8,3:2:0:0:
150,219,22416,1,0,0:0:0:0:
150,219,22499,1,0,0:0:0:0:
0,182,22666,5,8,2:2:0:0:
51,254,22833,1,8,2:2:0:0:
55,267,22916,1,8,2:2:0:0:
59,278,22999,1,8,2:2:0:0:
120,335,23166,1,8,2:2:0:0:
124,348,23249,1,8,2:2:0:0:
128,359,23332,5,8,2:2:0:0:
154,376,23416,1,8,2:2:0:0:
185,370,23499,1,8,2:2:0:0:
208,348,23583,1,8,2:2:0:0:
216,317,23666,5,10,2:2:0:0:
205,283,23749,1,2,2:2:0:0:
187,244,23833,1,2,2:2:0:0:
190,189,23916,1,2,2:2:0:0:
229,146,23999,6,0,B|284:144|284:144|323:161|323:161|386:159,1,160,6|0,3:2|0:0,0:0:0:0:
490,258,24499,2,0,B|427:260|427:260|388:243|388:243|333:245,1,160,2|0,3:2|0:0,0:0:0:0:
229,146,24999,2,0,L|219:57,2,80,2|0|0,0:2|0:0|0:0,0:0:0:0:
91,269,25499,1,2,0:2:0:0:
91,269,25666,2,0,L|11:277,1,80,2|2,0:2|0:2,0:0:0:0:
174,224,25999,2,0,B|188:262|188:262|176:326,1,80,2|0,0:2|0:0,0:0:0:0:
91,174,26333,2,0,B|77:136|77:136|89:72,1,80,10|0,3:2|0:0,0:0:0:0:
298,225,26666,6,0,B|330:190|330:190|320:73,1,160,2|0,3:2|0:0,0:0:0:0:
254,0,27166,2,0,B|222:35|222:35|232:152,1,160,2|0,3:2|0:0,0:0:0:0:
417,174,27666,2,0,B|447:189|447:189|473:240,2,80,2|0|0,0:2|0:0|0:0,0:0:0:0:
226,286,28166,2,0,B|216:343|216:343|316:362|316:362|406:319|406:319|379:260,1,320,2|0,0:2|0:0,0:0:0:0:
298,225,28999,1,2,3:2:0:0:
288,201,29083,1,2,0:2:0:0:
285,159,29166,1,2,3:2:0:0:
314,120,29249,1,2,0:2:0:0:
368,101,29333,6,0,B|485:124|485:124|441:73,1,160,2|0,3:2|0:0,0:0:0:0:
308,32,29833,2,0,B|191:55|191:55|235:4,1,160,2|0,3:2|0:0,0:0:0:0:
100,35,30333,2,0,B|92:75|92:75|116:117,2,80,2|0|0,0:2|0:0|0:0,0:0:0:0:
196,139,30833,2,0,L|168:310,1,160,2|0,0:2|0:0,0:0:0:0:
279,202,31333,2,0,L|291:115,1,80,2|0,0:2|0:0,0:0:0:0:
350,264,31666,1,10,3:2:0:0:
38,214,31999,5,2,3:2:0:0:
38,214,32666,5,2,3:2:0:0:
88,286,32833,1,2,0:2:0:0:
170,296,32999,1,2,0:2:0:0:
182,290,33083,1,0,0:0:0:0:
192,285,33166,1,2,3:2:0:0:
205,280,33999,5,10,0:2:0:0:
293,229,34166,1,10,0:2:0:0:
304,232,34249,1,10,0:2:0:0:
315,234,34333,1,10,0:2:0:0:
389,297,34499,1,10,0:2:0:0:
400,296,34583,1,10,0:2:0:0:
411,293,34666,5,14,3:2:0:0:
422,288,34749,1,2,0:0:0:0:
435,277,34833,1,2,0:0:0:0:
443,256,34916,1,2,0:0:0:0:
445,234,34999,1,8,3:2:0:0:
437,210,35083,1,0,0:0:0:0:
420,189,35166,1,0,0:0:0:0:
393,175,35249,1,0,0:0:0:0:
361,170,35333,1,10,3:2:0:0:
328,164,35416,1,2,0:0:0:0:
300,146,35499,1,2,0:0:0:0:
284,116,35583,1,2,0:0:0:0:
290,82,35666,1,8,3:2:0:0:
320,55,35749,1,0,0:0:0:0:
353,55,35833,1,0,0:0:0:0:
385,81,35916,1,0,0:0:0:0:
395,123,35999,1,10,3:2:0:0:
367,161,36083,1,2,0:0:0:0:
318,168,36166,1,2,0:0:0:0:
273,150,36249,1,2,0:0:0:0:
219,140,36333,1,8,3:2:0:0:
163,156,36416,1,0,0:0:0:0:
131,203,36499,1,0,0:0:0:0:
141,262,36583,1,0,0:0:0:0:
194,298,36666,6,0,L|237:289,3,40,10|2|2|2,3:2|0:0|0:0|0:0,0:0:0:0:
314,249,36999,2,0,L|352:255,3,40,8|0|0|0,3:2|0:0|0:0|0:0,0:0:0:0:
367,161,37333,5,10,3:2:0:0:
346,108,37416,1,2,0:0:0:0:
298,78,37499,1,2,0:0:0:0:
243,80,37582,1,2,0:0:0:0:
203,117,37665,1,8,3:2:0:0:
191,171,37749,1,0,0:0:0:0:
207,221,37832,1,0,0:0:0:0:
225,268,37915,1,0,0:0:0:0:
213,315,37999,1,10,3:2:0:0:
181,349,38082,1,2,0:0:0:0:
135,357,38165,1,2,0:0:0:0:
96,340,38249,1,2,0:0:0:0:
74,302,38332,1,8,3:2:0:0:
74,265,38415,1,0,0:0:0:0:
95,238,38499,1,0,0:0:0:0:
120,231,38582,1,0,0:0:0:0:
140,233,38666,6,0,L|147:284,3,40,10|2|2|2,3:2|0:0|0:0|0:0,0:0:0:0:
223,233,38999,2,0,L|270:252,3,40,8|0|0|0,3:2|0:0|0:0|0:0,0:0:0:0:
261,158,39333,2,0,L|301:126,3,40,10|2|2|2,3:2|0:0|0:0|0:0,0:0:0:0:
215,88,39666,2,0,L|208:37,3,40,8|0|0|0,3:2|0:0|0:0|0:0,0:0:0:0:
124,75,39999,5,10,3:2:0:0:
113,72,40083,1,2,0:0:0:0:
101,75,40166,1,2,0:0:0:0:
89,86,40249,1,2,0:0:0:0:
82,102,40333,1,8,3:2:0:0:
82,116,40416,1,0,0:0:0:0:
89,131,40499,1,0,0:0:0:0:
108,145,40583,1,0,0:0:0:0:
133,145,40666,1,10,3:2:0:0:
164,136,40749,1,2,0:0:0:0:
190,113,40833,1,2,0:0:0:0:
218,93,40916,1,2,0:0:0:0:
252,86,40999,1,8,3:2:0:0:
292,89,41083,1,0,0:0:0:0:
327,109,41166,1,0,0:0:0:0:
352,147,41249,1,0,0:0:0:0:
357,194,41333,1,10,3:2:0:0:
336,239,41416,1,2,0:0:0:0:
291,257,41499,1,2,0:0:0:0:
238,247,41583,1,2,0:0:0:0:
185,222,41666,1,8,3:2:0:0:
124,221,41749,1,0,0:0:0:0:
74,251,41833,1,0,0:0:0:0:
61,308,41916,1,0,0:0:0:0:
91,363,41999,1,10,3:2:0:0:
152,384,42083,1,2,0:0:0:0:
227,377,42166,1,2,0:0:0:0:
298,346,42249,1,2,0:0:0:0:
349,285,42333,1,8,3:2:0:0:
372,209,42416,1,0,0:0:0:0:
365,129,42499,1,0,0:0:0:0:
335,55,42583,1,0,0:0:0:0:
273,0,42666,6,0,L|168:20,1,100,8|8,3:2|3:2,0:0:0:0:
0,173,42999,2,0,L|113:197,1,100,8|8,3:2|3:2,0:0:0:0:
297,362,43333,1,8,3:2:0:0:
236,100,43499,1,8,3:2:0:0:
121,330,43666,1,8,3:2:0:0:
114,342,43749,1,8,3:2:0:0:
109,353,43833,1,8,3:2:0:0:
60,278,44166,5,10,0:2:0:0:
55,267,44250,1,10,0:2:0:0:
48,255,44333,2,0,B|100:252|100:252|143:223,1,100,10|2,0:2|0:2,0:0:0:0:
214,183,44666,1,2,0:2:0:0:
68,170,44833,1,2,3:2:0:0:
213,293,44999,1,10,3:2:0:0:
288,126,45166,1,10,3:2:0:0:
147,115,45333,6,0,L|141:66,2,50,6|2|2,3:2|0:2|0:2,0:0:0:0:
304,212,45666,2,0,B|327:239|327:239|320:315,1,100,10|2,3:2|0:2,0:0:0:0:
341,337,45916,1,2,0:2:0:0:
384,348,45999,2,0,L|491:362,1,100,2|2,3:2|0:2,0:0:0:0:
221,268,46333,1,10,3:2:0:0:
171,276,46416,1,2,0:2:0:0:
122,285,46499,1,2,0:2:0:0:
73,294,46583,1,2,0:2:0:0:
24,303,46666,6,0,B|50:258|50:258|47:195,1,100,2|2,3:2|0:2,0:0:0:0:
43,170,46916,1,2,0:2:0:0:
38,127,46999,2,0,B|35:79|35:79|61:34,1,100,10|2,3:2|0:2,0:0:0:0:
252,93,47333,5,10,0:2:0:0:
196,97,47416,1,10,0:2:0:0:
141,103,47499,1,10,0:2:0:0:
327,162,47666,1,10,0:2:0:0:
383,167,47749,1,10,0:2:0:0:
438,173,47832,1,10,0:2:0:0:
260,230,47999,6,0,L|251:299,2,50,6|2|2,3:2|0:2|0:2,0:0:0:0:
370,68,48333,2,0,L|478:80,1,100,10|2,3:2|0:2,0:0:0:0:
283,0,48666,1,2,3:2:0:0:
327,162,48833,1,2,0:2:0:0:
172,202,48999,1,8,3:2:0:0:
172,202,49083,1,0,0:0:0:0:
172,202,49166,1,0,0:0:0:0:
49,93,49333,5,8,0:0:0:0:
34,187,49499,1,8,0:0:0:0:
33,202,49583,1,8,0:0:0:0:
31,218,49666,1,8,0:0:0:0:
108,264,49833,1,8,0:0:0:0:
109,279,49917,1,8,0:0:0:0:
111,295,50000,1,8,0:0:0:0:
199,326,50166,1,8,0:0:0:0:
198,341,50250,1,8,0:0:0:0:
196,357,50333,1,8,0:0:0:0:
195,371,50416,1,8,0:0:0:0:
194,384,50499,1,10,0:2:0:0:
295,289,50666,6,0,L|363:301,2,50,6|2|2,3:2|0:2|0:2,0:0:0:0:
450,365,50999,2,0,B|439:335|439:335|448:255,1,100,10|2,3:2|0:2,0:0:0:0:
424,228,51249,1,2,0:2:0:0:
383,201,51333,2,0,B|331:193|331:193|296:155,1,100,2|2,3:2|0:2,0:0:0:0:
459,132,51666,1,10,3:2:0:0:
344,297,51833,1,2,0:2:0:0:
194,199,51999,6,0,L|204:96,1,100,0|2,3:2|0:2,0:0:0:0:
162,78,52249,1,2,0:2:0:0:
118,89,52333,2,0,L|108:192,1,100,10|2,3:2|0:2,0:0:0:0:
48,348,52666,5,10,0:2:0:0:
30,298,52749,1,10,0:2:0:0:
37,245,52832,1,10,0:2:0:0:
194,199,52999,1,10,0:2:0:0:
212,249,53082,1,10,0:2:0:0:
204,300,53165,1,10,0:2:0:0:
13,156,53333,6,0,L|20:86,2,50,6|2|2,3:2|0:2|0:2,0:0:0:0:
118,89,53666,2,0,B|160:111|160:111|245:91,1,100,10|2,3:2|0:2,0:0:0:0:
415,33,53999,1,2,3:2:0:0:
274,183,54166,1,2,0:2:0:0:
227,0,54333,1,8,3:2:0:0:
227,0,54416,1,0,0:0:0:0:
227,0,54499,1,0,0:0:0:0:
340,105,54666,5,2,3:2:0:0:
377,143,54749,1,2,0:2:0:0:
414,181,54833,1,2,0:2:0:0:
504,301,54999,2,0,B|496:252|496:252|394:326|394:326,1,174.000005310059,10|0,3:2|0:0,0:0:0:0:
362,321,55333,1,8,0:0:0:0:
186,367,55499,1,10,0:2:0:0:
169,361,55582,1,8,0:0:0:0:
152,354,55666,2,0,L|145:259,1,58.0000017700196,10|8,0:2|0:0,0:0:0:0:
275,348,55832,1,10,0:2:0:0:
137,204,55999,6,0,L|40:179,1,100,2|8,3:2|0:2,0:0:0:0:
26,176,56249,1,8,0:2:0:0:
12,172,56333,1,8,0:2:0:0:
215,80,56499,2,0,L|330:109,1,100,2|0,3:2|0:0,0:0:0:0:
116,83,56833,1,8,0:2:0:0:
120,98,56916,1,8,0:2:0:0:
124,113,57000,1,8,0:2:0:0:
255,2,57166,6,0,B|312:39|355:184|118:225|252:380|252:380|386:228|159:191|219:72,1,755.999976928712,6|0,3:2|0:0,0:0:0:0:
