osu file format v14

[General]
AudioFilename: audio.mp3
AudioLeadIn: 0
PreviewTime: 13333
Countdown: 0
SampleSet: Soft
StackLeniency: 0.6
Mode: 0
LetterboxInBreaks: 0
WidescreenStoryboard: 1

[Editor]
Bookmarks: 34666,36666,37333,37999,39999,55666
DistanceSpacing: 0.8
BeatDivisor: 4
GridSize: 4
TimelineZoom: 1.700003

[Metadata]
Title:Plasma Gun
TitleUnicode:Plasma Gun
Artist:Memme
ArtistUnicode:Memme
Creator:emu1337
Version:Another
Source:O2Jam U
Tags:electronic instrumental ParkMemme shooting trance tynamo -tynamo sleepy sleepymateo ratina0 lmt yukiyo
BeatmapID:2778998
BeatmapSetID:1341551

[Difficulty]
HPDrainRate:5
CircleSize:3.4
OverallDifficulty:8
ApproachRate:9
SliderMultiplier:1.5
SliderTickRate:1

[Events]
//Background and Video events
0,0,"clouds-1609726326065-5941.jpg",0,0
//Break Periods
//Storyboard Layer 0 (Background)
//Storyboard Layer 1 (Fail)
//Storyboard Layer 2 (Pass)
//Storyboard Layer 3 (Foreground)
//Storyboard Layer 4 (Overlay)
//Storyboard Sound Samples

[TimingPoints]
0,333.333333333333,4,2,1,70,1,0
2666,-142.857142857143,4,2,1,55,0,0
7666,-71.4285714285714,4,2,1,55,0,0
7999,-100,4,2,1,65,0,0
11333,-100,4,2,1,75,0,0
13333,-80,4,2,1,75,0,0
22666,-100,4,2,1,75,0,0
24166,-100,4,2,1,65,0,0
34666,-100,4,2,1,75,0,1
34749,-100,4,2,1,55,0,1
34999,-100,4,2,1,60,0,1
35333,-100,4,2,1,65,0,1
35666,-100,4,2,1,70,0,1
35999,-100,4,2,1,75,0,1
36333,-100,4,2,1,80,0,1
36666,-100,4,2,1,85,0,1
36999,-100,4,2,1,90,0,1
37666,-100,4,2,1,85,0,1
37999,-100,4,2,1,80,0,1
38333,-100,4,2,1,75,0,1
38666,-100,4,2,1,70,0,1
38999,-100,4,2,1,65,0,1
39333,-100,4,2,1,60,0,1
39666,-100,4,2,1,55,0,1
40333,-100,4,2,1,60,0,1
40666,-100,4,2,1,65,0,1
40999,-100,4,2,1,70,0,1
41333,-100,4,2,1,75,0,1
41666,-100,4,2,1,80,0,1
41999,-100,4,2,1,85,0,1
42333,-100,4,2,1,90,0,1
42666,-80,4,2,1,95,0,1
43833,-80,4,2,1,95,0,0
43999,-80,4,2,1,65,0,0
45333,-80,4,2,1,75,0,0
54999,-62.5,4,2,1,75,0,0
55999,-80,4,2,1,65,0,0
57166,-95.2380952380952,4,2,1,65,0,0

[Colours]
Combo1 : 164,194,230
Combo2 : 187,234,234

[HitObjects]
421,16,2666,6,0,L|436:134,1,104.999996795654,6|2,0:0|0:0,0:0:0:0:
484,207,3333,2,0,L|472:261,1,52.4999983978272,2|2,0:0|0:0,0:0:0:0:
320,342,3833,1,2,0:0:0:0:
233,322,4166,1,2,0:0:0:0:
233,322,4333,1,2,0:0:0:0:
81,354,4833,2,0,L|64:292,2,52.4999983978272,2|2|2,0:0|0:0|0:0,0:0:0:0:
140,248,5333,6,0,B|165:201|165:201|156:140,1,104.999996795654,2|2,0:0|0:0,0:0:0:0:
63,84,5999,2,0,L|74:153,1,52.4999983978272,2|2,0:0|0:0,0:0:0:0:
135,25,6333,1,2,0:0:0:0:
135,25,6499,1,2,0:0:0:0:
260,153,6833,1,2,0:0:0:0:
260,153,6999,2,0,L|249:222,1,52.4999983978272,2|0,0:0|0:0,0:0:0:0:
242,49,7499,1,2,0:0:0:0:
242,49,7666,2,0,B|293:48|293:48|335:71|335:71|404:70,1,157.499995193482,2|0,0:0|0:0,0:0:0:0:
444,50,7999,6,0,B|464:74|464:74|471:139,1,75,6|0,3:2|0:0,0:0:0:0:
409,239,8333,2,0,B|389:215|389:215|382:150,1,75,0|0,3:2|0:0,0:0:0:0:
260,153,8666,2,0,B|280:177|280:177|287:242,1,75,0|0,3:2|0:0,0:0:0:0:
225,342,9000,2,0,B|205:318|205:318|198:253,1,75,0|0,3:2|0:0,0:0:0:0:
178,114,9333,6,0,L|234:106,3,37.5,0|0|0|0,3:2|0:0|0:0|0:0,0:0:0:0:
110,58,9666,2,0,L|119:2,3,37.5,0|0|0|0,3:2|0:0|0:0|0:0,0:0:0:0:
36,105,9999,2,0,L|-14:78,3,37.5,0|0|0|0,3:2|0:0|0:0|0:0,0:0:0:0:
58,189,10333,2,0,L|17:228,3,37.5,0|0|0|0,3:2|0:0|0:0|0:0,0:0:0:0:
145,194,10666,5,4,3:2:0:0:
150,201,10749,1,0,0:0:0:0:
155,209,10832,1,0,0:0:0:0:
161,216,10916,1,0,0:0:0:0:
166,224,10999,2,0,L|161:280,3,37.5,0|0|0|0,3:2|0:0|0:0|0:0,0:0:0:0:
228,312,11333,1,6,3:2:0:0:
258,316,11416,1,2,0:2:0:0:
298,312,11499,1,2,0:2:0:0:
342,296,11583,1,2,0:2:0:0:
377,265,11666,1,2,3:2:0:0:
402,218,11749,1,2,3:2:0:0:
407,164,11833,1,2,3:2:0:0:
394,107,11916,1,2,3:2:0:0:
358,53,11999,5,2,3:2:0:0:
276,170,12333,1,0,3:2:0:0:
151,120,12666,6,0,L|112:101,3,37.5,2|2|2|2,3:2|0:2|0:2|0:2,0:0:0:0:
182,153,12999,1,2,0:2:0:0:
198,201,13082,1,2,0:2:0:0:
211,253,13166,1,2,0:2:0:0:
187,301,13249,1,2,0:2:0:0:
160,346,13333,6,0,L|87:359,2,46.875,6|2|2,3:2|0:0|0:0,0:0:0:0:
286,307,13666,2,0,L|387:321,1,93.75,10|2,3:2|0:2,0:0:0:0:
403,310,13916,1,2,0:2:0:0:
426,300,13999,2,0,B|453:289|453:289|462:203,1,93.75,2|2,3:2|0:2,0:0:0:0:
401,119,14333,1,10,3:2:0:0:
336,209,14499,1,2,0:0:0:0:
213,127,14666,6,0,L|111:140,1,93.75,0|2,3:2|0:0,0:0:0:0:
97,144,14916,1,2,0:0:0:0:
77,147,14999,1,10,3:2:0:0:
29,239,15166,1,2,0:0:0:0:
122,304,15333,1,2,3:2:0:0:
146,302,15416,1,2,0:0:0:0:
168,299,15499,1,2,0:0:0:0:
249,222,15666,1,10,3:2:0:0:
232,379,15833,1,2,0:0:0:0:
404,319,15999,6,0,L|460:326,2,46.875,2|2|2,3:2|0:0|0:0,0:0:0:0:
354,225,16333,2,0,L|348:117,1,93.75,10|2,3:2|0:0,0:0:0:0:
424,38,16666,1,2,3:2:0:0:
424,38,16833,1,2,0:0:0:0:
477,146,16999,1,8,3:2:0:0:
477,146,17083,1,0,0:0:0:0:
477,146,17166,1,0,0:0:0:0:
348,131,17333,6,0,B|316:129|316:129|231:154,1,93.75,0|2,3:2|0:0,0:0:0:0:
143,193,17666,2,0,B|111:195|111:195|26:170,1,93.75,10|2,3:2|0:0,0:0:0:0:
21,79,17999,1,2,3:2:0:0:
26,57,18083,1,2,0:0:0:0:
31,36,18166,1,2,0:0:0:0:
136,100,18333,1,10,3:2:0:0:
137,123,18416,1,2,0:0:0:0:
139,146,18499,1,2,0:0:0:0:
141,170,18582,1,0,0:0:0:0:
143,193,18666,6,0,L|148:246,2,46.875,6|2|2,3:2|0:0|0:0,0:0:0:0:
203,314,18999,2,0,B|252:326|252:326|313:314,1,93.75,10|2,3:2|0:0,0:0:0:0:
323,310,19249,1,2,0:0:0:0:
351,304,19333,2,0,L|446:325,1,93.75,2|2,3:2|0:0,0:0:0:0:
507,232,19666,1,10,3:2:0:0:
510,212,19749,1,2,0:0:0:0:
512,192,19833,1,2,0:0:0:0:
438,110,19999,6,0,B|410:94|410:94|330:102,1,93.75,4|2,3:2|0:0,0:0:0:0:
319,120,20249,1,2,0:0:0:0:
295,132,20333,2,0,B|267:148|267:148|187:140,1,93.75,10|2,3:2|0:0,0:0:0:0:
94,105,20666,1,2,3:2:0:0:
97,128,20749,1,2,0:0:0:0:
100,151,20832,1,2,0:0:0:0:
169,40,20999,1,10,3:2:0:0:
162,234,21166,1,2,0:0:0:0:
227,310,21333,6,0,L|220:363,2,46.875,6|2|2,3:2|0:0|0:0,0:0:0:0:
60,253,21666,2,0,B|50:294|50:294|77:371,1,93.75,10|2,3:2|0:0,0:0:0:0:
162,234,21999,1,6,3:2:0:0:
162,234,22166,1,2,0:0:0:0:
264,217,22333,1,8,3:2:0:0:
264,217,22416,1,0,0:0:0:0:
264,217,22499,1,0,0:0:0:0:
345,297,22666,6,0,L|421:303,1,75,8|8,2:2|2:2,0:0:0:0:
430,299,22916,1,8,2:2:0:0:
439,296,22999,2,0,L|445:220,1,75,8|8,2:2|2:2,0:0:0:0:
436,214,23249,1,8,2:2:0:0:
428,205,23333,2,0,L|433:137,3,37.5,8|8|8|8,2:2|2:2|2:2|2:2,0:0:0:0:
411,136,23666,1,10,2:2:0:0:
385,109,23749,1,2,2:2:0:0:
343,85,23833,1,2,2:2:0:0:
287,76,23916,1,2,2:2:0:0:
231,91,23999,6,0,B|194:114|194:114|177:298,2,225,6|2|2,3:2|3:2|0:2,0:0:0:0:
231,91,26333,1,10,3:2:0:0:
345,294,26666,6,0,B|247:344|247:344|116:315,2,225,2|2|2,3:2|3:2|0:2,0:0:0:0:
345,294,28999,1,2,3:2:0:0:
358,204,29166,1,2,3:2:0:0:
368,113,29333,2,0,B|374:72|374:72|168:89,2,225,2|2|2,3:2|3:2|0:2,0:0:0:0:
368,113,31666,1,10,3:2:0:0:
137,171,31999,5,2,3:2:0:0:
137,171,32666,1,2,3:2:0:0:
182,384,33166,1,2,3:2:0:0:
182,384,33999,5,10,0:2:0:0:
240,318,34166,1,10,0:2:0:0:
241,309,34249,1,10,0:2:0:0:
242,300,34333,1,10,0:2:0:0:
301,238,34499,1,10,0:2:0:0:
300,229,34582,1,10,0:2:0:0:
297,220,34666,6,0,L|285:168,3,37.5,14|2|2|2,3:2|0:0|0:0|0:0,0:0:0:0:
364,161,34999,2,0,L|376:109,3,37.5,8|0|0|0,3:2|0:0|0:0|0:0,0:0:0:0:
296,100,35333,2,0,L|284:48,3,37.5,10|2|2|2,3:2|0:0|0:0|0:0,0:0:0:0:
366,45,35666,2,0,L|378:-7,3,37.5,8|0|0|0,3:2|0:0|0:0|0:0,0:0:0:0:
446,65,35999,5,10,3:2:0:0:
464,90,36083,1,2,0:0:0:0:
473,122,36166,1,2,0:0:0:0:
466,155,36249,1,2,0:0:0:0:
445,186,36333,1,8,3:2:0:0:
407,201,36416,1,0,0:0:0:0:
369,202,36500,1,0,0:0:0:0:
332,190,36583,1,0,0:0:0:0:
295,164,36666,1,10,3:2:0:0:
253,148,36750,1,2,0:0:0:0:
204,145,36833,1,2,0:0:0:0:
157,166,36916,1,2,0:0:0:0:
128,208,36999,2,0,L|120:267,3,37.5,8|0|0|0,3:2|0:0|0:0|0:0,0:0:0:0:
171,325,37333,5,10,3:2:0:0:
213,345,37416,1,2,0:0:0:0:
258,337,37499,1,2,0:0:0:0:
288,316,37583,1,2,0:0:0:0:
300,294,37666,2,0,L|297:244,3,37.5,8|0|0|0,3:2|0:0|0:0|0:0,0:0:0:0:
357,204,37999,1,10,3:2:0:0:
389,199,38083,1,2,0:0:0:0:
418,210,38166,1,2,0:0:0:0:
432,225,38249,1,2,0:0:0:0:
442,238,38333,2,0,L|448:284,3,37.5,8|0|0|0,3:2|0:0|0:0|0:0,0:0:0:0:
367,288,38666,5,10,3:2:0:0:
343,298,38749,1,2,0:0:0:0:
322,300,38833,1,2,0:0:0:0:
309,298,38916,1,2,0:0:0:0:
300,294,38999,2,0,L|297:244,3,37.5,8|0|0|0,3:2|0:0|0:0|0:0,0:0:0:0:
237,203,39333,2,0,L|240:153,3,37.5,10|2|2|2,3:2|0:0|0:0|0:0,0:0:0:0:
299,113,39666,2,0,L|296:63,3,37.5,8|0|0|0,3:2|0:0|0:0|0:0,0:0:0:0:
223,36,39999,5,10,3:2:0:0:
198,36,40083,1,2,0:0:0:0:
171,45,40166,1,2,0:0:0:0:
144,65,40249,1,2,0:0:0:0:
130,95,40333,2,0,L|134:146,3,37.5,8|0|0|0,3:2|0:0|0:0|0:0,0:0:0:0:
66,176,40666,2,0,L|62:227,3,37.5,10|2|2|2,3:2|0:0|0:0|0:0,0:0:0:0:
108,283,40999,5,8,3:2:0:0:
136,299,41083,1,0,0:0:0:0:
168,302,41166,1,0,0:0:0:0:
204,291,41249,1,0,0:0:0:0:
231,260,41333,1,10,3:2:0:0:
238,218,41416,1,2,0:0:0:0:
218,172,41499,1,2,0:0:0:0:
211,130,41583,1,2,0:0:0:0:
229,84,41666,1,8,3:2:0:0:
275,56,41749,1,0,0:0:0:0:
331,58,41833,1,0,0:0:0:0:
377,90,41916,1,0,0:0:0:0:
399,145,41999,1,10,3:2:0:0:
398,202,42083,1,2,0:0:0:0:
376,260,42166,1,2,0:0:0:0:
332,314,42249,1,2,0:0:0:0:
265,337,42333,1,8,3:2:0:0:
192,334,42416,1,0,0:0:0:0:
126,302,42499,1,0,0:0:0:0:
78,244,42583,1,0,0:0:0:0:
54,170,42666,6,0,L|45:57,1,93.75,8|8,3:2|3:2,0:0:0:0:
239,14,42999,2,0,L|230:107,1,93.75,8|8,3:2|3:2,0:0:0:0:
281,266,43333,1,8,3:2:0:0:
426,288,43499,1,8,3:2:0:0:
512,163,43666,1,8,3:2:0:0:
509,151,43750,1,8,3:2:0:0:
506,139,43833,1,8,3:2:0:0:
423,99,44166,5,10,0:2:0:0:
420,111,44250,1,10,0:2:0:0:
417,123,44333,2,0,B|378:149|378:149|301:146,1,93.75,10|2,0:2|0:2,0:0:0:0:
237,137,44666,1,2,0:2:0:0:
159,62,44833,1,2,3:2:0:0:
168,209,44999,1,10,3:2:0:0:
177,349,45166,1,10,3:2:0:0:
245,273,45333,6,0,L|320:287,2,46.875,6|2|2,3:2|0:2|0:2,0:0:0:0:
107,285,45666,2,0,L|6:269,1,93.75,10|2,3:2|0:2,0:0:0:0:
9,250,45916,1,2,0:2:0:0:
4,230,45999,2,0,B|2:196|2:196|26:130,1,93.75,2|2,3:2|0:2,0:0:0:0:
134,62,46333,1,10,3:2:0:0:
168,67,46416,1,2,0:2:0:0:
203,72,46499,1,2,0:2:0:0:
238,77,46583,1,2,0:2:0:0:
273,82,46666,6,0,B|275:116|275:116|251:182,1,93.75,2|2,3:2|0:2,0:0:0:0:
246,197,46916,1,2,0:2:0:0:
238,219,46999,2,0,L|254:327,1,93.75,10|2,3:2|0:2,0:0:0:0:
370,345,47333,5,10,0:2:0:0:
414,344,47416,1,10,0:2:0:0:
454,326,47499,1,10,0:2:0:0:
427,214,47666,1,10,0:2:0:0:
383,215,47749,1,10,0:2:0:0:
343,233,47832,1,10,0:2:0:0:
251,311,47999,6,0,L|184:326,2,46.875,6|2|2,3:2|0:2|0:2,0:0:0:0:
102,288,48333,2,0,B|94:239|94:239|120:177,1,93.75,10|2,3:2|0:2,0:0:0:0:
227,166,48666,1,2,3:2:0:0:
227,166,48833,1,2,0:2:0:0:
174,53,48999,1,8,3:2:0:0:
174,53,49083,1,0,0:0:0:0:
174,53,49166,1,0,0:0:0:0:
66,118,49333,5,8,0:0:0:0:
111,198,49499,1,8,0:0:0:0:
113,210,49583,1,8,0:0:0:0:
115,219,49666,1,8,0:0:0:0:
60,300,49833,2,0,L|52:353,2,46.875,8|8|8,0:0|0:0|0:0,0:0:0:0:
192,283,50166,1,8,0:0:0:0:
203,285,50249,1,8,0:0:0:0:
215,287,50332,1,8,0:0:0:0:
226,289,50416,1,8,0:0:0:0:
238,291,50499,1,10,0:2:0:0:
354,252,50666,6,0,L|347:205,2,46.875,6|2|2,3:2|0:2|0:2,0:0:0:0:
426,384,50999,2,0,B|448:358|448:358|458:275,1,93.75,10|2,3:2|0:2,0:0:0:0:
458,275,51249,1,2,0:2:0:0:
460,251,51333,2,0,L|443:140,1,93.75,2|2,3:2|0:2,0:0:0:0:
342,107,51666,1,10,3:2:0:0:
253,185,51833,1,2,0:2:0:0:
155,140,51999,6,0,B|116:164|116:164|57:156,1,93.75,0|2,3:2|0:2,0:0:0:0:
45,153,52249,1,2,0:2:0:0:
22,150,52333,2,0,L|8:47,1,93.75,10|2,3:2|0:2,0:0:0:0:
127,31,52666,5,10,0:2:0:0:
174,40,52749,1,10,0:2:0:0:
222,51,52833,1,10,0:2:0:0:
155,140,52999,1,10,0:2:0:0:
146,184,53082,1,10,0:2:0:0:
135,229,53166,1,10,0:2:0:0:
196,327,53333,6,0,L|201:377,2,46.875,6|2|2,3:2|0:2|0:2,0:0:0:0:
284,251,53666,2,0,B|308:236|308:236|389:243,1,93.75,10|2,3:2|0:2,0:0:0:0:
456,335,53999,1,2,3:2:0:0:
456,335,54166,1,2,0:2:0:0:
344,353,54333,1,8,3:2:0:0:
344,353,54416,1,0,0:0:0:0:
344,353,54499,1,0,0:0:0:0:
284,251,54666,6,0,L|291:185,2,46.875,2|2|2,3:2|0:2|0:2,0:0:0:0:
383,140,54999,2,0,B|354:152|354:152|164:164,1,180,10|0,3:2|0:0,0:0:0:0:
166,185,55333,1,8,0:0:0:0:
87,138,55499,1,10,0:2:0:0:
85,124,55583,1,8,0:0:0:0:
84,111,55666,1,10,0:2:0:0:
136,32,55833,1,10,0:2:0:0:
225,60,55999,6,0,L|329:52,1,93.75,2|8,3:2|0:2,0:0:0:0:
328,51,56249,1,8,0:2:0:0:
337,50,56333,1,8,0:2:0:0:
430,140,56499,2,0,L|326:149,1,93.75,2|0,3:2|0:0,0:0:0:0:
215,183,56833,1,8,0:2:0:0:
214,193,56916,1,8,0:2:0:0:
213,205,56999,1,8,0:2:0:0:
380,272,57166,6,0,B|344:326|207:366|168:142|21:269|21:269|165:396|200:180|313:237,1,708.749978370667,6|0,3:2|0:0,0:0:0:0:
