osu file format v14

[General]
AudioFilename: audio.mp3
AudioLeadIn: 0
PreviewTime: 13333
Countdown: 0
SampleSet: Soft
StackLeniency: 0.4
Mode: 0
LetterboxInBreaks: 0
WidescreenStoryboard: 1

[Editor]
Bookmarks: 34666,36666,37333,37999,39999
DistanceSpacing: 0.7
BeatDivisor: 4
GridSize: 4
TimelineZoom: 1.700003

[Metadata]
Title:Plasma Gun
TitleUnicode:Plasma Gun
Artist:Memme
ArtistUnicode:Memme
Creator:emu1337
Version:-Tynamo's Insane
Source:O2Jam U
Tags:electronic instrumental ParkMemme shooting trance tynamo -tynamo sleepy sleepymateo ratina0 lmt yukiyo
BeatmapID:2779004
BeatmapSetID:1341551

[Difficulty]
HPDrainRate:5
CircleSize:4
OverallDifficulty:8
ApproachRate:8.5
SliderMultiplier:1.6
SliderTickRate:1

[Events]
//Background and Video events
0,0,"clouds-1609726326065-5941.jpg",0,0
//Break Periods
//Storyboard Layer 0 (Background)
//Storyboard Layer 1 (Fail)
//Storyboard Layer 2 (Pass)
//Storyboard Layer 3 (Foreground)
//Storyboard Layer 4 (Overlay)
//Storyboard Sound Samples

[TimingPoints]
0,333.333333333333,4,2,1,70,1,0
2666,-142.857142857143,4,2,1,55,0,0
7666,-83.3333333333333,4,2,1,55,0,0
7999,-100,4,2,1,65,0,0
11333,-100,4,2,1,75,0,0
13333,-100,4,2,1,75,0,0
22666,-100,4,2,1,75,0,0
23999,-133.333333333333,4,2,1,75,0,0
24166,-133.333333333333,4,2,1,65,0,0
24999,-200,4,2,1,65,0,0
26333,-133.333333333333,4,2,1,65,0,0
27666,-200,4,2,1,65,0,0
29333,-133.333333333333,4,2,1,65,0,0
30333,-200,4,2,1,65,0,0
31999,-133.333333333333,4,2,1,65,0,0
33166,-200,4,2,1,65,0,0
34333,-133.333333333333,4,2,1,65,0,0
34666,-100,4,2,1,75,0,1
34749,-100,4,2,1,55,0,1
34999,-100,4,2,1,60,0,1
35333,-100,4,2,1,65,0,1
35666,-100,4,2,1,70,0,1
35999,-100,4,2,1,75,0,1
36333,-100,4,2,1,80,0,1
36666,-100,4,2,1,85,0,1
36999,-100,4,2,1,90,0,1
37666,-100,4,2,1,85,0,1
37999,-100,4,2,1,80,0,1
38333,-100,4,2,1,75,0,1
38666,-100,4,2,1,70,0,1
38999,-100,4,2,1,65,0,1
39333,-100,4,2,1,60,0,1
39666,-100,4,2,1,55,0,1
40333,-100,4,2,1,60,0,1
40666,-100,4,2,1,65,0,1
40999,-100,4,2,1,70,0,1
41333,-100,4,2,1,75,0,1
41666,-100,4,2,1,80,0,1
41999,-100,4,2,1,85,0,1
42333,-100,4,2,1,90,0,1
42666,-80,4,2,1,95,0,1
43833,-80,4,2,1,95,0,0
43999,-80,4,2,1,65,0,0
45333,-100,4,2,1,75,0,0
54666,-83.3333333333333,4,2,1,75,0,0
55999,-83.3333333333333,4,2,1,65,0,0
57166,-95.2380952380952,4,2,1,65,0,0

[Colours]
Combo1 : 164,194,230
Combo2 : 187,234,234

[HitObjects]
377,90,2666,6,0,L|385:161,1,55.9999982910157,6|0,0:0|0:0,0:0:0:0:
512,134,3000,2,0,L|446:105,1,55.9999982910157,2|0,0:0|0:0,0:0:0:0:
406,227,3333,2,0,L|463:184,1,55.9999982910157,2|2,0:0|0:0,0:0:0:0:
435,35,3666,1,0,0:0:0:0:
435,35,3833,2,0,P|386:14|321:32,1,111.999996582031,2|2,0:0|0:0,0:0:0:0:
383,145,4333,6,0,L|377:90,1,55.9999982910157,2|0,0:0|0:0,0:0:0:0:
313,197,4666,2,0,L|306:141,1,55.9999982910157,0|2,0:0|0:0,0:0:0:0:
242,248,4999,1,2,0:0:0:0:
242,248,5166,1,2,0:0:0:0:
176,162,5333,6,0,L|111:175,1,55.9999982910157,2|0,0:0|0:0,0:0:0:0:
143,298,5666,2,0,L|164:235,1,55.9999982910157,2|0,0:0|0:0,0:0:0:0:
41,201,5999,2,0,L|84:250,2,55.9999982910157,2|2|2,0:0|0:0|0:0,0:0:0:0:
7,89,6499,6,0,B|36:116|36:116|129:123,1,111.999996582031,2|2,0:0|0:0,0:0:0:0:
106,0,6999,2,0,L|74:46,1,55.9999982910157,2|0,0:0|0:0,0:0:0:0:
186,111,7333,2,0,L|161:60,1,55.9999982910157,0|2,0:0|0:0,0:0:0:0:
142,188,7666,6,0,P|222:191|271:141,1,143.999995605469,2|0,0:0|0:0,0:0:0:0:
266,73,7999,6,0,L|350:62,1,80,6|0,3:2|0:0,0:0:0:0:
474,165,8333,2,0,L|390:154,1,80,0|0,3:2|0:0,0:0:0:0:
187,160,8666,2,0,L|271:149,1,80,0|0,3:2|0:0,0:0:0:0:
395,252,9000,2,0,L|311:241,1,80,0|0,3:2|0:0,0:0:0:0:
165,274,9333,6,0,P|174:319|208:352,1,80,0|0,3:2|0:0,0:0:0:0:
187,160,9666,2,0,P|142:169|109:203,1,80,0|0,3:2|0:0,0:0:0:0:
301,182,9999,2,0,P|292:137|258:104,1,80,0|0,3:2|0:0,0:0:0:0:
279,296,10333,2,0,P|324:287|357:253,1,80,0|0,3:2|0:0,0:0:0:0:
426,115,10666,5,4,3:2:0:0:
407,108,10749,1,0,0:0:0:0:
387,106,10832,1,0,0:0:0:0:
367,107,10916,1,0,0:0:0:0:
348,113,10999,1,0,3:2:0:0:
328,118,11083,1,0,0:0:0:0:
308,120,11166,1,0,0:0:0:0:
289,117,11250,1,0,0:0:0:0:
270,111,11333,2,0,L|226:89,3,40,6|2|2|2,3:2|0:2|0:2|0:2,0:0:0:0:
150,47,11666,5,2,3:2:0:0:
151,86,11749,1,2,3:2:0:0:
152,126,11833,1,2,3:2:0:0:
153,165,11916,1,2,3:2:0:0:
154,204,11999,6,0,P|111:215|66:208,1,80,2|0,3:2|0:0,0:0:0:0:
270,111,12333,2,0,P|313:100|358:107,1,80,0|0,3:2|0:0,0:0:0:0:
298,262,12666,1,2,3:2:0:0:
299,281,12749,1,2,0:2:0:0:
300,301,12833,1,2,0:2:0:0:
301,320,12916,1,2,0:2:0:0:
305,339,12999,2,0,L|366:354,1,40,2|2,0:2|0:2,0:0:0:0:
403,296,13166,2,0,L|441:286,1,40,2|2,0:2|0:2,0:0:0:0:
396,153,13333,5,6,3:2:0:0:
375,172,13416,1,2,0:0:0:0:
402,181,13499,1,2,0:0:0:0:
377,56,13666,1,10,3:2:0:0:
402,181,13833,1,2,0:2:0:0:
396,153,13916,1,2,0:2:0:0:
375,172,13999,1,2,3:2:0:0:
496,213,14166,1,2,0:2:0:0:
298,228,14333,2,0,P|280:184|281:137,1,80,10|2,3:2|0:0,0:0:0:0:
242,35,14666,5,0,3:2:0:0:
147,86,14833,1,2,0:0:0:0:
147,66,14916,1,2,0:0:0:0:
164,76,14999,1,10,3:2:0:0:
144,175,15166,1,2,0:0:0:0:
147,66,15333,1,2,3:2:0:0:
164,76,15416,1,2,0:0:0:0:
147,86,15499,1,2,0:0:0:0:
72,20,15666,1,10,3:2:0:0:
63,114,15833,1,2,0:0:0:0:
53,207,15999,6,0,L|49:250,2,40,2|2|2,3:2|0:0|0:0,0:0:0:0:
144,175,16333,1,10,3:2:0:0:
146,266,16499,1,2,0:0:0:0:
146,266,16583,1,2,0:0:0:0:
146,266,16666,1,2,3:2:0:0:
227,221,16833,1,2,0:0:0:0:
183,336,16999,1,8,3:2:0:0:
154,345,17082,1,0,0:0:0:0:
125,344,17165,1,0,0:0:0:0:
97,332,17248,1,0,0:0:0:0:
76,311,17333,6,0,P|67:258|78:222,1,80,0|2,3:2|0:0,0:0:0:0:
227,221,17666,2,0,P|185:256|149:264,1,80,10|2,3:2|0:0,0:0:0:0:
74,139,17999,1,2,3:2:0:0:
93,142,18083,1,2,0:0:0:0:
111,149,18166,1,2,0:0:0:0:
227,221,18333,2,0,P|248:229|268:231,2,40,10|2|2,3:2|0:0|0:0,0:0:0:0:
253,125,18666,5,6,3:2:0:0:
280,117,18749,1,2,0:0:0:0:
261,97,18832,1,2,0:0:0:0:
227,221,18999,1,10,3:2:0:0:
261,97,19166,1,2,0:0:0:0:
253,125,19249,1,2,0:0:0:0:
280,117,19332,1,2,3:2:0:0:
192,27,19499,1,2,0:0:0:0:
375,103,19666,2,0,P|371:150|361:172,2,40,10|2|2,3:2|0:0|0:0,0:0:0:0:
227,221,19999,6,0,P|230:268|247:300,1,80,4|2,3:2|0:0,0:0:0:0:
376,266,20249,1,2,0:0:0:0:
376,266,20333,2,0,P|333:245|297:243,1,80,10|2,3:2|0:0,0:0:0:0:
262,372,20666,2,0,P|301:344|314:322,2,40,2|2|2,3:2|0:0|0:0,0:0:0:0:
392,363,20999,1,10,3:2:0:0:
376,266,21166,1,2,0:0:0:0:
360,168,21333,6,0,L|351:117,2,40,6|2|2,3:2|0:0|0:0,0:0:0:0:
453,204,21666,1,10,3:2:0:0:
437,106,21833,1,2,0:0:0:0:
437,106,21916,1,2,0:0:0:0:
437,106,21999,1,6,3:2:0:0:
512,146,22166,1,2,0:0:0:0:
451,15,22333,1,8,3:2:0:0:
411,23,22416,1,0,0:0:0:0:
372,31,22499,1,0,0:0:0:0:
333,40,22582,1,0,0:0:0:0:
294,48,22666,6,0,P|279:96|281:138,1,80,8|8,2:2|2:2,0:0:0:0:
360,168,22916,1,8,2:2:0:0:
360,168,22999,2,0,P|375:216|373:258,1,80,8|8,2:2|2:2,0:0:0:0:
294,296,23249,1,8,2:2:0:0:
294,296,23333,1,8,2:2:0:0:
274,297,23416,1,8,2:2:0:0:
254,298,23499,1,8,2:2:0:0:
233,299,23583,1,8,2:2:0:0:
213,301,23666,5,10,2:2:0:0:
174,288,23749,1,2,2:2:0:0:
174,248,23832,1,2,2:2:0:0:
213,236,23916,1,2,2:2:0:0:
236,268,23999,6,0,B|264:239|264:239|278:142,1,120.000004577637,6|0,3:2|0:0,0:0:0:0:
106,72,24499,2,0,B|117:110|117:110|194:171,1,120.000004577637,2|0,3:2|0:0,0:0:0:0:
275,160,24999,6,0,B|263:121|263:121|186:60,1,120.000004577637,2|2,0:2|0:2,0:0:0:0:
106,72,25666,2,0,L|121:121,1,40,2|2,0:2|0:2,0:0:0:0:
15,150,25999,2,0,L|49:112,1,40,2|0,0:2|0:0,0:0:0:0:
149,195,26333,2,0,B|119:189|119:189|84:202,1,60.0000022888184,10|0,3:2|0:0,0:0:0:0:
0,297,26666,6,0,B|38:288|38:288|137:312,1,120.000004577637,2|0,3:2|0:0,0:0:0:0:
238,288,27166,2,0,B|225:325|225:325|156:399,1,120.000004577637,2|0,3:2|0:0,0:0:0:0:
117,307,27666,6,0,B|129:269|129:269|198:195,2,120.000004577637,2|2|0,0:2|0:2|0:0,0:0:0:0:
117,307,28999,1,2,3:2:0:0:
148,301,29083,1,2,0:2:0:0:
180,297,29166,1,2,3:2:0:0:
211,292,29249,1,2,0:2:0:0:
238,288,29333,6,0,L|258:143,1,120.000004577637,2|0,3:2|0:0,0:0:0:0:
389,59,29833,2,0,L|405:177,1,120.000004577637,2|0,3:2|0:0,0:0:0:0:
336,240,30333,6,0,L|316:95,2,120.000004577637,2|2|2,0:2|0:2|0:2,0:0:0:0:
336,240,31666,1,10,3:2:0:0:
106,83,31999,6,0,B|155:122|155:122|209:129|209:129|255:172,1,180.000006866455,2|2,3:2|0:2,0:0:0:0:
178,239,32666,1,2,3:2:0:0:
256,308,32833,2,0,L|256:349,2,30.0000011444092,2|0|2,0:2|0:0|0:2,0:0:0:0:
336,240,33166,6,0,B|285:227|257:182|257:182|227:227|169:242,1,200,2|10,3:2|0:2,0:0:0:0:
75,204,34166,1,10,0:2:0:0:
75,204,34249,1,10,0:2:0:0:
75,204,34333,2,0,L|68:159,3,30.0000011444092,10|2|10|10,0:2|0:2|0:2|0:2,0:0:0:0:
111,93,34666,6,0,L|170:83,3,40,14|2|2|2,3:2|0:0|0:0|0:0,0:0:0:0:
185,168,34999,2,0,L|224:174,3,40,8|0|0|0,3:2|0:0|0:0|0:0,0:0:0:0:
276,88,35333,2,0,L|335:78,3,40,10|2|2|2,3:2|0:0|0:0|0:0,0:0:0:0:
350,163,35666,2,0,L|389:169,3,40,8|0|0|0,3:2|0:0|0:0|0:0,0:0:0:0:
467,117,35999,5,10,3:2:0:0:
477,134,36083,1,2,0:0:0:0:
485,156,36166,1,2,0:0:0:0:
487,183,36249,1,2,0:0:0:0:
474,212,36333,1,8,3:2:0:0:
458,244,36416,1,0,0:0:0:0:
451,283,36499,1,0,0:0:0:0:
465,324,36583,1,0,0:0:0:0:
501,354,36666,2,0,L|508:291,3,40,10|2|2|2,3:2|0:0|0:0|0:0,0:0:0:0:
367,307,36999,2,0,L|371:346,3,40,8|0|0|0,3:2|0:0|0:0|0:0,0:0:0:0:
295,240,37333,5,10,3:2:0:0:
275,243,37416,1,2,0:0:0:0:
255,246,37499,1,2,0:0:0:0:
235,249,37583,1,2,0:0:0:0:
215,252,37666,2,0,L|167:262,3,40,8|0|0|0,3:2|0:0|0:0|0:0,0:0:0:0:
141,183,37999,5,10,3:2:0:0:
121,180,38082,1,2,0:0:0:0:
101,177,38165,1,2,0:0:0:0:
81,174,38249,1,2,0:0:0:0:
61,171,38332,2,0,L|13:161,3,40,8|0|0|0,3:2|0:0|0:0|0:0,0:0:0:0:
41,85,38666,6,0,L|44:36,3,40,10|2|2|2,3:2|0:0|0:0|0:0,0:0:0:0:
132,73,38999,2,0,L|135:24,3,40,8|0|0|0,3:2|0:0|0:0|0:0,0:0:0:0:
224,62,39333,1,10,3:2:0:0:
224,62,39416,1,2,0:0:0:0:
224,62,39499,2,0,L|227:13,1,40,2|2,0:0|0:0,0:0:0:0:
315,51,39666,1,8,3:2:0:0:
315,51,39749,1,0,0:0:0:0:
315,51,39833,2,0,L|318:2,1,40
410,39,39999,5,10,3:2:0:0:
420,57,40083,1,2,0:0:0:0:
424,80,40166,1,2,0:0:0:0:
426,107,40249,1,2,0:0:0:0:
420,138,40333,1,8,3:2:0:0:
398,166,40416,1,0,0:0:0:0:
365,189,40499,2,0,P|312:195|262:173,1,80,0|10,0:0|3:2,0:0:0:0:
173,138,40833,1,2,0:0:0:0:
56,201,40999,5,8,3:2:0:0:
46,219,41083,1,0,0:0:0:0:
42,242,41166,1,0,0:0:0:0:
40,269,41249,1,0,0:0:0:0:
46,300,41333,1,10,3:2:0:0:
68,328,41416,1,2,0:0:0:0:
101,351,41499,2,0,P|154:357|204:335,1,80,2|8,0:0|3:2,0:0:0:0:
257,285,41832,1,0,0:0:0:0:
142,254,41999,2,0,L|49:245,1,80,10|2,3:2|0:0,0:0:0:0:
170,117,42333,2,0,L|263:108,1,80,8|0,3:2|0:0,0:0:0:0:
384,140,42666,5,8,3:2:0:0:
216,214,42833,1,8,3:2:0:0:
230,25,42999,1,8,3:2:0:0:
318,226,43166,1,8,3:2:0:0:
341,35,43333,1,8,3:2:0:0:
170,117,43499,1,8,3:2:0:0:
384,140,43666,1,8,3:2:0:0:
384,140,43749,1,8,3:2:0:0:
384,140,43833,6,0,P|427:208|379:321,1,200,8|10,3:2|0:2,0:0:0:0:
266,307,44249,1,10,0:2:0:0:
266,307,44333,2,0,P|290:249|348:214,1,100,10|2,0:2|0:2,0:0:0:0:
423,378,44583,1,0,0:0:0:0:
423,378,44666,2,0,P|389:385|342:374,1,50,2|0,0:2|0:0,0:0:0:0:
239,384,44833,2,0,P|210:364|184:323,1,50,2|0,3:2|0:0,0:0:0:0:
167,220,44999,1,10,3:2:0:0:
317,225,45166,1,10,3:2:0:0:
238,95,45332,5,6,3:2:0:0:
238,67,45415,1,2,0:2:0:0:
262,81,45499,1,2,0:2:0:0:
241,193,45666,1,10,3:2:0:0:
262,81,45832,1,2,0:2:0:0:
238,95,45916,1,2,0:2:0:0:
238,67,45999,1,2,3:2:0:0:
320,13,46166,1,2,0:2:0:0:
125,54,46333,2,0,L|122:126,3,40,10|2|2|2,3:2|0:2|0:2|0:2,0:0:0:0:
86,129,46666,5,2,3:2:0:0:
117,215,46833,2,0,L|114:287,2,40,2|2|10,0:2|0:2|3:2,0:0:0:0:
241,193,47166,1,2,0:2:0:0:
204,316,47333,1,10,0:2:0:0:
174,278,47416,1,10,0:2:0:0:
221,271,47499,1,10,0:2:0:0:
95,339,47666,1,10,0:2:0:0:
65,377,47749,1,10,0:2:0:0:
112,384,47832,1,10,0:2:0:0:
13,246,47999,6,0,L|11:206,2,40,6|2|2,3:2|0:2|0:2,0:0:0:0:
45,137,48333,1,10,3:2:0:0:
108,235,48499,1,2,0:2:0:0:
108,235,48583,1,2,0:2:0:0:
108,235,48666,1,2,3:2:0:0:
142,136,48833,1,2,0:2:0:0:
190,218,48999,1,8,3:2:0:0:
212,198,49082,1,0,0:0:0:0:
227,172,49165,1,0,0:0:0:0:
233,143,49249,1,0,0:0:0:0:
230,113,49333,6,0,P|194:67|147:46,1,80,8|8,0:0|0:0,0:0:0:0:
65,154,49583,1,8,0:0:0:0:
65,154,49666,2,0,P|122:145|164:115,1,80,8|8,0:0|0:0,0:0:0:0:
115,0,49916,1,8,0:0:0:0:
115,0,49999,2,0,P|93:54|98:105,1,80,8|8,0:0|0:0,0:0:0:0:
141,135,50249,1,8,0:0:0:0:
156,154,50333,2,0,L|166:205,1,40,8|8,0:0|0:0,0:0:0:0:
96,264,50499,2,0,L|86:315,1,40,10|0,0:2|0:0,0:0:0:0:
227,322,50667,5,6,3:2:0:0:
249,341,50750,1,2,0:2:0:0:
222,350,50833,1,2,0:2:0:0:
244,225,50999,1,10,3:2:0:0:
222,350,51167,1,2,0:2:0:0:
227,322,51250,1,2,0:2:0:0:
249,341,51333,1,2,3:2:0:0:
129,384,51499,1,2,0:2:0:0:
328,384,51666,2,0,P|337:338|325:289,1,80,10|2,3:2|0:2,0:0:0:0:
244,225,51999,5,0,3:2:0:0:
296,151,52166,2,0,L|298:108,2,40,2|2|10,0:2|0:2|3:2,0:0:0:0:
345,236,52499,1,2,0:2:0:0:
397,162,52666,1,10,0:2:0:0:
427,124,52749,1,10,0:2:0:0:
379,116,52833,1,10,0:2:0:0:
494,218,52999,1,10,0:2:0:0:
512,264,53082,1,10,0:2:0:0:
464,256,53166,1,10,0:2:0:0:
412,352,53333,6,0,L|408:306,2,40,6|2|2,3:2|0:2|0:2,0:0:0:0:
321,306,53666,1,10,3:2:0:0:
244,384,53833,2,0,L|240:338,2,40,2|2|2,0:2|0:2|3:2,0:0:0:0:
153,338,54166,1,2,0:2:0:0:
224,247,54333,2,0,L|218:194,3,40,8|0|0|0,3:2|0:0|0:0|0:0,0:0:0:0:
238,158,54666,5,2,3:2:0:0:
285,163,54749,1,2,0:2:0:0:
333,168,54833,1,2,0:2:0:0:
231,60,54999,2,0,B|180:74|180:74|134:121,1,95.9999970703126,10|0,3:2|0:0,0:0:0:0:
307,255,55333,1,8,0:0:0:0:
334,85,55499,1,10,0:2:0:0:
334,85,55583,1,8,0:0:0:0:
334,85,55666,2,0,L|277:119,1,47.9999985351563,10|8,0:2|0:0,0:0:0:0:
152,206,55833,2,0,L|209:172,1,47.9999985351563,10|0,0:2|0:0,0:0:0:0:
162,49,55999,6,0,B|130:44|130:44|36:93,1,95.9999970703126,2|8,3:2|0:2,0:0:0:0:
52,85,56249,1,8,0:2:0:0:
30,96,56333,1,8,0:2:0:0:
202,132,56499,2,0,B|234:137|234:137|328:88,1,95.9999970703126,2|0,3:2|0:0,0:0:0:0:
312,96,56749,1,0,0:0:0:0:
334,85,56833,1,8,0:2:0:0:
355,75,56916,1,8,0:2:0:0:
376,65,56999,1,8,0:2:0:0:
307,255,57166,5,6,3:2:0:0:
256,192,57333,12,0,58666,0:0:0:0:
