osu file format v14

[General]
AudioFilename: plasma.mp3
AudioLeadIn: 0
PreviewTime: 13333
Countdown: 0
SampleSet: Normal
StackLeniency: 0.3
Mode: 2
LetterboxInBreaks: 0
WidescreenStoryboard: 1

[Editor]
DistanceSpacing: 1
BeatDivisor: 2
GridSize: 4
TimelineZoom: 1

[Metadata]
Title:Plasma Gun
TitleUnicode:Plasma Gun
Artist:Memme
ArtistUnicode:Memme
Creator:Secre
Version:Standard
Source:O2Jam U
Tags:chickenbible maddy instrumental video game
BeatmapID:2384122
BeatmapSetID:1141444

[Difficulty]
HPDrainRate:3
CircleSize:3
OverallDifficulty:7
ApproachRate:7
SliderMultiplier:1.15
SliderTickRate:1

[Events]
//Background and Video events
0,0,"hurrdurr.jpg",0,0
//Break Periods
//Storyboard Layer 0 (Background)
//Storyboard Layer 1 (Fail)
//Storyboard Layer 2 (Pass)
//Storyboard Layer 3 (Foreground)
//Storyboard Layer 4 (Overlay)
//Storyboard Sound Samples

[TimingPoints]
0,333.333333333333,4,3,0,65,1,0
2666,-100,4,2,0,65,0,0
7999,-100,4,1,0,65,0,0
13333,-100,4,1,0,80,0,0
23999,-100,4,1,0,65,0,0
34666,-100,4,1,0,70,0,0
45333,-100,4,1,0,80,0,1
47333,-100,4,1,0,80,0,1
47999,-100,4,1,0,80,0,1
49333,-100,4,1,0,80,0,1
50666,-100,4,1,0,80,0,1
52666,-100,4,1,0,80,0,1
53333,-100,4,1,0,80,0,1
54666,-100,4,1,0,80,0,1
54999,-100,4,1,0,80,0,1
55999,-100,4,1,0,80,0,0

[Colours]
Combo1 : 66,151,255
Combo2 : 24,78,177

[HitObjects]
165,280,2666,6,0,P|101:249|208:104,1,287.5,4|0,2:2|0:0,0:0:0:0:
273,123,3833,1,2,0:0:0:0:
171,182,4166,2,0,L|111:182,1,57.5,2|2,0:0|0:0,0:0:0:0:
250,113,4666,1,0,0:0:0:0:
307,113,4832,1,0,0:0:0:0:
365,113,4999,1,2,0:0:0:0:
365,50,5165,1,2,0:0:0:0:
203,205,5333,5,2,0:0:0:0:
91,165,5666,1,2,0:0:0:0:
203,205,5999,2,0,L|299:204,1,57.5,2|0,0:0|0:0,0:0:0:0:
377,101,6499,6,0,L|379:234,1,115,2|2,0:0|0:0,0:0:0:0:
321,240,6999,1,0,0:0:0:0:
195,278,7333,2,0,L|106:277,1,57.5,0|2,0:0|0:0,0:0:0:0:
141,195,7666,2,0,L|198:195,1,57.5,0|0,1:0|1:0,0:0:0:0:
370,102,7999,6,0,L|375:254,1,115,6|2,1:2|1:0,0:0:0:0:
256,240,8666,2,0,L|134:239,1,115,2|2,1:0|1:0,0:0:0:0:
256,240,9333,6,0,L|421:240,1,115,2|2,1:0|1:0,0:0:0:0:
256,240,9999,2,0,L|134:239,1,115,2|2,1:0|1:0,0:0:0:0:
252,166,10666,6,0,L|332:167,1,57.5,6|0,1:2|0:0,0:0:0:0:
369,141,10999,2,0,L|369:213,1,57.5,2|0,1:0|0:0,0:0:0:0:
312,232,11333,2,0,L|237:234,1,57.5,6|0,1:2|0:0,0:0:0:0:
192,213,11666,1,2,1:0:0:0:
271,158,11833,1,0,1:0:0:0:
459,97,11999,6,0,L|464:243,1,115,0|0,0:0|1:0,0:0:0:0:
338,216,12666,2,0,L|262:215,1,57.5,2|2,0:0|0:0,0:0:0:0:
212,234,12999,2,0,L|200:155,1,57.5,2|2,0:0|0:0,0:0:0:0:
385,113,13333,6,0,L|439:115,2,28.75,6|0|0,1:2|0:0|0:0,0:0:0:0:
284,86,13666,1,8,1:0:0:0:
168,183,13999,2,0,L|90:184,1,57.5,2|0,1:3|0:0,0:0:0:0:
168,183,14333,2,0,L|248:184,1,57.5,8|0,1:0|0:0,0:0:0:0:
317,100,14666,6,0,P|355:135|303:174,1,115,2|8,1:3|1:0,0:0:0:0:
198,206,15333,2,0,L|142:206,1,28.75,2|0,1:3|0:0,0:0:0:0:
261,132,15666,2,0,L|339:132,1,57.5,8|2,1:0|1:0,0:0:0:0:
378,75,15999,6,0,L|388:121,1,28.75,2|0,1:3|0:0,0:0:0:0:
355,145,16166,1,0,0:0:0:0:
294,205,16333,2,0,L|220:204,1,57.5,8|0,1:0|0:0,0:0:0:0:
328,243,16666,2,0,L|400:243,2,57.5,2|0|8,1:3|0:0|1:0,0:0:0:0:
203,168,17333,6,0,L|340:170,1,115,2|8,1:3|1:0,0:0:0:0:
453,84,17999,2,0,L|460:209,1,115,2|4,1:3|1:2,0:0:0:0:
165,116,18666,6,0,L|111:118,2,28.75,6|0|0,1:0|0:0|0:0,0:0:0:0:
258,89,18999,1,8,1:0:0:0:
374,186,19332,2,0,L|452:187,1,57.5,2|0,1:3|0:0,0:0:0:0:
374,186,19666,2,0,L|294:187,1,57.5,8|0,1:0|0:0,0:0:0:0:
225,103,19999,6,0,P|187:138|239:177,1,115,6|8,1:0|1:0,0:0:0:0:
344,209,20666,2,0,L|400:209,1,28.75,2|0,1:3|0:0,0:0:0:0:
281,135,20999,2,0,L|203:135,1,57.5,8|0,1:0|0:0,0:0:0:0:
164,78,21332,6,0,L|154:124,1,28.75,6|0,1:2|0:0,0:0:0:0:
187,148,21499,1,0,0:0:0:0:
248,208,21666,2,0,L|322:207,1,57.5,8|0,1:0|0:0,0:0:0:0:
395,249,21999,2,0,L|467:249,2,57.5,6|2|8,1:2|0:0|1:0,0:0:0:0:
279,172,22666,5,10,1:0:0:0:
221,217,22833,2,0,L|213:163,1,28.75,8|8,1:0|1:0,0:0:0:0:
244,120,22999,1,8,1:0:0:0:
338,158,23166,2,0,L|346:104,1,28.75,0|0,1:0|0:0,0:0:0:0:
315,61,23332,1,4,1:0:0:0:
244,120,23499,1,0,1:0:0:0:
153,179,23666,2,0,L|148:112,1,57.5,4|0,1:0|1:0,0:0:0:0:
323,233,23999,6,0,P|375:215|413:88,2,172.5,4|8|2,1:2|1:2|0:0,0:0:0:0:
186,206,25499,2,0,L|103:207,2,57.5,0|0|0,0:0|0:0|0:0,0:0:0:0:
279,135,25999,2,0,L|402:135,1,115,0|0,0:0|1:0,0:0:0:0:
131,231,26666,6,0,P|79:213|41:86,2,172.5,4|8|2,1:2|1:2|1:0,0:0:0:0:
317,254,28166,2,0,P|370:230|446:67,1,230,0|0,0:0|0:0,0:0:0:0:
379,88,28999,2,0,L|300:87,1,57.5,8|8,1:2|1:2,0:0:0:0:
154,216,29333,6,0,P|59:139|55:77,2,172.5,8|8|2,1:2|1:2|0:0,0:0:0:0:
321,133,30833,1,2,0:0:0:0:
163,240,31333,2,0,L|157:117,1,115,2|10,0:0|1:2,0:0:0:0:
418,168,31999,5,4,1:2:0:0:
269,173,32499,1,0,0:0:0:0:
211,173,32665,1,8,1:2:0:0:
154,173,32832,1,0,1:0:0:0:
211,173,32999,1,0,0:0:0:0:
382,95,33166,6,0,P|419:143|374:157,1,115,2|2,0:0|0:0,0:0:0:0:
215,207,33999,1,2,0:0:0:0:
132,246,34166,2,0,L|126:196,1,28.75,2|2,0:0|0:0,0:0:0:0:
160,161,34333,1,2,0:0:0:0:
243,122,34499,1,2,0:0:0:0:
412,101,34666,6,0,L|417:231,1,115,12|8,1:2|1:2,0:0:0:0:
303,201,35333,2,0,L|176:206,1,115,8|8,1:2|1:2,0:0:0:0:
82,288,35999,6,0,L|72:156,1,115,8|8,1:2|1:2,0:0:0:0:
184,157,36666,2,0,L|54:164,1,115,8|8,1:2|1:2,0:0:0:0:
326,202,37333,6,0,L|501:202,2,172.5,8|0|8,1:2|0:0|1:2,0:0:0:0:
106,292,38833,2,0,P|45:252|127:147,1,230,0|0,0:0|0:0,0:0:0:0:
175,164,39666,2,0,L|232:163,1,57.5,0|0,1:0|0:0,0:0:0:0:
389,258,39999,6,0,P|449:240|482:125,2,172.5,8|0|8,1:2|0:0|1:2,0:0:0:0:
274,177,41499,1,0,0:0:0:0:
110,295,41999,2,0,L|106:169,1,115,8|8,1:2|1:2,0:0:0:0:
387,158,42666,6,0,L|392:222,1,57.5,8|8,1:2|1:2,0:0:0:0:
329,233,42999,2,0,L|248:233,1,57.5,8|8,1:2|1:2,0:0:0:0:
202,243,43333,2,0,L|133:241,2,57.5,8|8|8,1:0|0:0|1:2,0:0:0:0:
377,147,43833,5,8,1:2:0:0:
256,192,44166,12,0,44999,0:0:0:0:
210,194,45333,5,6,1:2:0:0:
181,194,45416,1,0,0:0:0:0:
152,194,45499,1,0,0:0:0:0:
243,127,45666,2,0,L|319:127,1,57.5,8|0,1:0|0:0,0:0:0:0:
398,115,45999,2,0,L|399:198,1,57.5,2|0,1:3|0:0,0:0:0:0:
306,217,46333,2,0,L|388:217,1,57.5,8|0,1:0|0:0,0:0:0:0:
460,152,46666,6,0,L|464:233,1,57.5,2|0,1:3|0:0,0:0:0:0:
371,269,46999,2,0,L|303:269,1,57.5,8|0,1:0|0:0,0:0:0:0:
146,209,47333,2,0,L|103:207,2,28.75,10|2|2,1:2|0:0|0:0,0:0:0:0:
322,140,47666,2,0,L|365:138,2,28.75,10|2|2,0:0|0:0|0:0,0:0:0:0:
149,283,47999,6,0,L|147:209,1,57.5,6|0,1:2|0:0,0:0:0:0:
237,204,48333,2,0,L|307:204,1,57.5,8|0,1:0|0:0,0:0:0:0:
202,240,48666,1,2,1:3:0:0:
126,214,48832,1,0,0:0:0:0:
124,159,48999,1,8,1:0:0:0:
201,121,49165,1,0,0:0:0:0:
373,130,49333,5,6,1:0:0:0:
430,101,49499,2,0,L|436:152,1,28.75,2|2,1:0|1:0,0:0:0:0:
389,184,49666,1,2,1:0:0:0:
293,196,49833,2,0,L|209:197,1,57.5,2|2,1:0|1:0,0:0:0:0:
143,113,50166,2,0,L|96:114,2,28.75,2|2|2,1:0|1:0|1:0,0:0:0:0:
236,120,50499,1,2,1:0:0:0:
398,194,50666,6,0,L|446:193,2,28.75,6|0|0,1:2|0:0|0:0,0:0:0:0:
309,126,50999,2,0,L|233:126,1,57.5,8|0,1:0|0:0,0:0:0:0:
154,114,51332,2,0,L|153:197,1,57.5,2|0,1:3|0:0,0:0:0:0:
246,216,51666,2,0,L|164:216,1,57.5,8|2,1:0|0:0,0:0:0:0:
92,151,51999,6,0,L|88:232,1,57.5,2|0,1:3|0:0,0:0:0:0:
181,268,52332,2,0,L|249:268,1,57.5,8|0,1:0|0:0,0:0:0:0:
406,208,52666,2,0,L|449:206,2,28.75,6|2|2,1:2|0:2|0:2,0:0:0:0:
230,139,52999,2,0,L|187:137,2,28.75,2|2|2,0:2|0:2|0:2,0:0:0:0:
403,150,53333,6,0,L|406:234,1,57.5,6|0,1:2|0:0,0:0:0:0:
314,240,53666,2,0,L|254:241,1,57.5,8|0,1:0|0:0,0:0:0:0:
167,182,53999,2,0,L|92:182,2,57.5,2|2|8,1:3|0:0|1:0,0:0:0:0:
425,131,54666,6,0,L|431:187,1,28.75,10|2,1:2|0:0,0:0:0:0:
386,188,54833,1,2,0:0:0:0:
217,194,54999,2,0,L|84:194,1,115,6|8,0:0|1:0,0:0:0:0:
161,120,55499,2,0,L|216:119,1,28.75,0|0,1:0|0:0,0:0:0:0:
220,119,55666,2,0,L|299:119,1,57.5,2|0,1:0|1:0,0:0:0:0:
105,258,55999,5,4,0:0:0:0:
38,252,56166,2,0,L|31:202,1,28.75,0|0,0:0|0:0,0:0:0:0:
76,172,56333,1,0,0:0:0:0:
243,189,56499,2,0,L|358:188,1,115,4|0,1:2|0:0,0:0:0:0:
330,128,56916,6,0,L|277:128,1,28.75,0|0,0:0|1:0,0:0:0:0:
140,119,57166,1,4,1:2:0:0:
256,192,57499,12,0,58666,0:0:0:0:
