osu file format v14

[General]
AudioFilename: plasma.mp3
AudioLeadIn: 0
PreviewTime: 13333
Countdown: 0
SampleSet: Drum
StackLeniency: 0.3
Mode: 2
LetterboxInBreaks: 0
WidescreenStoryboard: 1

[Editor]
DistanceSpacing: 1
BeatDivisor: 2
GridSize: 4
TimelineZoom: 1

[Metadata]
Title:Plasma Gun
TitleUnicode:Plasma Gun
Artist:Memme
ArtistUnicode:Memme
Creator:Secre
Version:Hyper
Source:O2Jam U
Tags:chickenbible maddy instrumental video game
BeatmapID:2384118
BeatmapSetID:1141444

[Difficulty]
HPDrainRate:4
CircleSize:3.5
OverallDifficulty:8
ApproachRate:8
SliderMultiplier:1.45
SliderTickRate:1

[Events]
//Background and Video events
0,0,"hurrdurr.jpg",0,0
//Break Periods
//Storyboard Layer 0 (Background)
//Storyboard Layer 1 (Fail)
//Storyboard Layer 2 (Pass)
//Storyboard Layer 3 (Foreground)
//Storyboard Layer 4 (Overlay)
//Storyboard Sound Samples

[TimingPoints]
0,333.333333333333,4,3,0,65,1,0
2666,-100,4,2,0,65,0,0
7999,-100,4,1,0,65,0,0
13333,-100,4,1,0,80,0,0
23999,-100,4,1,0,65,0,0
34666,-100,4,1,0,70,0,0
45333,-100,4,1,0,80,0,1
47333,-100,4,1,0,80,0,1
47999,-100,4,1,0,80,0,1
49333,-100,4,1,0,80,0,1
50666,-100,4,1,0,80,0,1
52666,-100,4,1,0,80,0,1
53333,-100,4,1,0,80,0,1
54666,-100,4,1,0,80,0,1
54999,-100,4,1,0,80,0,1
55999,-100,4,1,0,80,0,0

[Colours]
Combo1 : 66,151,255
Combo2 : 24,78,177

[HitObjects]
340,172,2666,6,0,L|177:172,1,145,4|2,2:2|0:0,0:0:0:0:
326,96,3333,2,0,L|332:177,1,72.5,2|0,0:0|0:0,0:0:0:0:
98,200,3833,1,2,0:0:0:0:
246,115,4166,2,0,L|171:114,1,72.5,2|2,0:0|0:0,0:0:0:0:
334,77,4666,1,0,0:0:0:0:
396,107,4832,1,0,0:0:0:0:
399,176,4999,1,2,0:0:0:0:
340,212,5165,1,2,0:0:0:0:
161,279,5333,6,0,L|156:132,1,145,2|2,0:0|0:0,0:0:0:0:
309,140,5999,2,0,L|414:140,2,72.5,2|0|0,0:0|0:0|0:0,0:0:0:0:
136,162,6499,1,2,0:0:0:0:
270,104,6833,2,0,L|275:20,1,72.5,2|0,0:0|0:0,0:0:0:0:
127,259,7333,1,0,0:0:0:0:
66,226,7499,1,2,0:0:0:0:
67,157,7666,1,0,1:0:0:0:
129,126,7832,1,0,1:0:0:0:
366,100,7999,6,0,P|415:134|412:234,1,145,6|2,1:2|1:0,0:0:0:0:
258,264,8666,2,0,L|425:258,1,145,2|2,1:0|1:0,0:0:0:0:
256,264,9333,2,0,L|100:263,1,145,2|2,1:0|1:0,0:0:0:0:
258,264,9999,2,0,L|425:258,1,145,2|2,1:0|1:0,0:0:0:0:
159,276,10666,5,6,1:2:0:0:
125,262,10749,1,0,0:0:0:0:
104,233,10832,1,0,0:0:0:0:
174,177,10999,1,2,1:0:0:0:
210,177,11082,1,0,0:0:0:0:
246,177,11165,1,0,0:0:0:0:
342,131,11333,6,0,L|400:131,1,36.25,6|0,1:2|0:0,0:0:0:0:
378,131,11499,2,0,L|342:131,1,36.25,0|0,0:0|0:0,0:0:0:0:
225,95,11666,1,2,1:0:0:0:
188,94,11749,1,0,1:0:0:0:
152,93,11832,1,0,1:0:0:0:
401,51,11999,6,0,L|406:146,1,72.5,0|0,0:0|1:0,0:0:0:0:
265,228,12333,2,0,L|366:226,1,72.5,0|0,1:0|0:0,0:0:0:0:
189,147,12666,2,0,L|128:147,2,36.25,2|0|2,0:0|0:0|0:0,0:0:0:0:
346,145,12999,2,0,L|407:145,2,36.25,2|0|2,0:0|0:0|0:0,0:0:0:0:
114,284,13333,6,0,L|105:226,1,36.25,6|0,1:2|0:0,0:0:0:0:
168,212,13499,2,0,L|268:213,1,72.5,0|8,0:0|1:0,0:0:0:0:
330,161,13833,2,0,L|333:220,1,36.25,0|0,0:0|0:0,0:0:0:0:
270,267,13999,2,0,L|183:267,1,72.5,2|0,1:3|0:0,0:0:0:0:
333,127,14333,2,0,L|438:127,1,72.5,8|0,1:0|0:0,0:0:0:0:
166,151,14666,5,2,1:3:0:0:
229,104,14833,2,0,L|278:104,1,36.25,0|0,0:0|0:0,0:0:0:0:
337,78,14999,2,0,L|341:183,1,72.5,8|0,1:0|0:0,0:0:0:0:
238,218,15333,2,0,L|182:219,1,36.25,2|0,1:3|0:0,0:0:0:0:
411,123,15666,2,0,L|509:123,1,72.5,8|2,1:0|1:0,0:0:0:0:
239,145,15999,6,0,L|234:82,1,36.25,2|0,1:3|0:0,0:0:0:0:
311,69,16166,2,0,L|397:70,1,72.5,0|8,0:0|1:0,0:0:0:0:
230,198,16499,2,0,L|182:199,1,36.25,0|0,0:0|0:0,0:0:0:0:
133,297,16666,2,0,L|125:197,1,72.5,2|0,1:3|0:0,0:0:0:0:
255,146,16999,2,0,L|326:146,2,36.25,8|0|0,1:0|0:0|0:0,0:0:0:0:
93,255,17333,6,0,L|88:150,1,72.5,2|0,1:3|0:0,0:0:0:0:
237,176,17666,2,0,L|146:176,1,72.5,8|0,1:0|0:0,0:0:0:0:
260,115,17999,2,0,L|324:116,1,36.25,2|2,1:3|0:0,0:0:0:0:
85,124,18333,2,0,L|83:69,1,36.25,4|0,1:2|0:0,0:0:0:0:
130,65,18499,1,0,1:2:0:0:
381,276,18666,6,0,L|390:218,1,36.25,6|0,1:0|0:0,0:0:0:0:
333,212,18832,2,0,L|233:213,1,72.5,0|8,0:0|1:0,0:0:0:0:
166,158,19166,2,0,L|163:217,1,36.25,0|0,0:0|0:0,0:0:0:0:
221,264,19332,2,0,L|308:264,1,72.5,2|0,1:3|0:0,0:0:0:0:
171,130,19666,2,0,L|112:132,2,36.25,8|0|0,1:0|0:0|0:0,0:0:0:0:
346,151,19999,5,6,1:0:0:0:
271,104,20166,2,0,L|222:104,1,36.25,0|0,0:0|0:0,0:0:0:0:
169,74,20332,2,0,L|165:179,1,72.5,8|0,1:0|0:0,0:0:0:0:
295,215,20666,2,0,L|351:216,1,36.25,2|0,1:3|0:0,0:0:0:0:
122,127,20999,2,0,L|24:127,1,72.5,8|0,1:0|0:0,0:0:0:0:
280,143,21332,6,0,L|285:80,1,36.25,6|0,1:2|0:0,0:0:0:0:
219,70,21499,2,0,L|133:71,1,72.5,0|8,0:0|1:0,0:0:0:0:
282,202,21832,2,0,L|330:203,1,36.25,0|0,0:0|0:0,0:0:0:0:
363,286,21999,2,0,L|371:186,1,72.5,6|2,1:2|0:0,0:0:0:0:
247,146,22332,2,0,L|176:146,2,36.25,8|0|0,1:0|0:0|0:0,0:0:0:0:
419,254,22666,5,10,1:0:0:0:
482,260,22833,2,0,L|480:201,1,36.25,8|8,1:0|1:0,0:0:0:0:
416,177,22999,2,0,L|318:176,1,72.5,8|0,1:0|1:0,0:0:0:0:
167,282,23333,1,4,1:0:0:0:
132,271,23416,1,0,1:0:0:0:
108,245,23499,1,0,1:0:0:0:
100,210,23582,1,0,1:0:0:0:
110,176,23666,1,4,1:0:0:0:
137,152,23749,1,0,1:0:0:0:
172,145,23832,1,0,1:0:0:0:
404,212,23999,6,0,L|187:257,2,217.5,4|8|2,1:2|1:2|0:0,0:0:0:0:
202,163,25499,2,0,L|98:162,2,72.5,0|0|0,0:0|0:0|0:0,0:0:0:0:
348,266,25999,2,0,P|395:216|336:184,1,145,0|0,0:0|1:0,0:0:0:0:
68,201,26666,6,0,L|285:246,2,217.5,4|8|2,1:2|1:2|1:0,0:0:0:0:
366,288,28166,2,0,P|429:255|344:36,1,362.5,0|8,0:0|1:2,0:0:0:0:
316,40,29083,1,0,0:0:0:0:
281,42,29166,1,8,1:2:0:0:
38,253,29333,6,0,L|263:297,2,217.5,8|8|2,1:2|1:2|0:0,0:0:0:0:
366,170,30833,1,2,0:0:0:0:
89,295,31333,2,0,L|83:146,1,145,2|10,0:0|1:2,0:0:0:0:
479,222,31999,6,0,L|228:238,1,217.5,4|0,1:2|0:0,0:0:0:0:
333,161,32666,2,0,L|429:161,2,72.5,8|0|0,1:2|1:0|0:0,0:0:0:0:
94,297,33166,2,0,L|85:138,1,145,2|2,0:0|0:0,0:0:0:0:
303,183,33999,1,2,0:0:0:0:
378,133,34166,2,0,L|384:191,1,36.25,2|2,0:0|0:0,0:0:0:0:
271,136,34333,1,2,0:0:0:0:
234,136,34416,1,2,0:0:0:0:
198,136,34499,1,2,0:0:0:0:
426,59,34666,6,0,L|431:212,1,145,12|8,1:2|1:2,0:0:0:0:
280,264,35333,2,0,L|119:264,1,145,8|8,1:2|1:2,0:0:0:0:
274,173,35999,2,0,L|433:173,1,145,8|8,1:2|1:2,0:0:0:0:
238,117,36666,2,0,L|82:122,1,145,8|8,1:2|1:2,0:0:0:0:
497,205,37333,6,0,L|272:213,2,217.5,8|0|8,1:2|0:0|1:2,0:0:0:0:
130,280,38833,2,0,P|19:231|136:83,1,362.5,0|0,0:0|1:0,0:0:0:0:
164,83,39749,1,0,0:0:0:0:
202,83,39833,1,0,0:0:0:0:
443,243,39999,6,0,L|224:250,2,217.5,8|0|8,1:2|0:0|1:2,0:0:0:0:
108,134,41499,1,0,0:0:0:0:
427,78,41999,2,0,L|437:251,1,145,8|8,1:2|1:2,0:0:0:0:
355,233,42499,1,0,0:0:0:0:
115,267,42666,6,0,L|105:179,1,72.5,8|8,1:2|1:2,0:0:0:0:
188,153,42999,2,0,L|115:152,1,72.5,8|8,1:2|1:2,0:0:0:0:
271,114,43333,6,0,L|374:112,2,72.5,8|8|8,1:0|0:0|1:2,0:0:0:0:
81,96,43833,1,8,1:2:0:0:
256,192,43999,12,0,44999,0:0:0:0:
152,229,45333,6,0,L|95:227,2,36.25,6|0|0,1:2|0:0|0:0,0:0:0:0:
297,145,45666,2,0,L|390:147,1,72.5,8|0,1:0|0:0,0:0:0:0:
230,263,45999,2,0,L|226:159,1,72.5,2|0,1:3|0:0,0:0:0:0:
356,189,46333,2,0,L|402:188,1,36.25,8|0,1:0|0:0,0:0:0:0:
422,135,46499,2,0,L|433:199,1,36.25,0|0,0:0|0:0,0:0:0:0:
333,156,46666,6,0,L|240:157,1,72.5,2|0,1:3|0:0,0:0:0:0:
118,242,46999,2,0,L|113:142,1,72.5,8|0,1:0|0:0,0:0:0:0:
231,163,47333,1,10,1:2:0:0:
194,162,47416,1,2,0:0:0:0:
158,162,47499,1,2,0:0:0:0:
332,126,47666,1,10,0:0:0:0:
368,125,47749,1,2,0:0:0:0:
404,125,47832,1,2,0:0:0:0:
176,278,47999,6,0,L|167:233,1,36.25,6|0,1:2|0:0,0:0:0:0:
226,205,48166,2,0,L|304:204,1,72.5,0|8,0:0|1:0,0:0:0:0:
389,140,48499,2,0,L|388:185,1,36.25,0|0,0:0|0:0,0:0:0:0:
326,153,48666,2,0,L|224:153,1,72.5,2|0,1:3|0:0,0:0:0:0:
95,120,48999,2,0,L|90:24,1,72.5,8|0,1:0|0:0,0:0:0:0:
322,203,49333,5,6,1:0:0:0:
399,226,49499,2,0,L|409:165,1,36.25,2|2,1:0|1:0,0:0:0:0:
295,119,49666,1,2,1:0:0:0:
191,226,49833,2,0,L|181:165,1,36.25,2|2,1:0|1:0,0:0:0:0:
295,119,50000,1,2,1:0:0:0:
399,226,50166,2,0,L|465:226,2,36.25,2|2|2,1:0|1:0|1:0,0:0:0:0:
224,187,50499,1,2,1:0:0:0:
355,214,50666,6,0,L|412:212,2,36.25,6|0|0,1:2|0:0|0:0,0:0:0:0:
192,149,50999,2,0,L|99:151,1,72.5,8|0,1:0|0:0,0:0:0:0:
287,269,51332,2,0,L|291:165,1,72.5,2|0,1:3|0:0,0:0:0:0:
155,193,51666,2,0,L|109:192,1,36.25,8|0,1:0|0:0,0:0:0:0:
83,140,51832,2,0,L|77:203,1,36.25,2|0,0:0|0:0,0:0:0:0:
172,160,51999,6,0,L|265:161,1,72.5,2|0,1:3|0:0,0:0:0:0:
382,244,52332,2,0,L|387:144,1,72.5,8|0,1:0|0:0,0:0:0:0:
276,188,52666,1,6,1:2:0:0:
313,187,52749,1,2,0:2:0:0:
349,187,52832,1,2,0:2:0:0:
176,129,52999,1,2,0:2:0:0:
140,128,53082,1,2,0:2:0:0:
104,128,53165,1,2,0:2:0:0:
332,280,53332,6,0,L|341:235,1,36.25,6|0,1:2|0:0,0:0:0:0:
277,219,53499,2,0,L|199:218,1,72.5,0|8,0:0|1:0,0:0:0:0:
109,137,53832,2,0,L|106:187,1,36.25,0|0,0:0|0:0,0:0:0:0:
166,150,53999,2,0,L|268:150,1,72.5,2|2,1:3|0:0,0:0:0:0:
369,133,54332,2,0,L|374:37,1,72.5,8|0,1:0|0:0,0:0:0:0:
257,218,54666,5,10,1:2:0:0:
293,218,54749,1,2,0:0:0:0:
329,218,54832,1,2,0:0:0:0:
96,293,54999,2,0,L|89:189,1,72.5,6|0,0:0|0:0,0:0:0:0:
331,129,55333,1,8,1:0:0:0:
379,97,55499,2,0,L|387:163,1,36.25,0|0,1:0|0:0,0:0:0:0:
304,174,55666,2,0,L|207:174,1,72.5,2|0,1:0|1:0,0:0:0:0:
466,244,55999,6,0,P|505:210|438:139,1,145,4|0,0:0|0:0,0:0:0:0:
228,196,56499,2,0,L|78:197,1,145,4|0,1:2|0:0,0:0:0:0:
120,131,56916,1,0,0:0:0:0:
158,130,56999,1,0,1:0:0:0:
402,142,57166,5,4,1:2:0:0:
256,192,57333,12,0,58666,0:0:0:0:
