osu file format v14

[General]
AudioFilename: plasma.mp3
AudioLeadIn: 0
PreviewTime: 13333
Countdown: 0
SampleSet: Normal
StackLeniency: 0.3
Mode: 2
LetterboxInBreaks: 0
WidescreenStoryboard: 1

[Editor]
DistanceSpacing: 1
BeatDivisor: 4
GridSize: 4
TimelineZoom: 1.9

[Metadata]
Title:Plasma Gun
TitleUnicode:Plasma Gun
Artist:Memme
ArtistUnicode:Memme
Creator:Secre
Version:Black Another
Source:O2Jam U
Tags:chickenbible maddy instrumental video game
BeatmapID:2384119
BeatmapSetID:1141444

[Difficulty]
HPDrainRate:6
CircleSize:4
OverallDifficulty:9.2
ApproachRate:9.2
SliderMultiplier:1.85
SliderTickRate:2

[Events]
//Background and Video events
0,0,"hurrdurr.jpg",0,0
//Break Periods
//Storyboard Layer 0 (Background)
//Storyboard Layer 1 (Fail)
//Storyboard Layer 2 (Pass)
//Storyboard Layer 3 (Foreground)
//Storyboard Layer 4 (Overlay)
//Storyboard Sound Samples

[TimingPoints]
0,333.333333333333,4,3,0,65,1,0
2666,-100,4,2,0,65,0,0
7999,-100,4,1,0,65,0,0
13333,-100,4,1,0,80,0,0
23999,-100,4,1,0,65,0,0
34666,-100,4,1,0,70,0,0
45333,-100,4,1,0,80,0,1
47333,-100,4,1,0,80,0,1
47999,-100,4,1,0,80,0,1
49333,-100,4,1,0,80,0,1
50666,-100,4,1,0,80,0,1
52666,-100,4,1,0,80,0,1
53333,-100,4,1,0,80,0,1
54666,-100,4,1,0,80,0,1
54999,-100,4,1,0,80,0,1
55999,-100,4,1,0,80,0,0

[Colours]
Combo1 : 66,151,255
Combo2 : 24,78,177

[HitObjects]
331,206,2666,6,0,L|233:207,1,92.5,4|0,2:2|0:0,0:0:0:0:
387,103,2999,2,0,L|394:207,1,92.5,2|0,0:0|0:0,0:0:0:0:
137,220,3333,2,0,L|243:220,2,92.5,2|0|0,0:0|0:0|0:0,0:0:0:0:
383,93,3833,6,0,L|389:218,1,92.5,2|0,0:0|0:0,0:0:0:0:
145,199,4166,1,2,0:0:0:0:
283,121,4333,1,2,0:0:0:0:
419,78,4499,1,0,0:0:0:0:
145,199,4666,2,0,L|46:199,1,92.5,0|0,0:0|0:0,0:0:0:0:
367,199,4999,2,0,L|466:199,1,92.5,2|2,0:0|0:0,0:0:0:0:
100,179,5333,6,0,L|100:64,1,92.5,2|0,0:0|0:0,0:0:0:0:
260,153,5666,2,0,L|140:151,1,92.5,2|0,0:0|0:0,0:0:0:0:
408,249,6000,2,0,L|500:249,2,92.5,2|0|0,0:0|0:0|0:0,0:0:0:0:
129,93,6500,6,0,L|123:218,1,92.5,2|0,0:0|0:0,0:0:0:0:
367,199,6833,1,2,0:0:0:0:
229,121,7000,1,0,0:0:0:0:
93,78,7166,1,2,0:0:0:0:
367,199,7333,2,0,L|466:199,1,92.5,0|2,0:0|0:0,0:0:0:0:
145,199,7666,2,0,L|46:199,1,92.5,0|0,1:0|1:0,0:0:0:0:
399,100,7999,6,0,L|406:224,1,92.5,6|0,1:2|0:0,0:0:0:0:
250,278,8333,2,0,L|240:171,1,92.5,2|0,1:0|0:0,0:0:0:0:
399,101,8666,1,2,1:0:0:0:
241,185,8833,1,0,0:0:0:0:
399,101,8999,1,2,1:0:0:0:
147,244,9166,6,0,L|41:245,1,92.5,0|2,0:0|1:0,0:0:0:0:
335,150,9499,1,0,0:0:0:0:
88,293,9666,2,0,L|81:178,1,92.5,2|0,1:0|0:0,0:0:0:0:
328,209,9999,2,0,L|400:209,1,46.25,2|0,1:0|0:0,0:0:0:0:
374,209,10166,2,0,L|328:209,1,46.25,0|0,0:0|0:0,0:0:0:0:
137,173,10333,2,0,L|65:173,1,46.25,2|0,1:0|0:0,0:0:0:0:
90,173,10500,2,0,L|136:173,1,46.25,0|0,0:0|0:0,0:0:0:0:
363,266,10666,6,0,L|426:265,1,46.25,6|0,1:2|0:0,0:0:0:0:
212,212,10833,2,0,L|127:212,1,46.25,0|0,0:0|0:0,0:0:0:0:
376,151,10999,2,0,L|439:150,1,46.25,2|0,1:0|0:0,0:0:0:0:
194,95,11166,2,0,L|109:95,1,46.25,0|0,0:0|0:0,0:0:0:0:
400,78,11333,2,0,L|322:78,1,46.25,6|0,1:2|0:0,0:0:0:0:
139,163,11499,2,0,L|60:163,1,46.25,0|0,0:0|0:0,0:0:0:0:
349,237,11666,2,0,L|409:237,1,46.25,2|0,1:0|1:0,0:0:0:0:
395,237,11833,2,0,L|349:237,1,46.25,0|0,1:0|1:0,0:0:0:0:
121,304,11999,6,0,L|111:174,1,92.5,0|0,0:0|1:0,0:0:0:0:
279,160,12249,1,0,0:0:0:0:
448,103,12333,2,0,L|455:223,1,92.5,0|0,1:0|0:0,0:0:0:0:
291,287,12583,1,0,0:0:0:0:
98,233,12666,2,0,L|24:233,1,46.25,2|0,0:0|0:0,0:0:0:0:
287,152,12833,2,0,L|361:152,1,46.25,2|2,0:0|0:0,0:0:0:0:
97,125,12999,2,0,L|40:125,1,46.25,2|0,0:0|0:0,0:0:0:0:
50,125,13166,2,0,L|97:125,1,46.25,2|0,0:0|0:0,0:0:0:0:
356,195,13333,6,0,L|418:195,1,46.25,6|0,1:2|0:0,0:0:0:0:
217,144,13499,1,0,0:0:0:0:
356,195,13666,1,8,1:0:0:0:
121,216,13833,2,0,L|59:216,1,46.25,0|0,0:0|0:0,0:0:0:0:
259,164,13999,1,2,1:3:0:0:
121,216,14166,1,0,0:0:0:0:
356,195,14333,2,0,L|473:195,1,92.5,8|0,1:0|0:0,0:0:0:0:
121,216,14666,5,2,1:3:0:0:
268,143,14833,1,0,0:0:0:0:
201,120,14916,1,0,0:0:0:0:
404,111,14999,2,0,L|502:111,1,92.5,8|0,1:0|0:0,0:0:0:0:
217,207,15333,2,0,L|149:207,1,46.25,2|0,1:3|0:0,0:0:0:0:
387,145,15666,1,8,1:0:0:0:
217,207,15833,1,2,1:0:0:0:
473,122,15999,6,0,L|478:207,1,46.25,2|0,1:3|0:0,0:0:0:0:
326,225,16166,1,0,0:0:0:0:
475,168,16333,1,8,1:0:0:0:
193,152,16499,2,0,L|131:152,1,46.25,0|0,0:0|0:0,0:0:0:0:
336,132,16666,2,0,L|433:131,1,92.5,2|0,1:3|0:0,0:0:0:0:
127,290,16999,2,0,L|63:290,1,46.25,8|0,1:0|0:0,0:0:0:0:
80,290,17166,2,0,L|127:290,1,46.25,0|0,0:0|0:0,0:0:0:0:
365,154,17333,6,0,L|375:284,1,92.5,2|0,1:3|0:0,0:0:0:0:
112,324,17666,2,0,L|12:325,1,92.5,8|0,1:0|0:0,0:0:0:0:
341,246,17999,2,0,L|420:246,2,46.25,2|2|2,1:3|0:0|0:0,0:0:0:0:
91,237,18333,2,0,L|153:237,1,46.25,4|0,1:2|0:0,0:0:0:0:
349,171,18499,2,0,L|413:171,1,46.25,0|0,1:2|0:0,0:0:0:0:
156,195,18666,6,0,L|94:195,1,46.25,6|0,1:0|0:0,0:0:0:0:
295,144,18832,1,0,0:0:0:0:
156,195,18999,1,8,1:0:0:0:
391,216,19166,2,0,L|453:216,1,46.25,0|0,0:0|0:0,0:0:0:0:
253,164,19333,1,2,1:3:0:0:
391,216,19499,1,0,0:0:0:0:
156,195,19666,1,8,1:0:0:0:
98,167,19749,1,0,0:0:0:0:
52,167,19832,1,0,0:0:0:0:
391,216,19999,5,6,1:0:0:0:
244,143,20166,1,0,0:0:0:0:
311,120,20249,1,0,0:0:0:0:
108,111,20333,2,0,L|10:111,1,92.5,8|0,1:0|0:0,0:0:0:0:
295,207,20666,2,0,L|363:207,1,46.25,2|0,1:3|0:0,0:0:0:0:
125,145,20999,1,8,1:0:0:0:
295,207,21166,1,0,0:0:0:0:
39,122,21333,6,0,L|34:207,1,46.25,6|0,1:2|0:0,0:0:0:0:
186,225,21499,1,0,0:0:0:0:
37,168,21666,1,8,1:0:0:0:
319,152,21832,2,0,L|381:152,1,46.25,0|0,0:0|0:0,0:0:0:0:
176,132,21999,2,0,L|79:131,1,92.5,6|2,1:2|0:0,0:0:0:0:
385,290,22333,2,0,L|449:290,1,46.25,8|0,1:0|0:0,0:0:0:0:
432,290,22499,2,0,L|385:290,1,46.25,0|0,0:0|0:0,0:0:0:0:
173,197,22666,5,10,1:0:0:0:
312,147,22833,2,0,L|385:147,1,46.25,8|8,1:0|1:0,0:0:0:0:
173,197,22999,1,8,1:0:0:0:
312,147,23166,2,0,L|391:147,1,46.25,0|0,1:0|0:0,0:0:0:0:
133,293,23333,2,0,L|61:293,1,46.25,4|0,1:0|1:0,0:0:0:0:
86,293,23499,2,0,L|133:293,1,46.25,0|0,1:0|1:0,0:0:0:0:
361,224,23666,2,0,L|431:225,1,46.25,4|0,1:0|1:0,0:0:0:0:
175,147,23833,2,0,L|111:147,1,46.25,0|0,1:0|1:0,0:0:0:0:
365,141,23999,6,0,L|467:141,2,92.5,4|0|0,1:2|0:0|0:0,0:0:0:0:
122,279,24499,2,0,P|64:247|136:174,1,185,8|0,1:2|0:0,0:0:0:0:
350,184,24999,1,2,0:0:0:0:
257,184,25165,1,0,0:0:0:0:
165,184,25332,1,0,0:0:0:0:
423,111,25499,6,0,L|301:112,2,92.5
182,242,25999,2,0,L|391:241,1,185,0|0,0:0|1:0,0:0:0:0:
115,158,26499,1,0,0:0:0:0:
405,82,26666,6,0,P|470:122|398:179,1,185,4|0,1:2|0:0,0:0:0:0:
181,234,27166,2,0,L|371:233,1,185,8|0,1:2|0:0,0:0:0:0:
122,312,27666,2,0,P|64:288|131:217,1,185,2|0,1:0|0:0,0:0:0:0:
451,177,28166,6,0,L|61:191,1,370
341,121,28999,2,0,L|425:121,1,46.25,8|0,1:2|0:0,0:0:0:0:
189,126,29166,2,0,L|111:126,1,46.25,8|0,1:2|0:0,0:0:0:0:
368,221,29333,6,0,L|470:221,2,92.5,8|0|0,1:2|0:0|0:0,0:0:0:0:
127,190,29833,1,8,1:2:0:0:
260,143,29999,1,0,0:0:0:0:
395,110,30166,1,0,0:0:0:0:
127,190,30333,6,0,L|15:189,2,92.5,2|0|0,0:0|0:0|0:0,0:0:0:0:
379,165,30833,1,2,0:0:0:0:
244,103,30999,1,0,0:0:0:0:
109,105,31166,1,0,0:0:0:0:
424,82,31333,2,0,L|431:188,1,92.5,2|0,0:0|0:0,0:0:0:0:
88,82,31666,2,0,L|81:188,1,92.5,10|0,1:2|1:0,0:0:0:0:
334,208,31999,6,0,L|143:215,1,185,4|2,1:2|0:0,0:0:0:0:
299,127,32499,1,0,0:0:0:0:
149,214,32666,1,8,1:2:0:0:
299,127,32833,1,0,1:0:0:0:
149,214,32999,1,0,0:0:0:0:
467,84,33166,6,0,L|475:217,1,92.5,2|0,0:0|0:0,0:0:0:0:
182,278,33499,2,0,P|125:236|201:169,1,185,2|0,0:0|0:0,0:0:0:0:
331,134,33916,1,0,0:0:0:0:
489,113,33999,2,0,L|420:112,1,46.25,2|2,0:0|0:0,0:0:0:0:
211,163,34166,2,0,L|136:162,1,46.25,2|2,0:0|0:0,0:0:0:0:
384,202,34333,2,0,L|441:202,1,46.25,2|2,0:0|0:0,0:0:0:0:
478,182,34499,2,0,L|486:124,1,46.25,2|2,0:0|0:0,0:0:0:0:
200,209,34666,6,0,L|104:207,1,92.5,12|0,1:2|0:0,0:0:0:0:
379,109,34999,2,0,L|385:227,1,92.5,8|0,1:2|0:0,0:0:0:0:
140,279,35333,2,0,L|31:280,1,92.5,8|0,1:2|0:0,0:0:0:0:
330,215,35666,6,0,L|450:215,2,92.5,8|0|8,1:2|0:0|1:2,0:0:0:0:
90,161,36166,2,0,L|203:160,2,92.5,0|8|0,0:0|1:2|0:0,0:0:0:0:
389,96,36666,2,0,L|395:209,1,92.5,8|0,1:2|0:0,0:0:0:0:
123,96,36999,2,0,L|117:209,1,92.5,8|0,1:2|0:0,0:0:0:0:
430,188,37333,6,0,L|321:187,1,92.5,8|0,1:2|0:0,0:0:0:0:
189,164,37666,1,8,1:2:0:0:
430,188,37833,2,0,L|304:188,1,92.5,0|8,0:0|1:2,0:0:0:0:
189,164,38166,1,0,0:0:0:0:
430,188,38333,2,0,L|322:188,1,92.5,8|0,1:2|0:0,0:0:0:0:
60,192,38666,1,8,1:2:0:0:
357,286,38833,6,0,P|424:256|322:41,1,370,0|0,0:0|0:0,0:0:0:0:
77,204,39666,2,0,L|156:205,1,46.25,0|0,1:0|0:0,0:0:0:0:
349,176,39833,2,0,L|418:176,1,46.25,0|0,0:0|0:0,0:0:0:0:
166,263,39999,6,0,L|72:263,2,92.5,8|0|8,1:2|0:0|1:2,0:0:0:0:
418,146,40499,1,0,0:0:0:0:
280,102,40666,1,8,1:2:0:0:
142,109,40833,1,0,0:0:0:0:
386,231,40999,6,0,L|480:231,2,92.5,8|0|8,1:2|0:0|1:2,0:0:0:0:
134,156,41499,1,0,0:0:0:0:
272,112,41666,1,8,1:2:0:0:
410,119,41833,1,0,0:0:0:0:
134,156,41999,2,0,L|29:156,1,92.5,8|0,1:2|0:0,0:0:0:0:
378,156,42333,2,0,L|483:156,1,92.5,8|0,1:2|0:0,0:0:0:0:
185,225,42666,5,8,1:2:0:0:
330,171,42833,1,8,1:2:0:0:
185,225,42999,1,8,1:2:0:0:
330,171,43166,1,8,1:2:0:0:
51,131,43333,1,8,1:0:0:0:
330,171,43499,2,0,L|401:172,1,46.25,8|0,0:0|0:0,0:0:0:0:
211,123,43666,1,8,1:2:0:0:
38,235,43749,1,8,1:2:0:0:
211,123,43833,5,8,1:2:0:0:
256,192,43999,12,0,45166,1:0:0:0:
106,263,45333,6,0,L|94:183,1,46.25,6|0,1:2|0:0,0:0:0:0:
284,157,45499,1,0,0:0:0:0:
145,181,45666,1,8,1:0:0:0:
400,211,45833,2,0,L|452:212,1,46.25,0|0,0:0|0:0,0:0:0:0:
259,110,45999,2,0,L|139:110,1,92.5,2|0,1:3|0:0,0:0:0:0:
434,94,46333,2,0,L|440:159,1,46.25,8|0,1:0|0:0,0:0:0:0:
206,204,46499,2,0,L|138:204,1,46.25,0|0,0:0|0:0,0:0:0:0:
346,130,46666,5,2,1:3:0:0:
206,204,46833,2,0,L|140:204,1,46.25,0|0,0:0|0:0,0:0:0:0:
359,182,46999,2,0,L|461:182,1,92.5,8|0,1:0|0:0,0:0:0:0:
169,278,47333,2,0,L|93:278,1,46.25,10|2,1:2|0:0,0:0:0:0:
359,182,47499,1,2,0:0:0:0:
89,189,47666,2,0,L|135:189,1,46.25,10|2,0:0|0:0,0:0:0:0:
359,182,47833,1,2,0:0:0:0:
98,272,47999,6,0,L|36:272,1,46.25,6|0,1:2|0:0,0:0:0:0:
239,171,48166,1,0,0:0:0:0:
99,271,48333,1,8,1:0:0:0:
345,241,48499,2,0,L|422:241,1,46.25,0|0,0:0|0:0,0:0:0:0:
180,167,48666,2,0,L|80:167,1,92.5,2|0,1:3|0:0,0:0:0:0:
332,167,48999,2,0,L|432:167,1,92.5,8|0,1:0|0:0,0:0:0:0:
146,258,49333,5,6,1:0:0:0:
420,120,49499,2,2,L|466:120,2,46.25,2|2|2,1:0|1:0|1:0,0:0:0:0:
92,120,49833,2,2,L|45:120,2,46.25,2|2|2,1:0|1:0|1:0,0:0:0:0:
420,120,50166,2,2,L|466:120,2,46.25,2|2|2,1:0|1:0|1:0,0:0:0:0:
92,120,50499,1,2,1:0:0:0:
406,263,50666,6,0,L|418:183,1,46.25,6|0,1:2|0:0,0:0:0:0:
228,157,50832,1,0,0:0:0:0:
367,181,50999,1,8,1:0:0:0:
112,211,51166,2,0,L|60:212,1,46.25,0|0,0:0|0:0,0:0:0:0:
253,110,51333,2,0,L|373:110,1,92.5,2|0,1:3|0:0,0:0:0:0:
78,94,51666,2,0,L|72:159,1,46.25,8|0,1:0|0:0,0:0:0:0:
306,204,51833,2,0,L|374:204,1,46.25,2|0,0:0|0:0,0:0:0:0:
166,130,51999,5,2,1:3:0:0:
306,204,52166,2,0,L|372:204,1,46.25,0|0,0:0|0:0,0:0:0:0:
153,182,52332,2,0,L|51:182,1,92.5,8|0,1:0|0:0,0:0:0:0:
343,278,52666,2,0,L|419:278,1,46.25,6|2,1:2|0:2,0:0:0:0:
153,182,52832,1,2,0:2:0:0:
423,189,52999,2,0,L|376:189,1,46.25,2|2,0:2|0:2,0:0:0:0:
153,182,53166,1,2,0:2:0:0:
414,272,53333,6,0,L|476:272,1,46.25,6|0,1:2|0:0,0:0:0:0:
273,171,53499,1,0,0:0:0:0:
413,271,53666,1,8,1:0:0:0:
167,241,53832,2,0,L|90:241,1,46.25,0|0,0:0|0:0,0:0:0:0:
332,167,53999,2,0,L|432:167,1,92.5,2|2,1:3|0:0,0:0:0:0:
180,167,54332,2,0,L|80:167,1,92.5,8|0,1:0|0:0,0:0:0:0:
366,258,54666,6,0,L|424:258,2,46.25,10|2|2,1:2|0:0|0:0,0:0:0:0:
82,299,54999,2,0,P|75:225|85:161,1,138.75,6|0,0:0|0:0,0:0:0:0:
326,165,55333,1,8,1:0:0:0:
187,144,55499,2,0,L|122:143,1,46.25,0|0,1:0|0:0,0:0:0:0:
326,165,55666,2,0,L|428:165,1,92.5,2|0,1:0|1:0,0:0:0:0:
153,258,55999,5,4,0:0:0:0:
293,191,56166,1,0,0:0:0:0:
246,191,56249,1,0,0:0:0:0:
200,191,56332,1,0,0:0:0:0:
446,110,56499,2,0,L|451:231,1,92.5,4|0,1:2|0:0,0:0:0:0:
311,260,56833,1,0,0:0:0:0:
357,260,56916,1,0,0:0:0:0:
403,260,56999,1,0,1:0:0:0:
118,175,57166,5,4,1:2:0:0:
256,192,57333,12,0,58666,0:0:0:0:
