osu file format v14

[General]
AudioFilename: audio.mp3
AudioLeadIn: 0
PreviewTime: 11999
Countdown: 0
SampleSet: Soft
StackLeniency: 0.3
Mode: 0
LetterboxInBreaks: 0
WidescreenStoryboard: 0

[Editor]
DistanceSpacing: 1.1
BeatDivisor: 4
GridSize: 4
TimelineZoom: 2.200001

[Metadata]
Title:Plasma Gun
TitleUnicode:Plasma Gun
Artist:Memme
ArtistUnicode:Memme
Creator:Kawashiro
Version:Ultra
Source:O2Jam U
Tags:SHOOTING TRANCE Mel fanzhen0019 Deppyforce CelsiusLK Akitoshi
BeatmapID:1380877
BeatmapSetID:651603

[Difficulty]
HPDrainRate:6
CircleSize:4.5
OverallDifficulty:9
ApproachRate:9.8
SliderMultiplier:3.59999990463257
SliderTickRate:1

[Events]
//Background and Video events
0,0,"BG.jpg",0,0
//Break Periods
//Storyboard Layer 0 (Background)
//Storyboard Layer 1 (Fail)
//Storyboard Layer 2 (Pass)
//Storyboard Layer 3 (Foreground)
//Storyboard Sound Samples

[TimingPoints]
0,333.333333333333,4,2,0,100,1,0
2666,-250,4,2,0,100,0,0
11999,-133.333333333333,4,2,0,100,0,0
13333,-100,4,2,0,100,0,1
23999,-250,4,2,0,100,0,0
34666,-200,4,2,0,100,0,0
43833,-133.333333333333,4,2,0,100,0,0
45333,-83.3333333333333,4,2,0,100,0,1
55999,-166.666666666667,4,2,0,100,0,0

[Colours]
Combo1 : 0,85,189
Combo2 : 164,164,255

[HitObjects]
488,80,2666,6,0,B|465:110|465:110|425:123,1,71.9999980926514
284,75,2999,2,0,B|321:79|321:79|352:107,1,71.9999980926514
452,292,3333,1,0,0:0:0:0:
382,255,3499,2,0,B|366:220|366:220|375:179,1,71.9999980926514
244,337,3833,6,0,B|276:353|316:337|316:337|356:321|383:335,1,143.999996185303
276,268,4333,2,0,P|241:259|206:268,1,71.9999980926514
160,332,4666,1,0,0:0:0:0:
360,264,4833,1,0,0:0:0:0:
208,148,4999,1,0,0:0:0:0:
276,348,5166,1,0,0:0:0:0:
4,224,5333,6,0,B|27:194|27:194|67:181,1,71.9999980926514
208,229,5666,2,0,B|171:225|171:225|140:197,1,71.9999980926514
40,12,5999,1,0,0:0:0:0:
110,49,6166,2,0,B|126:84|126:84|117:125,1,71.9999980926514
0,296,6499,6,0,B|-24:272|-24:272|85:264,1,143.999996185303
176,372,6999,2,0,P|157:341|155:306,1,71.9999980926514
212,248,7333,1,0,0:0:0:0:
84,344,7499,1,0,0:0:0:0:
392,288,7666,2,0,L|444:292,1,35.9999990463257
340,228,7833,2,0,L|304:230,1,35.9999990463257
220,332,7999,6,0,B|246:343|246:343|316:308,1,107.999997138977
472,368,8333,2,0,B|444:360|416:368|416:368|388:376|360:368,1,107.999997138977
236,256,8666,2,0,B|228:228|244:204|244:204|228:176|240:152,1,107.999997138977
380,152,8999,6,0,P|349:169|313:171,1,71.9999980926514
88,204,9333,2,0,P|123:205|154:223,1,71.9999980926514
304,380,9666,2,0,L|300:296,1,71.9999980926514
456,232,9999,1,0,0:0:0:0:
468,272,10083,1,0,0:0:0:0:
444,304,10166,1,0,0:0:0:0:
404,300,10249,1,0,0:0:0:0:
384,264,10333,2,0,L|380:228,1,35.9999990463257
276,180,10499,2,0,L|272:215,1,35.9999990463257
192,300,10666,5,0,0:0:0:0:
162,325,10749,1,0,0:0:0:0:
122,331,10833,1,0,0:0:0:0:
86,315,10916,1,0,0:0:0:0:
65,281,10999,1,0,0:0:0:0:
65,242,11083,1,0,0:0:0:0:
86,208,11166,1,0,0:0:0:0:
122,192,11249,1,0,0:0:0:0:
162,198,11333,5,0,0:0:0:0:
232,188,11416,1,0,0:0:0:0:
296,156,11499,1,0,0:0:0:0:
324,88,11583,1,0,0:0:0:0:
296,20,11666,1,0,0:0:0:0:
268,88,11749,1,0,0:0:0:0:
296,156,11833,1,0,0:0:0:0:
360,188,11916,1,0,0:0:0:0:
429,197,11999,6,0,P|440:229|439:263,1,67.5000007867814
312,308,12166,1,0,0:0:0:0:
312,308,12249,1,0,0:0:0:0:
312,308,12333,2,0,P|334:282|363:267,1,67.5000007867814
456,376,12499,2,0,P|426:360|404:335,1,67.5000007867814
156,224,12666,5,0,0:0:0:0:
228,212,12749,1,0,0:0:0:0:
300,200,12833,1,0,0:0:0:0:
372,188,12916,1,0,0:0:0:0:
445,175,12999,2,0,P|445:208|429:237,1,67.5000007867814
324,128,13166,2,0,P|352:110|385:110,1,67.5000007867814
320,384,13333,5,0,0:0:0:0:
268,312,13416,1,0,0:0:0:0:
216,240,13499,2,0,P|203:197|214:153,1,89.9999976158143
88,328,13666,2,0,L|184:320,1,89.9999976158143
472,216,13833,5,0,0:0:0:0:
472,216,13916,1,0,0:0:0:0:
376,204,13999,2,0,L|280:196,1,89.9999976158143
240,64,14166,2,0,B|252:48|252:48|289:107,1,89.9999976158143
176,214,14333,2,0,P|175:171|214:153,1,89.9999976158143
316,280,14499,2,0,B|288:316|288:316|260:280,1,89.9999976158143
116,308,14666,6,0,B|74:331|74:331|132:368|201:341,1,179.999995231629
412,288,14916,1,0,0:0:0:0:
435,376,14999,2,0,P|391:377|349:361,1,89.9999976158143
212,220,15166,2,0,P|239:189|278:205,1,89.9999976158143
496,320,15333,5,0,0:0:0:0:
480,232,15416,1,0,0:0:0:0:
463,143,15499,2,0,P|438:108|395:100,1,89.9999976158143
278,206,15666,2,0,B|296:245|296:245|304:200,1,89.9999976158142
199,83,15833,2,0,B|180:43|180:43|172:88,1,89.9999976158142
52,188,15999,5,0,0:0:0:0:
87,105,16083,1,0,0:0:0:0:
118,22,16166,2,0,P|154:47|172:87,1,89.9999976158143
323,131,16333,2,0,P|282:150|238:145,1,89.9999976158143
52,188,16499,5,0,0:0:0:0:
52,188,16583,1,0,0:0:0:0:
96,264,16666,2,0,B|112:288|112:288|124:208,1,89.9999976158143
296,32,16833,2,0,B|280:8|280:8|268:88,1,89.9999976158143
395,283,16999,1,0,0:0:0:0:
395,283,17083,1,0,0:0:0:0:
395,283,17166,2,0,P|438:290|481:278,1,89.9999976158143
448,76,17333,6,0,B|420:52|420:52|432:208,1,179.999995231629
444,360,17583,1,0,0:0:0:0:
482,279,17666,2,0,P|438:271|395:283,1,89.9999976158143
220,192,17833,2,0,P|262:204|306:196,1,89.9999976158143
448,76,17999,5,0,0:0:0:0:
360,64,18083,1,0,0:0:0:0:
271,44,18166,2,0,P|256:85|265:129,1,89.9999976158143
44,224,18333,1,0,0:0:0:0:
132,212,18416,1,0,0:0:0:0:
220,192,18499,2,0,P|235:233|226:277,1,89.9999976158143
12,308,18666,5,0,0:0:0:0:
44,224,18749,1,0,0:0:0:0:
75,139,18833,2,0,P|44:112|9:135,1,89.9999976158142
77,364,18999,2,0,B|100:352|100:352|113:288,1,89.9999976158143
168,48,19166,5,0,0:0:0:0:
168,48,19249,1,0,0:0:0:0:
256,71,19333,2,0,P|300:69|339:47,1,89.9999976158142
224,192,19499,2,0,B|213:205|213:205|193:135,1,89.9999976158142
8,100,19666,1,0,0:0:0:0:
8,100,19749,1,0,0:0:0:0:
8,100,19833,2,0,B|36:108|36:108|116:92,1,89.9999976158143
328,204,19999,6,0,B|192:220|192:220|155:199,1,179.999995231628
371,123,20249,1,0,0:0:0:0:
442,179,20333,2,0,P|455:222|441:264,1,89.9999976158142
323,63,20499,2,0,P|350:32|389:48,1,89.9999976158143
468,380,20666,5,0,0:0:0:0:
380,380,20749,1,0,0:0:0:0:
286,376,20833,2,0,L|184:372,1,89.9999976158143
32,288,20999,2,0,B|8:252|8:252|51:268,1,89.9999976158142
172,196,21166,2,0,B|196:160|196:160|152:176,1,89.9999976158142
28,36,21333,5,0,0:0:0:0:
112,64,21416,1,0,0:0:0:0:
199,87,21499,2,0,P|244:89|280:64,1,89.9999976158142
444,148,21666,2,0,L|336:144,1,89.9999976158143
280,288,21833,5,0,0:0:0:0:
280,288,21916,1,0,0:0:0:0:
364,328,21999,2,0,B|376:300|376:300|368:232,1,89.9999976158143
260,140,22166,2,0,P|248:168|296:204,1,89.9999976158143
460,48,22333,1,0,0:0:0:0:
460,48,22416,1,0,0:0:0:0:
460,48,22499,2,0,L|356:56,1,89.9999976158143
116,80,22666,5,0,0:0:0:0:
268,356,22833,2,0,B|281:363|281:363|273:289,1,89.9999976158143
238,31,22999,1,0,0:0:0:0:
4,248,23166,2,0,P|43:268|87:263,1,89.9999976158143
317,171,23333,5,0,0:0:0:0:
353,179,23416,1,0,0:0:0:0:
361,215,23499,1,0,0:0:0:0:
337,243,23583,1,0,0:0:0:0:
301,242,23666,2,0,P|262:223|244:182,1,89.9999976158143
116,80,23833,2,0,L|119:169,1,89.9999976158143
68,315,23999,6,0,P|88:267|136:343,1,179.999995231628
68,183,24499,2,0,B|108:167|156:183|156:183|204:199|244:183,1,179.999995231628
224,36,24999,2,0,P|205:66|200:101,1,71.9999980926514
316,244,25333,5,0,0:0:0:0:
392,228,25499,1,0,0:0:0:0:
365,97,25666,1,0,0:0:0:0:
340,170,25833,1,0,0:0:0:0:
467,211,25999,2,0,P|454:179|425:158,1,71.9999980926514
368,308,26333,2,0,L|368:380,1,71.9999980926514
220,244,26666,6,0,P|264:228|224:296,1,179.999995231628
80,332,27166,2,0,B|44:292|44:292|171:298,1,179.999995231628
72,208,27666,2,0,P|57:175|62:140,1,71.9999980926514
288,140,27999,5,0,0:0:0:0:
211,152,28166,1,0,0:0:0:0:
189,20,28333,1,0,0:0:0:0:
239,79,28499,1,0,0:0:0:0:
135,163,28666,2,0,P|135:128|155:98,1,71.9999980926514
272,240,28999,1,0,0:0:0:0:
280,260,29083,1,0,0:0:0:0:
276,280,29166,1,0,0:0:0:0:
264,300,29249,1,0,0:0:0:0:
244,308,29333,6,0,L|436:296,1,179.999995231628
440,160,29833,2,0,B|408:112|408:112|360:240,1,179.999995231628
508,300,30333,2,0,P|502:264|478:234,1,71.9999980926514
312,144,30666,5,0,0:0:0:0:
235,132,30833,1,0,0:0:0:0:
213,264,30999,1,0,0:0:0:0:
263,205,31166,1,0,0:0:0:0:
159,121,31333,2,0,P|159:155|179:185,1,71.9999980926514
240,340,31666,2,0,P|269:322|285:290,1,71.9999980926514
390,161,31999,6,0,P|359:144|324:146,1,71.9999980926514
344,224,32333,1,0,0:0:0:0:
416,76,32499,1,0,0:0:0:0:
452,304,32666,1,0,0:0:0:0:
324,146,32833,2,0,L|324:128,2,17.9999995231628
271,195,32999,1,0,0:0:0:0:
271,195,33083,1,0,0:0:0:0:
271,195,33166,6,0,B|360:176|360:176|406:201,1,143.999996185303
356,324,33666,2,0,L|352:252,1,71.9999980926514
440,100,33999,2,0,L|441:135,1,35.9999990463257
368,40,34166,1,0,0:0:0:0:
368,40,34249,1,0,0:0:0:0:
368,40,34333,2,0,L|398:20,1,35.9999990463257
353,133,34499,2,0,L|320:116,1,35.9999990463257
176,208,34666,5,0,0:0:0:0:
192,212,34749,1,0,0:0:0:0:
209,211,34833,1,0,0:0:0:0:
225,206,34916,1,0,0:0:0:0:
240,196,34999,1,0,0:0:0:0:
255,186,35083,1,0,0:0:0:0:
271,181,35166,1,0,0:0:0:0:
288,180,35249,1,0,0:0:0:0:
304,184,35333,5,0,0:0:0:0:
305,192,35416,1,0,0:0:0:0:
306,200,35499,1,0,0:0:0:0:
308,208,35583,1,0,0:0:0:0:
309,217,35666,1,0,0:0:0:0:
311,225,35749,1,0,0:0:0:0:
312,233,35833,1,0,0:0:0:0:
314,242,35916,1,0,0:0:0:0:
315,250,35999,6,0,L|304:296,3,44.9999988079071
408,324,36333,2,0,P|393:301|373:291,3,44.9999988079071
300,368,36666,2,0,P|326:366|345:354,3,44.9999988079071
236,320,36999,1,0,0:0:0:0:
196,296,37083,1,0,0:0:0:0:
152,292,37166,1,0,0:0:0:0:
112,312,37249,1,0,0:0:0:0:
88,352,37333,5,0,0:0:0:0:
100,326,37416,1,0,0:0:0:0:
103,299,37499,1,0,0:0:0:0:
98,271,37583,1,0,0:0:0:0:
85,246,37666,1,0,0:0:0:0:
71,221,37749,1,0,0:0:0:0:
66,193,37833,1,0,0:0:0:0:
70,166,37916,1,0,0:0:0:0:
82,140,37999,5,0,0:0:0:0:
113,171,38083,1,0,0:0:0:0:
157,183,38166,1,0,0:0:0:0:
200,171,38249,1,0,0:0:0:0:
232,139,38333,1,0,0:0:0:0:
244,96,38416,1,0,0:0:0:0:
232,53,38499,1,0,0:0:0:0:
200,21,38583,1,0,0:0:0:0:
156,8,38666,6,0,P|154:31|157:53,3,44.9999988079071
200,120,38999,2,0,P|203:142|200:164,3,44.9999988079071
156,231,39333,2,0,P|152:253|155:275,3,44.9999988079071
200,340,39666,1,0,0:0:0:0:
252,332,39749,1,0,0:0:0:0:
304,324,39833,1,0,0:0:0:0:
356,316,39916,1,0,0:0:0:0:
408,308,39999,5,0,0:0:0:0:
375,300,40083,1,0,0:0:0:0:
351,277,40166,1,0,0:0:0:0:
344,245,40249,1,0,0:0:0:0:
354,213,40333,1,0,0:0:0:0:
380,192,40416,1,0,0:0:0:0:
413,188,40499,1,0,0:0:0:0:
443,203,40583,1,0,0:0:0:0:
461,231,40666,5,0,0:0:0:0:
426,249,40749,1,0,0:0:0:0:
388,256,40833,1,0,0:0:0:0:
349,251,40916,1,0,0:0:0:0:
313,236,40999,1,0,0:0:0:0:
276,220,41083,1,0,0:0:0:0:
237,216,41166,1,0,0:0:0:0:
199,223,41249,1,0,0:0:0:0:
164,241,41333,6,0,P|168:264|192:296,3,44.9999988079071
292,308,41666,2,0,P|270:299|230:304,3,44.9999988079071
166,383,41999,2,0,P|183:368|199:331,3,44.9999988079071
236,224,42333,1,0,0:0:0:0:
232,180,42416,1,0,0:0:0:0:
228,136,42499,1,0,0:0:0:0:
224,92,42583,1,0,0:0:0:0:
220,48,42666,5,0,0:0:0:0:
420,172,42833,1,0,0:0:0:0:
356,12,42999,1,0,0:0:0:0:
236,224,43166,1,0,0:0:0:0:
512,96,43333,1,0,0:0:0:0:
416,336,43499,2,0,L|408:357,2,22.4999994039536
469,291,43666,1,0,0:0:0:0:
469,291,43749,1,0,0:0:0:0:
469,291,43833,6,0,B|448:256|380:272|380:272|210:306,1,270.000003147125
120,336,44249,1,0,0:0:0:0:
119,336,44333,2,0,P|138:308|141:275,1,67.5000007867814
40,188,44499,2,0,P|67:206|100:209,1,67.5000007867814
336,168,44666,5,0,0:0:0:0:
256,156,44749,1,0,0:0:0:0:
176,144,44833,1,0,0:0:0:0:
96,132,44916,1,0,0:0:0:0:
40,188,44999,2,0,P|67:206|100:209,1,67.5000007867814
228,72,45166,2,0,L|232:-8,1,67.5000007867814
468,92,45333,5,0,0:0:0:0:
444,196,45416,1,0,0:0:0:0:
419,300,45499,2,0,P|369:316|319:298,1,107.999993843079
144,372,45666,2,0,L|256:364,1,107.999993843079
196,180,45833,5,0,0:0:0:0:
196,180,45916,1,0,0:0:0:0:
196,180,45999,2,0,B|184:232|184:232|201:283,1,107.999993843079
444,196,46166,2,0,B|416:120|416:120|403:144,1,107.999993843079
318,297,46333,2,0,P|366:318|390:265,1,107.999993843079
196,180,46499,2,0,P|147:201|123:148,1,107.999993843079
256,96,46666,6,0,B|232:144|256:200|256:200|288:264|256:304,1,215.999987686158
80,256,46916,1,0,0:0:0:0:
80,256,46999,2,0,B|112:240|112:240|192:256,1,107.999993843079
432,144,47166,2,0,B|400:128|400:128|320:144,1,107.999993843079
36,360,47333,5,0,0:0:0:0:
36,360,47416,1,0,0:0:0:0:
36,360,47499,2,0,B|80:372|80:372|141:361,1,107.999993843079
488,96,47666,1,0,0:0:0:0:
488,96,47749,1,0,0:0:0:0:
488,96,47833,2,0,B|444:84|444:84|382:94,1,107.999993843079
36,180,47999,5,0,0:0:0:0:
144,196,48083,1,0,0:0:0:0:
252,212,48166,2,0,P|305:213|350:186,1,107.999993843079
280,16,48333,2,0,L|284:136,1,107.999993843079
472,348,48499,5,0,0:0:0:0:
472,348,48583,1,0,0:0:0:0:
471,348,48666,2,0,P|500:307|465:272,1,107.999993843079
312,248,48833,2,0,B|300:264|300:264|400:256,1,107.999993843079
328,344,48999,2,0,B|240:336|240:336|252:352,1,107.999993843079
439,192,49166,2,0,P|449:139|424:88,1,107.999993843079
340,28,49333,5,0,0:0:0:0:
52,160,49499,1,0,0:0:0:0:
160,148,49583,1,0,0:0:0:0:
268,132,49666,1,0,0:0:0:0:
468,380,49833,1,0,0:0:0:0:
360,364,49916,1,0,0:0:0:0:
252,352,49999,1,0,0:0:0:0:
428,52,50166,5,0,0:0:0:0:
448,156,50249,1,0,0:0:0:0:
471,264,50333,2,0,P|418:262|371:235,1,107.999993843079
268,132,50499,2,0,L|264:20,1,107.999993843079
40,60,50666,5,0,0:0:0:0:
32,168,50749,1,0,0:0:0:0:
24,275,50833,2,0,P|30:327|71:360,1,107.999993843079
204,288,50999,2,0,B|172:264|172:264|96:288,1,107.999993843079
276,360,51166,5,0,0:0:0:0:
276,360,51249,1,0,0:0:0:0:
276,360,51333,2,0,B|328:368|328:368|374:337,1,107.999993843079
315,221,51499,2,0,B|296:208|296:208|311:290,1,107.999993843079
476,360,51666,2,0,L|488:244,1,107.999993843079
380,112,51833,2,0,P|397:159|452:148,1,107.999993843079
308,48,51999,6,0,B|216:48|216:48|148:48|148:120|193:116,1,215.999987686158
276,252,52249,1,0,0:0:0:0:
275,252,52333,2,0,P|288:200|271:150,1,107.999993843079
96,204,52499,2,0,L|212:204,1,107.999993843079
468,344,52666,5,0,0:0:0:0:
468,344,52749,1,0,0:0:0:0:
468,344,52833,2,0,B|416:336|416:336|362:349,1,107.999993843079
44,40,52999,1,0,0:0:0:0:
44,40,53083,1,0,0:0:0:0:
44,40,53166,2,0,B|96:48|96:48|149:34,1,107.999993843079
492,240,53333,5,0,0:0:0:0:
384,228,53416,1,0,0:0:0:0:
275,216,53499,2,0,P|293:165|333:130,1,107.999993843079
432,332,53666,2,0,L|320:320,1,107.999993843079
80,236,53833,5,0,0:0:0:0:
80,236,53916,1,0,0:0:0:0:
80,236,53999,2,0,B|112:248|112:248|184:234,1,107.999993843079
416,104,54166,2,0,P|385:60|335:42,1,107.999993843079
319,271,54333,2,0,B|355:299|355:299|333:129,1,215.999987686158
198,16,54583,1,0,0:0:0:0:
136,85,54666,6,0,P|185:104|238:95,1,107.999993843079
335,42,54833,1,0,0:0:0:0:
483,306,54999,2,0,P|350:291|428:182,1,323.999981529237
420,260,55333,5,0,0:0:0:0:
196,332,55499,2,0,B|136:344|136:344|91:329,1,107.999993843079
152,152,55666,1,0,0:0:0:0:
152,152,55749,1,0,0:0:0:0:
152,152,55833,2,0,P|159:205|148:257,1,107.999993843079
16,372,55999,5,0,0:0:0:0:
248,248,56166,1,0,0:0:0:0:
248,248,56249,1,0,0:0:0:0:
247,248,56333,2,0,P|273:240|300:242,1,53.9999969215394
437,322,56499,2,0,B|400:340|400:340|281:317,1,161.999990764618
147,257,56833,1,0,0:0:0:0:
147,257,56916,1,0,0:0:0:0:
147,257,56999,2,0,L|147:311,1,53.9999969215394
16,372,57166,5,0,0:0:0:0:
256,192,57249,12,0,58666,0:0:0:0:
