osu file format v14

[General]
AudioFilename: audio.mp3
AudioLeadIn: 0
PreviewTime: 11999
Countdown: 0
SampleSet: Soft
StackLeniency: 0.3
Mode: 0
LetterboxInBreaks: 0
WidescreenStoryboard: 1

[Editor]
DistanceSpacing: 1.1
BeatDivisor: 4
GridSize: 4
TimelineZoom: 2.300001

[Metadata]
Title:Plasma Gun
TitleUnicode:Plasma Gun
Artist:Memme
ArtistUnicode:Memme
Creator:Kawashiro
Version:Insane
Source:O2Jam U
Tags:SHOOTING TRANCE Mel fanzhen0019 Deppyforce CelsiusLK Akitoshi
BeatmapID:1380876
BeatmapSetID:651603

[Difficulty]
HPDrainRate:5
CircleSize:4
OverallDifficulty:5.4
ApproachRate:9
SliderMultiplier:1.60000000596046
SliderTickRate:1

[Events]
//Background and Video events
0,0,"BG.jpg",0,0
//Break Periods
//Storyboard Layer 0 (Background)
//Storyboard Layer 1 (Fail)
//Storyboard Layer 2 (Pass)
//Storyboard Layer 3 (Foreground)
//Storyboard Sound Samples

[TimingPoints]
0,333.333333333333,4,2,0,100,1,0
2666,-133.333333333333,4,2,0,100,0,0
13333,-100,4,2,0,100,0,1
23999,-133.333333333333,4,2,0,100,0,0
45333,-100,4,2,0,100,0,1
55999,-100,4,2,0,100,0,0

[Colours]
Combo1 : 0,85,189
Combo2 : 164,164,255

[HitObjects]
64,64,2666,6,0,P|85:84|112:95,1,60.0000025123357
256,56,2999,2,0,P|227:63|203:82,1,60.0000025123357
100,284,3333,1,0,0:0:0:0:
168,232,3499,2,0,L|168:156,1,60.0000025123357
100,284,3833,6,0,P|149:316|207:309,1,120.000005024671
305,218,4333,2,0,P|290:243|289:273,1,60.0000025123357
352,328,4666,1,0,0:0:0:0:
208,216,4833,1,0,0:0:0:0:
384,240,4999,1,0,0:0:0:0:
207,308,5166,1,0,0:0:0:0:
316,112,5333,6,0,P|296:133|285:160,1,60.0000025123357
324,304,5666,2,0,P|317:275|298:251,1,60.0000025123357
96,148,6000,1,0,0:0:0:0:
148,216,6166,2,0,L|208:216,1,60.0000025123357
95,148,6499,2,0,P|64:197|71:256,1,120.000005024671
137,370,6999,2,0,P|142:340|136:312,1,60.0000025123357
56,340,7333,1,0,0:0:0:0:
216,336,7499,1,0,0:0:0:0:
136,140,7666,2,0,L|92:144,1,30.0000012561679
140,212,7833,2,0,L|172:216,1,30.0000012561679
240,184,7999,6,0,L|252:256,1,60.0000025123357
328,276,8333,2,0,L|337:216,1,60.0000025123357
412,180,8666,2,0,L|424:252,1,60.0000025123357
500,272,9000,2,0,L|509:212,1,60.0000025123357
484,104,9333,6,0,L|471:48,3,30.0000012561679
400,80,9666,2,0,L|413:24,3,30.0000012561679
320,108,9999,2,0,L|307:52,3,30.0000012561679
236,84,10332,2,0,L|249:28,3,30.0000012561679
156,64,10666,5,0,0:0:0:0:
132,80,10749,1,0,0:0:0:0:
116,108,10833,1,0,0:0:0:0:
116,136,10916,1,0,0:0:0:0:
128,164,10999,2,0,L|168:184,3,30.0000012561679
220,228,11333,5,0,0:0:0:0:
244,212,11416,1,0,0:0:0:0:
272,208,11499,1,0,0:0:0:0:
300,216,11583,1,0,0:0:0:0:
324,232,11666,2,0,L|368:240,3,30.0000012561679
428,228,11999,6,0,L|424:300,1,60.0000025123357
496,104,12333,2,0,L|500:176,1,60.0000025123357
304,72,12666,1,0,0:0:0:0:
304,96,12749,1,0,0:0:0:0:
316,116,12833,1,0,0:0:0:0:
336,124,12916,1,0,0:0:0:0:
360,120,12999,2,0,L|368:68,1,30.0000012561679
380,12,13166,1,0,0:0:0:0:
496,104,13333,5,0,0:0:0:0:
497,133,13416,1,0,0:0:0:0:
499,163,13499,2,0,L|504:256,1,80.000000298023
376,192,13833,1,0,0:0:0:0:
377,221,13916,1,0,0:0:0:0:
379,251,13999,2,0,L|383:343,2,80.000000298023
376,164,14499,1,0,0:0:0:0:
468,360,14666,5,0,0:0:0:0:
240,258,14833,1,0,0:0:0:0:
269,257,14916,1,0,0:0:0:0:
299,255,14999,2,0,L|391:250,1,80.000000298023
165,341,15333,2,0,L|112:336,2,40.0000001490115
299,255,15666,2,0,L|307:303,1,40.0000001490115
248,184,15833,2,0,L|254:144,1,40.0000001490115
160,264,15999,5,0,0:0:0:0:
190,266,16082,1,0,0:0:0:0:
219,267,16166,2,0,L|298:257,1,80.000000298023
472,340,16499,1,0,0:0:0:0:
442,342,16582,1,0,0:0:0:0:
413,343,16666,2,0,L|333:333,1,80.000000298023
447,205,16999,2,0,L|488:200,2,40.0000001490115
284,124,17333,6,0,L|363:114,1,80.000000298023
392,112,17583,1,0,0:0:0:0:
420,108,17666,2,0,L|499:98,1,80.000000298023
360,208,17999,1,0,0:0:0:0:
331,207,18082,1,0,0:0:0:0:
304,208,18166,2,0,L|230:202,1,40.0000001490115
336,288,18333,1,0,0:0:0:0:
308,288,18416,1,0,0:0:0:0:
281,289,18500,2,0,L|207:282,1,40.0000001490115
129,204,18666,5,0,0:0:0:0:
157,204,18749,1,0,0:0:0:0:
184,205,18833,2,0,L|285:204,1,80.000000298023
456,288,19166,1,0,0:0:0:0:
428,288,19249,1,0,0:0:0:0:
401,289,19333,2,0,L|300:288,1,80.000000298023
208,120,19666,2,0,L|216:80,2,40.0000001490115
72,264,19999,6,0,L|64:176,1,80.000000298023
64,156,20249,1,0,0:0:0:0:
60,128,20333,2,0,L|52:40,1,80.000000298023
164,196,20666,2,0,L|160:252,2,40.0000001490115
272,60,20999,2,0,L|268:16,1,40.0000001490115
328,128,21166,2,0,L|324:167,1,40.0000001490115
360,40,21333,5,0,0:0:0:0:
388,40,21416,1,0,0:0:0:0:
415,41,21500,2,0,L|516:40,1,80.000000298023
324,167,21833,1,0,0:0:0:0:
296,167,21916,1,0,0:0:0:0:
269,168,22000,2,0,L|168:167,1,80.000000298023
328,40,22333,2,0,L|324:-8,2,40.0000001490115
304,256,22666,5,0,0:0:0:0:
488,184,22833,2,0,L|528:184,2,40.0000001490115
328,40,23166,1,0,0:0:0:0:
296,28,23249,1,0,0:0:0:0:
264,28,23333,1,0,0:0:0:0:
236,44,23416,1,0,0:0:0:0:
208,56,23499,1,0,0:0:0:0:
176,56,23583,1,0,0:0:0:0:
148,40,23666,2,0,P|137:78|148:136,1,80.000000298023
300,164,23999,5,0,0:0:0:0:
300,164,24499,1,0,0:0:0:0:
300,164,24999,1,0,0:0:0:0:
300,163,25333,6,0,P|297:193|306:222,1,60.0000025123357
288,304,25666,2,0,P|317:306|346:297,1,60.0000025123357
428,316,25999,2,0,P|430:286|421:257,1,60.0000025123357
440,175,26332,2,0,P|410:172|381:181,1,60.0000025123357
300,164,26666,5,0,0:0:0:0:
300,164,27166,1,0,0:0:0:0:
300,164,27666,1,0,0:0:0:0:
300,163,28000,6,0,P|297:193|306:222,1,60.0000025123357
332,304,28333,2,0,P|358:291|379:269,1,60.0000025123357
438,206,28666,2,0,P|413:189|384:182,1,60.0000025123357
188,232,28999,1,0,0:0:0:0:
176,248,29083,1,0,0:0:0:0:
172,268,29166,1,0,0:0:0:0:
176,288,29249,1,0,0:0:0:0:
188,304,29333,5,0,0:0:0:0:
188,304,29833,1,0,0:0:0:0:
188,304,30333,1,0,0:0:0:0:
188,304,30666,2,0,P|161:290|131:289,1,60.0000025123357
0,372,30999,2,0,P|29:370|56:357,1,60.0000025123357
135,199,31333,2,0,L|139:112,1,60.0000025123357
142,49,31666,1,0,0:0:0:0:
131,289,31999,5,0,0:0:0:0:
131,289,32666,1,0,0:0:0:0:
208,236,32833,2,0,L|208:216,4,15.0000006280839
268,295,33166,6,0,B|360:276|360:276|400:268|440:296|416:372|360:352,1,240.000010049343
308,192,33999,1,0,0:0:0:0:
312,168,34083,1,0,0:0:0:0:
316,144,34166,1,0,0:0:0:0:
320,120,34249,1,0,0:0:0:0:
323,95,34333,2,0,L|316:52,3,30.0000012561679
240,64,34666,6,0,L|252:140,1,60.0000025123357
164,80,34999,2,0,L|176:156,1,60.0000025123357
320,180,35333,2,0,L|310:239,1,60.0000025123357
396,196,35666,2,0,L|386:255,1,60.0000025123357
212,256,35999,5,0,0:0:0:0:
136,272,36166,2,0,L|145:331,2,60.0000025123357
310,239,36666,2,0,L|320:180,1,60.0000025123357
386,255,36999,2,0,L|396:196,1,60.0000025123357
240,64,37333,6,0,L|252:140,1,60.0000025123357
164,80,37666,2,0,L|176:156,1,60.0000025123357
320,180,38000,2,0,L|310:239,1,60.0000025123357
396,196,38333,2,0,L|386:255,1,60.0000025123357
212,256,38666,5,0,0:0:0:0:
136,272,38833,2,0,L|145:331,2,60.0000025123357
310,239,39333,2,0,L|320:180,1,60.0000025123357
386,255,39666,1,0,0:0:0:0:
388,240,39749,1,0,0:0:0:0:
391,225,39832,1,0,0:0:0:0:
393,210,39916,1,0,0:0:0:0:
396,196,39999,6,0,L|472:188,1,60.0000025123357
392,118,40333,2,0,L|452:112,1,60.0000025123357
244,68,40666,2,0,L|320:76,1,60.0000025123357
240,146,41000,2,0,L|299:152,1,60.0000025123357
96,184,41333,5,0,0:0:0:0:
92,106,41499,2,0,L|151:99,2,60.0000025123357
96,184,41999,2,0,L|155:177,1,60.0000025123357
248,300,42333,1,0,0:0:0:0:
272,292,42416,1,0,0:0:0:0:
296,292,42499,1,0,0:0:0:0:
320,300,42583,1,0,0:0:0:0:
340,316,42666,5,0,0:0:0:0:
152,280,42833,1,0,0:0:0:0:
325,198,42999,1,0,0:0:0:0:
233,366,43166,1,0,0:0:0:0:
208,176,43333,1,0,0:0:0:0:
340,316,43499,1,0,0:0:0:0:
152,280,43666,5,0,0:0:0:0:
152,280,43749,1,0,0:0:0:0:
151,279,43833,2,0,P|103:245|46:253,1,120.000005024671
24,280,44249,1,0,0:0:0:0:
0,304,44333,2,0,P|29:311|59:307,1,60.0000025123357
184,180,44666,2,0,L|180:140,2,30.0000012561679
336,260,44999,2,0,L|333:289,2,30.0000012561679
443,43,45333,5,0,0:0:0:0:
444,72,45416,1,0,0:0:0:0:
446,102,45499,2,0,L|451:195,1,80.000000298023
323,131,45833,1,0,0:0:0:0:
324,160,45916,1,0,0:0:0:0:
326,190,45999,2,0,L|330:282,1,80.000000298023
216,160,46333,2,0,L|220:116,1,40.0000001490115
160,228,46500,2,0,L|163:268,1,40.0000001490115
52,156,46666,6,0,P|88:140|127:141,1,80.000000298023
172,152,46916,1,0,0:0:0:0:
216,160,46999,2,0,P|255:161|291:145,1,80.000000298023
428,44,47333,2,0,L|472:48,2,40.0000001490115
240,76,47666,2,0,L|184:72,2,40.0000001490115
364,244,47999,5,0,0:0:0:0:
365,215,48082,1,0,0:0:0:0:
367,185,48165,2,0,L|372:92,1,80.000000298023
236,164,48499,1,0,0:0:0:0:
237,135,48582,1,0,0:0:0:0:
239,105,48665,2,0,L|243:13,1,80.000000298023
120,172,48999,2,0,L|123:252,1,80.000000298023
24,100,49333,5,0,0:0:0:0:
216,216,49499,2,0,L|260:216,2,40.0000001490115
16,328,49833,2,0,L|8:376,2,40.0000001490115
152,96,50166,1,0,0:0:0:0:
152,96,50249,1,0,0:0:0:0:
152,96,50333,2,0,L|248:88,1,80.000000298023
456,56,50666,5,0,0:0:0:0:
427,55,50749,1,0,0:0:0:0:
397,53,50832,2,0,L|304:48,1,80.000000298023
184,184,51166,1,0,0:0:0:0:
213,183,51249,1,0,0:0:0:0:
243,181,51332,2,0,L|335:177,2,80.000000298023
80,240,51833,1,0,0:0:0:0:
236,264,51999,6,0,L|328:260,1,80.000000298023
361,259,52249,1,0,0:0:0:0:
405,255,52333,2,0,L|497:251,1,80.000000298023
272,184,52666,2,0,L|280:140,2,40.0000001490115
380,344,52999,2,0,L|388:388,2,40.0000001490115
440,168,53333,5,0,0:0:0:0:
441,139,53416,1,0,0:0:0:0:
443,109,53499,2,0,L|448:16,1,80.000000298023
308,196,53833,1,0,0:0:0:0:
309,167,53916,1,0,0:0:0:0:
311,137,53999,2,0,L|315:45,1,80.000000298023
443,248,54333,2,0,L|439:156,1,80.000000298023
268,320,54666,6,0,L|276:368,2,40.0000001490115
116,152,54999,2,0,L|120:296,1,120.000000447034
104,316,55333,2,0,P|140:300|179:301,1,80.000000298023
224,312,55583,1,0,0:0:0:0:
268,320,55666,2,0,L|276:368,1,40.0000001490115
344,304,55833,2,0,L|352:352,1,40.0000001490115
424,284,55999,5,0,0:0:0:0:
244,232,56166,2,0,L|184:240,2,40.0000001490115
464,112,56499,2,0,L|448:20,1,80.000000298023
360,188,56833,2,0,L|372:236,2,40.0000001490115
232,104,57166,5,0,0:0:0:0:
256,192,57333,12,0,58666,0:0:0:0:
