osu file format v14

[General]
AudioFilename: audio.mp3
AudioLeadIn: 0
PreviewTime: 11999
Countdown: 0
SampleSet: Soft
StackLeniency: 0.3
Mode: 0
LetterboxInBreaks: 0
WidescreenStoryboard: 1

[Editor]
DistanceSpacing: 1
BeatDivisor: 2
GridSize: 4
TimelineZoom: 0.9000007

[Metadata]
Title:Plasma Gun
TitleUnicode:Plasma Gun
Artist:Memme
ArtistUnicode:Memme
Creator:Kawashiro
Version:Easy
Source:O2Jam U
Tags:SHOOTING TRANCE Mel fanzhen0019 Deppyforce CelsiusLK Akitoshi
BeatmapID:1380875
BeatmapSetID:651603

[Difficulty]
HPDrainRate:1
CircleSize:3.5
OverallDifficulty:0
ApproachRate:2
SliderMultiplier:0.600000005960464
SliderTickRate:1

[Events]
//Background and Video events
0,0,"BG.jpg",0,0
//Break Periods
//Storyboard Layer 0 (Background)
//Storyboard Layer 1 (Fail)
//Storyboard Layer 2 (Pass)
//Storyboard Layer 3 (Foreground)
//Storyboard Sound Samples

[TimingPoints]
0,333.333333333333,4,2,0,100,1,0
13333,-100,4,2,0,100,0,1
23999,-100,4,2,0,100,0,0
45333,-100,4,2,0,100,0,1
55999,-100,4,2,0,100,0,0

[Colours]
Combo1 : 0,85,189
Combo2 : 164,164,255

[HitObjects]
76,348,2666,6,0,L|196:352,1,120.000001192093
280,384,3833,2,0,P|302:329|276:232,1,150.000001490116
252,192,4999,1,0,0:0:0:0:
216,140,5333,6,0,P|206:81|229:26,1,120.000001192093
308,72,6499,2,0,L|464:76,1,150.000001490116
428,128,7666,1,0,0:0:0:0:
392,176,7999,5,0,0:0:0:0:
284,120,8666,1,0,0:0:0:0:
188,188,9333,1,0,0:0:0:0:
80,132,10000,1,0,0:0:0:0:
12,232,10666,2,0,P|1:290|17:347,1,120.000001192093
68,316,11666,1,0,0:0:0:0:
120,284,11999,5,0,0:0:0:0:
120,284,13333,6,0,L|244:284,1,120.000001192093
300,284,14333,1,0,0:0:0:0:
356,303,14666,2,0,P|377:248|361:192,1,120.000001192093
312,152,15666,1,0,0:0:0:0:
260,124,15999,6,0,L|136:124,1,120.000001192093
80,124,16999,1,0,0:0:0:0:
20,124,17333,2,0,P|15:153|17:183,1,60.0000005960464
64,224,17999,2,0,P|68:253|66:283,1,60.0000005960464
116,316,18666,6,0,B|176:316|176:316|240:360,1,120.000001192093
276,320,19666,1,0,0:0:0:0:
328,348,19999,2,0,B|378:315|378:315|438:315,1,120.000001192093
464,260,20999,1,0,0:0:0:0:
436,208,21333,6,0,B|376:208|376:208|312:164,1,120.000001192093
272,153,22333,1,0,0:0:0:0:
217,174,22666,2,0,B|167:207|167:207|107:207,1,120.000001192093
48,208,23666,1,0,0:0:0:0:
76,260,23999,6,0,P|86:314|64:364,2,90.0000008940696
48,208,25333,2,0,L|196:204,1,120.000001192093
280,160,26666,6,0,P|334:149|384:172,2,90.0000008940696
228,188,28000,2,0,L|224:40,1,120.000001192093
172,36,28999,1,0,0:0:0:0:
136,83,29333,6,0,P|95:101|51:93,2,90.0000008940696
172,36,30666,2,0,L|308:40,1,120.000001192093
352,44,31666,1,0,0:0:0:0:
412,48,31999,6,0,P|392:96|424:168,1,120.000001192093
364,232,33166,2,0,B|324:216|288:232|288:232|256:248|216:232,1,150.000001490116
120,164,34666,6,0,L|123:74,2,90.0000008940696
96,219,35999,2,0,P|152:200|211:204,1,120.000001192093
324,252,37333,6,0,L|327:341,2,90.0000008940696
300,196,38666,2,0,P|356:215|415:211,1,120.000001192093
492,120,39999,6,0,L|496:28,2,90.0000008940696
440,88,41333,2,0,P|383:68|324:72,1,120.000001192093
272,100,42333,1,0,0:0:0:0:
216,124,42666,6,0,P|156:127|88:104,1,120.000001192093
40,176,43833,2,0,L|48:328,1,150.000001490116
160,363,45333,6,0,P|210:333|233:279,1,120.000001192093
228,220,46333,1,0,0:0:0:0:
220,160,46666,2,0,B|280:152|280:152|356:172,1,120.000001192093
376,212,47666,1,0,0:0:0:0:
344,264,47999,6,0,B|286:279|286:279|226:271,1,120.000001192093
172,264,48999,1,0,0:0:0:0:
111,255,49333,2,0,P|97:229|94:200,1,60.0000005960464
124,148,49999,2,0,L|196:148,1,60.0000005960464
224,104,50666,6,0,L|360:104,1,120.000001192093
400,124,51666,1,0,0:0:0:0:
444,164,51999,2,0,P|440:236|392:268,1,120.000001192093
368,312,52999,1,0,0:0:0:0:
316,340,53333,6,0,L|180:312,1,120.000001192093
140,304,54333,1,0,0:0:0:0:
80,292,54666,2,0,P|100:232|44:180,1,120.000001192093
24,152,55666,1,0,0:0:0:0:
44,96,55999,6,0,B|50:44|50:44|37:9,1,90.0000008940696
256,192,57166,12,0,58666,0:0:0:0:
