osu file format v14

[General]
AudioFilename: audio.mp3
AudioLeadIn: 0
PreviewTime: 13333
Countdown: 0
SampleSet: Soft
StackLeniency: 0.7
Mode: 3
LetterboxInBreaks: 0
SpecialStyle: 0
WidescreenStoryboard: 0

[Editor]
Bookmarks: 2666,7999,10666,11333,13333,18333,18666,19999,21333,21999,22666,22999,23333,23666,23999,31999,32666,34666,42666,45333,47999,50333,50666,53333,55999,56499,57166
DistanceSpacing: 1.1
BeatDivisor: 4
GridSize: 4
TimelineZoom: 1.1

[Metadata]
Title:Plasma Gun
TitleUnicode:Plasma Gun
Artist:Memme
ArtistUnicode:Memme
Creator:Carol
Version:Basic
Source:O2Jam U
Tags:electronic video game instrumental ParkMemme shooting trance
BeatmapID:1429242
BeatmapSetID:675615

[Difficulty]
HPDrainRate:7
CircleSize:4
OverallDifficulty:7
ApproachRate:5
SliderMultiplier:1.4
SliderTickRate:1

[Events]
//Background and Video events
0,0,"EVEonline-PL4SM4 GUN BG.jpg",0,0
//Break Periods
//Storyboard Layer 0 (Background)
//Storyboard Layer 1 (Fail)
//Storyboard Layer 2 (Pass)
//Storyboard Layer 3 (Foreground)
//Storyboard Layer 4 (Overlay)
//Storyboard Sound Samples

[TimingPoints]
0,333.333333333333,4,2,1,40,1,0
13333,-100,4,2,1,40,0,1
17999,-100,4,2,1,40,0,0
18666,-100,4,2,1,40,0,1
22666,-100,4,2,1,40,0,0
45333,-100,4,2,1,40,0,1
47333,-100,4,2,1,40,0,0
47999,-100,4,2,1,40,0,1
49333,-100,4,2,1,40,0,0
50666,-100,4,2,1,40,0,1
52666,-100,4,2,1,40,0,0
53333,-100,4,2,1,40,0,1
54666,-100,4,2,1,40,0,0

[HitObjects]
448,192,2666,5,4,0:0:0:0:
320,192,2999,1,0,0:0:0:0:
64,192,3333,1,0,0:0:0:0:
192,192,3499,1,0,0:0:0:0:
448,192,3833,1,0,0:0:0:0:
448,192,4166,1,0,0:0:0:0:
320,192,4333,1,0,0:0:0:0:
64,192,4666,1,0,0:0:0:0:
192,192,4833,1,0,0:0:0:0:
448,192,4999,1,0,0:0:0:0:
320,192,5166,1,0,0:0:0:0:
192,192,5333,1,0,0:0:0:0:
320,192,5666,1,0,0:0:0:0:
192,192,5999,1,0,0:0:0:0:
64,192,6333,1,0,0:0:0:0:
448,192,6499,1,0,0:0:0:0:
320,192,6833,1,0,0:0:0:0:
64,192,6999,1,0,0:0:0:0:
192,192,7333,1,0,0:0:0:0:
448,192,7499,1,0,0:0:0:0:
64,192,7666,1,0,0:0:0:0:
320,192,7833,1,0,0:0:0:0:
192,192,7999,1,4,0:0:0:0:
64,192,7999,1,2,0:0:0:0:
192,192,8333,1,2,0:0:0:0:
448,192,8666,1,2,0:0:0:0:
448,192,8999,1,2,0:0:0:0:
64,192,9333,1,2,0:0:0:0:
64,192,9666,1,2,0:0:0:0:
320,192,9999,1,2,0:0:0:0:
320,192,10333,1,2,0:0:0:0:
64,192,10666,1,6,0:0:0:0:
192,192,10999,1,2,0:0:0:0:
320,192,11333,1,6,0:0:0:0:
448,192,11666,128,2,11999:0:0:0:0:
64,192,11999,1,2,0:0:0:0:
64,192,12333,1,2,0:0:0:0:
448,192,12666,128,2,13333:0:0:0:0:
192,192,13333,1,4,0:0:0:0:
64,192,13333,1,2,0:0:0:0:
320,192,13499,1,0,0:0:0:0:
448,192,13666,128,8,13999:0:0:0:0:
64,192,13999,1,2,0:0:0:0:
320,192,14166,1,0,0:0:0:0:
192,192,14333,1,8,0:0:0:0:
448,192,14499,1,0,0:0:0:0:
64,192,14666,128,2,14999:0:0:0:0:
320,192,14999,1,8,0:0:0:0:
192,192,15166,1,0,0:0:0:0:
448,192,15333,128,2,15666:0:0:0:0:
64,192,15666,128,8,15999:0:0:0:0:
192,192,15999,1,2,0:0:0:0:
320,192,16166,1,0,0:0:0:0:
448,192,16333,128,8,16666:0:0:0:0:
64,192,16666,128,2,16999:0:0:0:0:
320,192,16999,1,8,0:0:0:0:
192,192,17166,1,0,0:0:0:0:
448,192,17333,128,2,17666:0:0:0:0:
320,192,17666,1,8,0:0:0:0:
192,192,17833,1,0,0:0:0:0:
64,192,17999,128,2,18333:0:0:0:0:
320,192,18333,128,12,18666:0:0:0:0:
448,192,18666,1,4,0:0:0:0:
64,192,18666,1,2,0:0:0:0:
192,192,18833,1,0,0:0:0:0:
320,192,18999,128,8,19333:0:0:0:0:
448,192,19333,1,2,0:0:0:0:
64,192,19499,1,0,0:0:0:0:
192,192,19666,1,8,0:0:0:0:
448,192,19833,1,0,0:0:0:0:
320,192,19999,1,2,0:0:0:0:
64,192,19999,128,4,20333:0:0:0:0:
192,192,20333,1,8,0:0:0:0:
320,192,20499,1,0,0:0:0:0:
448,192,20666,128,2,20999:0:0:0:0:
64,192,20999,128,8,21333:0:0:0:0:
320,192,21333,1,4,0:0:0:0:
448,192,21333,1,2,0:0:0:0:
192,192,21499,1,0,0:0:0:0:
64,192,21666,128,8,21999:0:0:0:0:
448,192,21999,128,4,22333:0:0:0:0:
192,192,21999,1,2,0:0:0:0:
320,192,22333,128,8,22666:0:0:0:0:
64,192,22666,1,12,0:0:0:0:
64,192,22999,1,12,0:0:0:0:
448,192,23333,1,12,0:0:0:0:
320,192,23499,1,8,0:0:0:0:
192,192,23666,1,12,0:0:0:0:
64,192,23833,1,12,0:0:0:0:
320,192,23999,128,4,24499:0:0:0:0:
448,192,23999,1,2,0:0:0:0:
192,192,24499,128,2,24999:0:0:0:0:
64,192,24499,1,0,0:0:0:0:
448,192,24999,128,0,25499:0:0:0:0:
320,192,25499,1,0,0:0:0:0:
64,192,25666,1,0,0:0:0:0:
448,192,25833,1,0,0:0:0:0:
192,192,25999,128,0,26333:0:0:0:0:
320,192,26333,128,8,26666:0:0:0:0:
64,192,26666,128,2,27166:0:0:0:0:
192,192,26666,1,0,0:0:0:0:
448,192,27166,128,2,27666:0:0:0:0:
320,192,27166,1,0,0:0:0:0:
192,192,27666,128,0,28166:0:0:0:0:
64,192,28166,128,0,28999:0:0:0:0:
192,192,28999,1,8,0:0:0:0:
320,192,29166,1,2,0:0:0:0:
448,192,29333,128,2,29833:0:0:0:0:
64,192,29333,1,0,0:0:0:0:
320,192,29833,128,2,30333:0:0:0:0:
64,192,29833,1,0,0:0:0:0:
192,192,30333,128,0,30833:0:0:0:0:
448,192,30833,128,0,31333:0:0:0:0:
320,192,31333,128,0,31666:0:0:0:0:
192,192,31666,128,8,31999:0:0:0:0:
64,192,31999,128,4,32499:0:0:0:0:
448,192,31999,1,2,0:0:0:0:
448,192,32499,1,0,0:0:0:0:
320,192,32666,1,6,0:0:0:0:
64,192,32999,1,0,0:0:0:0:
192,192,33166,128,2,33499:0:0:0:0:
320,192,33499,128,0,33833:0:0:0:0:
448,192,33999,1,8,0:0:0:0:
320,192,34166,1,8,0:0:0:0:
192,192,34333,1,8,0:0:0:0:
64,192,34499,1,8,0:0:0:0:
320,192,34666,1,4,0:0:0:0:
448,192,34666,1,2,0:0:0:0:
64,192,34999,1,2,0:0:0:0:
192,192,35166,1,0,0:0:0:0:
320,192,35333,1,2,0:0:0:0:
192,192,35666,1,2,0:0:0:0:
64,192,35666,1,0,0:0:0:0:
448,192,35999,1,2,0:0:0:0:
320,192,36166,1,0,0:0:0:0:
192,192,36333,1,2,0:0:0:0:
64,192,36499,1,0,0:0:0:0:
320,192,36666,1,2,0:0:0:0:
448,192,36999,1,2,0:0:0:0:
192,192,37333,1,2,0:0:0:0:
64,192,37333,1,0,0:0:0:0:
320,192,37666,1,2,0:0:0:0:
192,192,37833,1,0,0:0:0:0:
64,192,37999,1,2,0:0:0:0:
448,192,38333,1,2,0:0:0:0:
320,192,38333,1,0,0:0:0:0:
192,192,38666,1,2,0:0:0:0:
320,192,38833,1,0,0:0:0:0:
448,192,38999,1,2,0:0:0:0:
64,192,39333,1,2,0:0:0:0:
320,192,39666,1,2,0:0:0:0:
192,192,39833,1,0,0:0:0:0:
64,192,39999,1,2,0:0:0:0:
448,192,39999,1,0,0:0:0:0:
448,192,40333,1,2,0:0:0:0:
320,192,40499,1,0,0:0:0:0:
192,192,40666,1,2,0:0:0:0:
448,192,40999,1,2,0:0:0:0:
64,192,40999,1,0,0:0:0:0:
192,192,41333,1,2,0:0:0:0:
320,192,41499,1,0,0:0:0:0:
448,192,41666,1,2,0:0:0:0:
192,192,41999,1,2,0:0:0:0:
64,192,42333,1,2,0:0:0:0:
320,192,42666,128,4,42999:0:0:0:0:
448,192,42666,1,2,0:0:0:0:
192,192,42999,128,2,43333:0:0:0:0:
64,192,43333,1,2,0:0:0:0:
448,192,43499,1,2,0:0:0:0:
320,192,43666,1,2,0:0:0:0:
192,192,43833,128,2,44166:0:0:0:0:
64,192,44166,128,8,44666:0:0:0:0:
320,192,44666,1,0,0:0:0:0:
448,192,44833,1,2,0:0:0:0:
192,192,44999,1,2,0:0:0:0:
320,192,45166,1,2,0:0:0:0:
448,192,45333,1,4,0:0:0:0:
64,192,45333,128,2,45666:0:0:0:0:
192,192,45666,128,8,45999:0:0:0:0:
448,192,45999,1,2,0:0:0:0:
320,192,46166,1,0,0:0:0:0:
64,192,46333,1,8,0:0:0:0:
192,192,46499,1,0,0:0:0:0:
320,192,46666,128,2,46999:0:0:0:0:
192,192,46999,1,8,0:0:0:0:
64,192,47166,1,0,0:0:0:0:
448,192,47333,128,8,47666:0:0:0:0:
64,192,47666,128,8,47999:0:0:0:0:
192,192,47999,1,2,0:0:0:0:
448,192,47999,128,4,48333:0:0:0:0:
320,192,48333,128,8,48666:0:0:0:0:
64,192,48666,1,2,0:0:0:0:
192,192,48833,1,0,0:0:0:0:
320,192,48999,1,8,0:0:0:0:
448,192,49166,1,0,0:0:0:0:
64,192,49333,128,8,49666:0:0:0:0:
448,192,49666,128,8,49999:0:0:0:0:
192,192,49999,128,8,50333:0:0:0:0:
320,192,50333,128,12,50666:0:0:0:0:
448,192,50666,1,4,0:0:0:0:
64,192,50666,128,2,50999:0:0:0:0:
192,192,50999,128,8,51333:0:0:0:0:
320,192,51333,1,2,0:0:0:0:
448,192,51499,1,0,0:0:0:0:
192,192,51666,1,8,0:0:0:0:
64,192,51833,1,0,0:0:0:0:
448,192,51999,128,2,52333:0:0:0:0:
192,192,52333,1,8,0:0:0:0:
320,192,52499,1,0,0:0:0:0:
64,192,52666,128,8,52999:0:0:0:0:
192,192,52999,128,8,53333:0:0:0:0:
64,192,53333,1,4,0:0:0:0:
448,192,53333,128,2,53666:0:0:0:0:
320,192,53666,128,8,53999:0:0:0:0:
64,192,53999,1,2,0:0:0:0:
192,192,54166,1,0,0:0:0:0:
320,192,54333,1,8,0:0:0:0:
448,192,54499,1,0,0:0:0:0:
64,192,54666,128,2,54999:0:0:0:0:
192,192,54999,128,2,55333:0:0:0:0:
448,192,55333,1,8,0:0:0:0:
320,192,55499,1,8,0:0:0:0:
192,192,55666,1,8,0:0:0:0:
64,192,55833,1,8,0:0:0:0:
448,192,55999,1,4,0:0:0:0:
320,192,55999,1,2,0:0:0:0:
192,192,56499,1,4,0:0:0:0:
64,192,56499,1,2,0:0:0:0:
448,192,57166,128,2,58666:0:0:0:0:
64,192,57166,128,4,58666:0:0:0:0:
