osu file format v14

[General]
AudioFilename: audio.mp3
AudioLeadIn: 0
PreviewTime: 13333
Countdown: 0
SampleSet: Soft
StackLeniency: 0.7
Mode: 3
LetterboxInBreaks: 0
SpecialStyle: 0
WidescreenStoryboard: 0

[Editor]
Bookmarks: 2666,10666,13333,18333,18666,19999,21333,21999,22666,22999,23333,23666,23833,23999,31999,32666,34666,42666,45333,47999,50333,50666,53333,55999,56499,57166
DistanceSpacing: 1.1
BeatDivisor: 4
GridSize: 4
TimelineZoom: 1.1

[Metadata]
Title:Plasma Gun
TitleUnicode:Plasma Gun
Artist:Memme
ArtistUnicode:Memme
Creator:Carol
Version:Advanced
Source:O2Jam U
Tags:electronic video game instrumental ParkMemme shooting trance
BeatmapID:1429138
BeatmapSetID:675615

[Difficulty]
HPDrainRate:8
CircleSize:4
OverallDifficulty:8
ApproachRate:5
SliderMultiplier:1.4
SliderTickRate:1

[Events]
//Background and Video events
0,0,"EVEonline-PL4SM4 GUN BG.jpg",0,0
//Break Periods
//Storyboard Layer 0 (Background)
//Storyboard Layer 1 (Fail)
//Storyboard Layer 2 (Pass)
//Storyboard Layer 3 (Foreground)
//Storyboard Layer 4 (Overlay)
//Storyboard Sound Samples

[TimingPoints]
0,333.333333333333,4,2,1,40,1,0
13333,-100,4,2,1,40,0,1
17999,-100,4,2,1,40,0,0
18666,-100,4,2,1,40,0,1
22666,-100,4,2,1,40,0,0
45333,-100,4,2,1,40,0,1
47333,-100,4,2,1,40,0,0
47999,-100,4,2,1,40,0,1
49333,-100,4,2,1,40,0,0
50666,-100,4,2,1,40,0,1
52666,-100,4,2,1,40,0,0
53333,-100,4,2,1,40,0,1
54666,-100,4,2,1,40,0,0

[HitObjects]
64,192,2666,5,4,0:0:0:0:
448,192,2666,1,0,0:0:0:0:
320,192,2999,1,0,0:0:0:0:
64,192,3333,1,0,0:0:0:0:
192,192,3499,1,0,0:0:0:0:
448,192,3833,1,0,0:0:0:0:
64,192,3999,1,0,0:0:0:0:
448,192,4166,1,0,0:0:0:0:
192,192,4333,1,0,0:0:0:0:
64,192,4666,1,0,0:0:0:0:
192,192,4833,1,0,0:0:0:0:
448,192,4999,1,0,0:0:0:0:
320,192,5166,1,0,0:0:0:0:
192,192,5333,1,0,0:0:0:0:
320,192,5666,1,0,0:0:0:0:
64,192,5999,1,0,0:0:0:0:
192,192,6166,1,0,0:0:0:0:
64,192,6333,1,0,0:0:0:0:
448,192,6499,1,0,0:0:0:0:
320,192,6833,1,0,0:0:0:0:
64,192,6999,1,0,0:0:0:0:
448,192,7166,1,0,0:0:0:0:
320,192,7499,1,0,0:0:0:0:
64,192,7666,1,0,0:0:0:0:
448,192,7666,1,0,0:0:0:0:
192,192,7833,1,0,0:0:0:0:
320,192,7999,1,2,0:0:0:0:
448,192,7999,1,4,0:0:0:0:
192,192,8166,1,0,0:0:0:0:
320,192,8333,1,0,0:0:0:0:
64,192,8333,1,2,0:0:0:0:
448,192,8499,1,0,0:0:0:0:
64,192,8666,1,2,0:0:0:0:
192,192,8666,1,0,0:0:0:0:
320,192,8833,1,0,0:0:0:0:
448,192,8999,1,0,0:0:0:0:
192,192,8999,1,2,0:0:0:0:
64,192,9166,1,0,0:0:0:0:
320,192,9333,1,2,0:0:0:0:
448,192,9333,1,0,0:0:0:0:
64,192,9499,1,0,0:0:0:0:
192,192,9666,1,0,0:0:0:0:
320,192,9666,1,2,0:0:0:0:
448,192,9833,1,0,0:0:0:0:
192,192,9999,1,2,0:0:0:0:
64,192,9999,1,0,0:0:0:0:
320,192,10166,1,0,0:0:0:0:
64,192,10333,1,0,0:0:0:0:
448,192,10333,1,2,0:0:0:0:
192,192,10499,1,0,0:0:0:0:
320,192,10666,1,2,0:0:0:0:
448,192,10666,1,4,0:0:0:0:
192,192,10749,1,0,0:0:0:0:
64,192,10833,1,0,0:0:0:0:
448,192,10916,1,0,0:0:0:0:
192,192,10999,1,2,0:0:0:0:
320,192,11083,1,0,0:0:0:0:
448,192,11166,1,0,0:0:0:0:
64,192,11249,1,0,0:0:0:0:
320,192,11333,1,4,0:0:0:0:
448,192,11333,1,2,0:0:0:0:
192,192,11416,1,0,0:0:0:0:
64,192,11499,1,0,0:0:0:0:
320,192,11583,1,0,0:0:0:0:
192,192,11666,1,2,0:0:0:0:
448,192,11749,1,0,0:0:0:0:
64,192,11833,1,2,0:0:0:0:
192,192,11916,1,2,0:0:0:0:
320,192,11999,1,2,0:0:0:0:
448,192,11999,1,0,0:0:0:0:
192,192,12166,1,0,0:0:0:0:
320,192,12249,1,0,0:0:0:0:
448,192,12333,1,0,0:0:0:0:
64,192,12333,1,2,0:0:0:0:
192,192,12499,1,0,0:0:0:0:
448,192,12666,1,2,0:0:0:0:
64,192,12666,1,0,0:0:0:0:
320,192,12749,1,0,0:0:0:0:
64,192,12833,1,0,0:0:0:0:
192,192,12916,1,0,0:0:0:0:
320,192,12999,1,0,0:0:0:0:
448,192,13083,1,0,0:0:0:0:
64,192,13166,128,0,13333:0:0:0:0:
448,192,13333,1,4,0:0:0:0:
192,192,13333,1,2,0:0:0:0:
320,192,13416,1,0,0:0:0:0:
192,192,13499,128,0,13666:0:0:0:0:
448,192,13666,128,8,13833:0:0:0:0:
320,192,13666,1,0,0:0:0:0:
64,192,13833,1,0,0:0:0:0:
192,192,13916,1,0,0:0:0:0:
320,192,13999,128,2,14166:0:0:0:0:
448,192,13999,1,0,0:0:0:0:
64,192,14166,128,0,14333:0:0:0:0:
448,192,14333,128,0,14499:0:0:0:0:
192,192,14333,1,8,0:0:0:0:
320,192,14499,128,0,14666:0:0:0:0:
64,192,14666,1,2,0:0:0:0:
192,192,14666,1,0,0:0:0:0:
320,192,14833,1,0,0:0:0:0:
448,192,14916,1,0,0:0:0:0:
64,192,14999,128,0,15166:0:0:0:0:
192,192,14999,1,8,0:0:0:0:
320,192,15166,128,0,15333:0:0:0:0:
448,192,15333,1,2,0:0:0:0:
64,192,15333,1,0,0:0:0:0:
192,192,15416,1,0,0:0:0:0:
320,192,15499,1,0,0:0:0:0:
448,192,15666,1,8,0:0:0:0:
64,192,15666,1,0,0:0:0:0:
64,192,15833,1,0,0:0:0:0:
448,192,15999,1,0,0:0:0:0:
320,192,15999,1,2,0:0:0:0:
192,192,16083,1,0,0:0:0:0:
64,192,16166,128,0,16333:0:0:0:0:
320,192,16333,128,8,16499:0:0:0:0:
448,192,16333,1,0,0:0:0:0:
192,192,16499,1,0,0:0:0:0:
64,192,16583,1,0,0:0:0:0:
448,192,16666,128,2,16833:0:0:0:0:
320,192,16666,1,0,0:0:0:0:
192,192,16833,128,0,16999:0:0:0:0:
320,192,16999,1,8,0:0:0:0:
64,192,16999,1,0,0:0:0:0:
448,192,17083,1,0,0:0:0:0:
192,192,17166,1,0,0:0:0:0:
448,192,17333,1,2,0:0:0:0:
320,192,17333,1,0,0:0:0:0:
64,192,17499,1,0,0:0:0:0:
192,192,17583,1,0,0:0:0:0:
320,192,17666,1,0,0:0:0:0:
448,192,17666,128,8,17833:0:0:0:0:
192,192,17833,128,0,17999:0:0:0:0:
448,192,17999,1,0,0:0:0:0:
64,192,17999,1,2,0:0:0:0:
320,192,18083,1,0,0:0:0:0:
192,192,18166,1,0,0:0:0:0:
64,192,18333,1,4,0:0:0:0:
448,192,18333,1,8,0:0:0:0:
192,192,18416,1,0,0:0:0:0:
320,192,18499,1,0,0:0:0:0:
448,192,18666,1,4,0:0:0:0:
64,192,18666,1,2,0:0:0:0:
320,192,18749,1,0,0:0:0:0:
192,192,18833,128,0,18999:0:0:0:0:
448,192,18999,128,8,19166:0:0:0:0:
320,192,18999,1,0,0:0:0:0:
64,192,19166,1,0,0:0:0:0:
192,192,19249,1,0,0:0:0:0:
320,192,19333,128,2,19499:0:0:0:0:
448,192,19333,1,0,0:0:0:0:
64,192,19499,128,0,19666:0:0:0:0:
448,192,19666,1,8,0:0:0:0:
192,192,19666,1,0,0:0:0:0:
320,192,19749,1,0,0:0:0:0:
192,192,19833,128,0,19999:0:0:0:0:
448,192,19999,1,2,0:0:0:0:
64,192,19999,1,4,0:0:0:0:
320,192,20166,1,0,0:0:0:0:
192,192,20249,1,0,0:0:0:0:
448,192,20333,128,8,20499:0:0:0:0:
64,192,20333,1,0,0:0:0:0:
192,192,20499,128,0,20666:0:0:0:0:
320,192,20666,1,2,0:0:0:0:
64,192,20666,1,0,0:0:0:0:
448,192,20749,1,0,0:0:0:0:
192,192,20833,1,0,0:0:0:0:
320,192,20999,1,8,0:0:0:0:
448,192,20999,1,0,0:0:0:0:
320,192,21166,1,0,0:0:0:0:
64,192,21333,1,4,0:0:0:0:
448,192,21333,1,2,0:0:0:0:
192,192,21416,1,0,0:0:0:0:
320,192,21499,128,0,21666:0:0:0:0:
64,192,21666,128,8,21833:0:0:0:0:
448,192,21666,1,0,0:0:0:0:
192,192,21833,1,0,0:0:0:0:
320,192,21916,1,0,0:0:0:0:
64,192,21999,1,4,0:0:0:0:
448,192,21999,128,2,22166:0:0:0:0:
320,192,22166,128,0,22333:0:0:0:0:
192,192,22333,1,8,0:0:0:0:
64,192,22333,1,0,0:0:0:0:
448,192,22416,1,0,0:0:0:0:
192,192,22499,1,0,0:0:0:0:
448,192,22666,1,4,0:0:0:0:
64,192,22666,1,8,0:0:0:0:
192,192,22833,1,8,0:0:0:0:
64,192,22916,1,8,0:0:0:0:
448,192,22999,1,8,0:0:0:0:
320,192,22999,1,4,0:0:0:0:
192,192,23166,1,8,0:0:0:0:
320,192,23249,1,8,0:0:0:0:
448,192,23333,1,8,0:0:0:0:
64,192,23333,1,4,0:0:0:0:
192,192,23416,1,8,0:0:0:0:
448,192,23499,1,8,0:0:0:0:
320,192,23583,1,8,0:0:0:0:
64,192,23666,1,8,0:0:0:0:
192,192,23666,1,4,0:0:0:0:
320,192,23833,1,4,0:0:0:0:
192,192,23833,1,8,0:0:0:0:
448,192,23999,128,2,24499:0:0:0:0:
320,192,23999,1,4,0:0:0:0:
64,192,24166,1,0,0:0:0:0:
192,192,24333,1,0,0:0:0:0:
320,192,24499,1,0,0:0:0:0:
64,192,24499,128,2,24999:0:0:0:0:
192,192,24666,1,0,0:0:0:0:
448,192,24833,1,0,0:0:0:0:
320,192,24999,128,0,25499:0:0:0:0:
192,192,25166,1,0,0:0:0:0:
64,192,25333,1,0,0:0:0:0:
192,192,25499,128,0,25666:0:0:0:0:
320,192,25666,128,0,25833:0:0:0:0:
448,192,25833,128,0,25999:0:0:0:0:
64,192,25999,128,0,26333:0:0:0:0:
320,192,26166,1,0,0:0:0:0:
192,192,26333,128,8,26666:0:0:0:0:
448,192,26333,1,0,0:0:0:0:
64,192,26499,1,0,0:0:0:0:
448,192,26666,128,2,27166:0:0:0:0:
320,192,26666,1,0,0:0:0:0:
192,192,26833,1,0,0:0:0:0:
64,192,26999,1,0,0:0:0:0:
320,192,27166,128,2,27666:0:0:0:0:
192,192,27166,1,0,0:0:0:0:
448,192,27333,1,0,0:0:0:0:
64,192,27499,1,0,0:0:0:0:
192,192,27666,128,0,28166:0:0:0:0:
448,192,27833,1,0,0:0:0:0:
320,192,27999,1,0,0:0:0:0:
64,192,28166,128,0,28999:0:0:0:0:
448,192,28333,1,0,0:0:0:0:
320,192,28499,1,0,0:0:0:0:
448,192,28666,1,0,0:0:0:0:
192,192,28833,1,0,0:0:0:0:
448,192,28999,1,0,0:0:0:0:
320,192,28999,1,8,0:0:0:0:
192,192,29083,1,0,0:0:0:0:
320,192,29166,1,2,0:0:0:0:
448,192,29249,1,0,0:0:0:0:
64,192,29333,128,2,29833:0:0:0:0:
192,192,29333,1,0,0:0:0:0:
320,192,29499,1,0,0:0:0:0:
448,192,29666,1,0,0:0:0:0:
320,192,29833,1,0,0:0:0:0:
192,192,29833,128,2,30333:0:0:0:0:
448,192,29999,1,0,0:0:0:0:
64,192,30166,1,0,0:0:0:0:
320,192,30333,128,0,30833:0:0:0:0:
448,192,30499,1,0,0:0:0:0:
192,192,30666,1,0,0:0:0:0:
64,192,30833,128,0,31333:0:0:0:0:
448,192,30999,1,0,0:0:0:0:
320,192,31166,1,0,0:0:0:0:
192,192,31333,128,0,31666:0:0:0:0:
448,192,31499,1,0,0:0:0:0:
320,192,31666,128,8,31999:0:0:0:0:
64,192,31666,1,0,0:0:0:0:
192,192,31833,1,0,0:0:0:0:
448,192,31999,1,4,0:0:0:0:
64,192,31999,128,2,32499:0:0:0:0:
192,192,32166,1,0,0:0:0:0:
448,192,32333,1,0,0:0:0:0:
320,192,32499,128,0,32666:0:0:0:0:
192,192,32666,128,4,32833:0:0:0:0:
448,192,32666,1,2,0:0:0:0:
64,192,32833,128,0,32999:0:0:0:0:
192,192,32999,1,0,0:0:0:0:
320,192,33083,1,0,0:0:0:0:
448,192,33166,128,2,33499:0:0:0:0:
64,192,33166,1,0,0:0:0:0:
192,192,33333,1,0,0:0:0:0:
320,192,33499,128,0,33833:0:0:0:0:
64,192,33666,1,0,0:0:0:0:
192,192,33833,1,0,0:0:0:0:
448,192,33999,1,8,0:0:0:0:
64,192,33999,1,0,0:0:0:0:
64,192,34166,1,8,0:0:0:0:
192,192,34249,1,8,0:0:0:0:
448,192,34333,1,0,0:0:0:0:
320,192,34333,1,8,0:0:0:0:
448,192,34499,1,8,0:0:0:0:
320,192,34583,1,8,0:0:0:0:
192,192,34666,1,2,0:0:0:0:
64,192,34666,128,4,35166:0:0:0:0:
448,192,34833,1,0,0:0:0:0:
320,192,34999,1,2,0:0:0:0:
192,192,34999,1,0,0:0:0:0:
448,192,35166,128,0,35666:0:0:0:0:
64,192,35333,1,2,0:0:0:0:
192,192,35333,1,0,0:0:0:0:
320,192,35499,1,0,0:0:0:0:
64,192,35666,1,2,0:0:0:0:
192,192,35666,128,0,36166:0:0:0:0:
320,192,35833,1,0,0:0:0:0:
64,192,35999,1,2,0:0:0:0:
448,192,35999,1,0,0:0:0:0:
320,192,36166,128,0,36333:0:0:0:0:
64,192,36333,128,0,36499:0:0:0:0:
448,192,36333,1,2,0:0:0:0:
192,192,36499,128,0,36666:0:0:0:0:
320,192,36666,1,2,0:0:0:0:
448,192,36666,128,0,36999:0:0:0:0:
64,192,36833,1,0,0:0:0:0:
320,192,36999,128,0,37333:0:0:0:0:
192,192,36999,1,2,0:0:0:0:
448,192,37166,1,0,0:0:0:0:
192,192,37333,1,0,0:0:0:0:
64,192,37333,128,2,37833:0:0:0:0:
448,192,37499,1,0,0:0:0:0:
320,192,37666,1,2,0:0:0:0:
192,192,37666,1,0,0:0:0:0:
448,192,37833,128,0,38333:0:0:0:0:
64,192,37999,1,0,0:0:0:0:
320,192,37999,1,2,0:0:0:0:
192,192,38166,1,0,0:0:0:0:
320,192,38333,1,0,0:0:0:0:
64,192,38333,128,2,38833:0:0:0:0:
448,192,38499,1,0,0:0:0:0:
192,192,38666,1,0,0:0:0:0:
320,192,38666,1,2,0:0:0:0:
448,192,38833,128,0,39666:0:0:0:0:
64,192,38999,1,0,0:0:0:0:
192,192,38999,1,2,0:0:0:0:
320,192,39166,1,0,0:0:0:0:
192,192,39333,1,0,0:0:0:0:
64,192,39333,1,2,0:0:0:0:
320,192,39499,1,0,0:0:0:0:
192,192,39666,1,2,0:0:0:0:
64,192,39666,1,0,0:0:0:0:
320,192,39749,1,0,0:0:0:0:
448,192,39833,1,0,0:0:0:0:
192,192,39916,1,0,0:0:0:0:
64,192,39999,128,2,40499:0:0:0:0:
320,192,39999,1,0,0:0:0:0:
448,192,40166,1,0,0:0:0:0:
192,192,40333,1,0,0:0:0:0:
320,192,40333,1,2,0:0:0:0:
448,192,40499,128,0,40999:0:0:0:0:
192,192,40666,1,2,0:0:0:0:
64,192,40666,1,0,0:0:0:0:
320,192,40833,1,0,0:0:0:0:
192,192,40999,128,2,41333:0:0:0:0:
64,192,40999,1,0,0:0:0:0:
448,192,41166,1,0,0:0:0:0:
320,192,41333,1,2,0:0:0:0:
64,192,41333,1,0,0:0:0:0:
448,192,41499,128,0,41999:0:0:0:0:
320,192,41666,1,0,0:0:0:0:
192,192,41666,1,2,0:0:0:0:
64,192,41833,1,0,0:0:0:0:
320,192,41999,128,2,42333:0:0:0:0:
192,192,41999,1,0,0:0:0:0:
448,192,42166,1,0,0:0:0:0:
192,192,42333,128,2,42666:0:0:0:0:
64,192,42333,1,0,0:0:0:0:
448,192,42499,1,0,0:0:0:0:
320,192,42666,1,4,0:0:0:0:
64,192,42666,1,2,0:0:0:0:
448,192,42833,1,0,0:0:0:0:
192,192,42833,1,2,0:0:0:0:
64,192,42999,1,2,0:0:0:0:
192,192,42999,1,0,0:0:0:0:
320,192,43166,1,2,0:0:0:0:
448,192,43166,1,0,0:0:0:0:
192,192,43333,1,0,0:0:0:0:
320,192,43333,1,2,0:0:0:0:
448,192,43499,1,0,0:0:0:0:
64,192,43499,1,2,0:0:0:0:
192,192,43666,1,2,0:0:0:0:
320,192,43749,1,2,0:0:0:0:
448,192,43833,1,2,0:0:0:0:
64,192,43833,128,0,44166:0:0:0:0:
320,192,44166,1,8,0:0:0:0:
448,192,44166,1,0,0:0:0:0:
192,192,44249,1,8,0:0:0:0:
64,192,44333,1,0,0:0:0:0:
64,192,44499,1,0,0:0:0:0:
192,192,44666,1,0,0:0:0:0:
320,192,44749,1,0,0:0:0:0:
64,192,44833,1,2,0:0:0:0:
448,192,44833,1,0,0:0:0:0:
192,192,44916,1,0,0:0:0:0:
448,192,44999,1,2,0:0:0:0:
320,192,45083,1,0,0:0:0:0:
64,192,45166,1,0,0:0:0:0:
192,192,45166,1,2,0:0:0:0:
448,192,45333,1,4,0:0:0:0:
320,192,45333,1,2,0:0:0:0:
192,192,45416,1,0,0:0:0:0:
64,192,45499,128,0,45666:0:0:0:0:
320,192,45666,128,8,45833:0:0:0:0:
448,192,45666,1,0,0:0:0:0:
64,192,45833,1,0,0:0:0:0:
192,192,45916,1,0,0:0:0:0:
448,192,45999,128,2,46166:0:0:0:0:
320,192,45999,1,0,0:0:0:0:
192,192,46166,128,0,46333:0:0:0:0:
448,192,46333,1,8,0:0:0:0:
64,192,46333,1,0,0:0:0:0:
320,192,46416,1,0,0:0:0:0:
64,192,46499,1,0,0:0:0:0:
192,192,46583,1,0,0:0:0:0:
320,192,46666,1,0,0:0:0:0:
448,192,46666,1,2,0:0:0:0:
64,192,46833,1,0,0:0:0:0:
448,192,46916,1,0,0:0:0:0:
192,192,46999,128,8,47166:0:0:0:0:
320,192,46999,1,0,0:0:0:0:
448,192,47166,128,0,47333:0:0:0:0:
64,192,47333,1,0,0:0:0:0:
192,192,47333,1,8,0:0:0:0:
320,192,47416,1,8,0:0:0:0:
64,192,47499,1,8,0:0:0:0:
448,192,47666,1,0,0:0:0:0:
320,192,47666,1,8,0:0:0:0:
192,192,47749,1,8,0:0:0:0:
448,192,47833,1,8,0:0:0:0:
320,192,47999,1,2,0:0:0:0:
192,192,47999,1,4,0:0:0:0:
64,192,48083,1,0,0:0:0:0:
448,192,48166,128,0,48333:0:0:0:0:
192,192,48333,128,8,48499:0:0:0:0:
320,192,48333,1,0,0:0:0:0:
64,192,48499,1,0,0:0:0:0:
448,192,48583,1,0,0:0:0:0:
320,192,48666,128,2,48833:0:0:0:0:
192,192,48666,1,0,0:0:0:0:
64,192,48833,128,0,48999:0:0:0:0:
448,192,48999,1,0,0:0:0:0:
320,192,48999,1,8,0:0:0:0:
192,192,49083,1,0,0:0:0:0:
320,192,49166,1,0,0:0:0:0:
64,192,49333,1,8,0:0:0:0:
448,192,49333,1,0,0:0:0:0:
192,192,49499,1,8,0:0:0:0:
320,192,49583,1,8,0:0:0:0:
64,192,49666,1,0,0:0:0:0:
192,192,49666,1,8,0:0:0:0:
320,192,49833,1,8,0:0:0:0:
192,192,49916,1,8,0:0:0:0:
320,192,49999,1,8,0:0:0:0:
448,192,49999,1,0,0:0:0:0:
192,192,50166,1,8,0:0:0:0:
320,192,50249,1,8,0:0:0:0:
64,192,50333,1,8,0:0:0:0:
448,192,50333,1,4,0:0:0:0:
192,192,50416,1,8,0:0:0:0:
320,192,50499,128,8,50666:0:0:0:0:
192,192,50666,1,2,0:0:0:0:
64,192,50666,1,4,0:0:0:0:
448,192,50749,1,0,0:0:0:0:
320,192,50833,128,0,50999:0:0:0:0:
64,192,50999,128,8,51166:0:0:0:0:
192,192,50999,1,0,0:0:0:0:
448,192,51166,1,0,0:0:0:0:
320,192,51249,1,0,0:0:0:0:
192,192,51333,128,2,51499:0:0:0:0:
64,192,51333,1,0,0:0:0:0:
448,192,51499,128,0,51666:0:0:0:0:
64,192,51666,128,0,51833:0:0:0:0:
192,192,51666,1,8,0:0:0:0:
320,192,51833,128,0,51999:0:0:0:0:
448,192,51999,1,2,0:0:0:0:
64,192,51999,1,0,0:0:0:0:
192,192,52166,1,0,0:0:0:0:
320,192,52249,1,0,0:0:0:0:
64,192,52333,1,0,0:0:0:0:
448,192,52333,128,8,52499:0:0:0:0:
192,192,52499,128,0,52666:0:0:0:0:
64,192,52666,1,0,0:0:0:0:
448,192,52666,1,8,0:0:0:0:
320,192,52749,1,8,0:0:0:0:
192,192,52833,1,8,0:0:0:0:
64,192,52999,1,8,0:0:0:0:
448,192,52999,1,0,0:0:0:0:
192,192,53083,1,8,0:0:0:0:
320,192,53166,1,8,0:0:0:0:
64,192,53333,1,4,0:0:0:0:
192,192,53333,1,2,0:0:0:0:
448,192,53416,1,0,0:0:0:0:
320,192,53499,128,0,53666:0:0:0:0:
64,192,53666,128,8,53833:0:0:0:0:
192,192,53666,1,0,0:0:0:0:
320,192,53833,1,0,0:0:0:0:
448,192,53916,1,0,0:0:0:0:
192,192,53999,128,2,54166:0:0:0:0:
64,192,53999,1,0,0:0:0:0:
320,192,54166,128,0,54333:0:0:0:0:
448,192,54333,1,8,0:0:0:0:
64,192,54333,1,0,0:0:0:0:
192,192,54416,1,0,0:0:0:0:
320,192,54499,1,0,0:0:0:0:
192,192,54666,1,2,0:0:0:0:
448,192,54666,1,0,0:0:0:0:
64,192,54749,1,0,0:0:0:0:
320,192,54833,1,0,0:0:0:0:
64,192,54999,128,2,55333:0:0:0:0:
192,192,54999,1,0,0:0:0:0:
320,192,55333,1,8,0:0:0:0:
448,192,55333,1,0,0:0:0:0:
192,192,55499,1,8,0:0:0:0:
64,192,55499,1,0,0:0:0:0:
320,192,55583,1,8,0:0:0:0:
448,192,55666,1,8,0:0:0:0:
64,192,55749,1,8,0:0:0:0:
192,192,55833,1,8,0:0:0:0:
320,192,55833,1,0,0:0:0:0:
64,192,55999,1,4,0:0:0:0:
448,192,55999,128,2,56166:0:0:0:0:
320,192,56166,1,8,0:0:0:0:
192,192,56249,1,8,0:0:0:0:
64,192,56333,1,8,0:0:0:0:
448,192,56499,128,2,56833:0:0:0:0:
320,192,56499,128,4,56833:0:0:0:0:
64,192,56833,1,8,0:0:0:0:
192,192,56916,1,8,0:0:0:0:
320,192,56999,1,8,0:0:0:0:
448,192,57166,128,4,58666:0:0:0:0:
64,192,57166,128,2,58666:0:0:0:0:
192,192,57166,128,0,58666:0:0:0:0:
