osu file format v14

[General]
AudioFilename: audio.mp3
AudioLeadIn: 0
PreviewTime: 93751
Countdown: 0
SampleSet: Soft
StackLeniency: 0.3
Mode: 0
LetterboxInBreaks: 0
WidescreenStoryboard: 1

[Editor]
Bookmarks: 11608,36751,89680,93894
DistanceSpacing: 1
BeatDivisor: 4
GridSize: 16
TimelineZoom: 2.1

[Metadata]
Title:Pandemonium
TitleUnicode:Pandemonium
Artist:Memme
ArtistUnicode:Memme
Creator:sdafsf
Version:Hard
Source:O2Jam U
Tags:rhythm game o2 jam parkmemme just another beatmap contest number # 3 #3 three jabc nextplay Realazy Lasse revurii NeilPerry pishifat lowcombofc handsome how2miss
BeatmapID:1550983
BeatmapSetID:734190

[Difficulty]
HPDrainRate:4
CircleSize:4
OverallDifficulty:6.5
ApproachRate:8
SliderMultiplier:1.6
SliderTickRate:1

[Events]
//Background and Video events
0,0,"0turtle.jpg",0,0
//Break Periods
2,20751,24573
2,75808,83715
//Storyboard Layer 0 (Background)
//Storyboard Layer 1 (Fail)
//Storyboard Layer 2 (Pass)
//Storyboard Layer 3 (Foreground)
//Storyboard Sound Samples

[TimingPoints]
1323,285.714285714286,4,2,1,40,1,0
2465,-100,4,2,1,40,0,0
11608,-100,4,2,1,40,0,0
16180,-100,4,2,1,70,0,0
17894,-100,4,2,1,70,0,0
18465,-100,4,2,1,70,0,0
19323,-100,4,2,1,40,0,0
28608,-100,4,2,1,40,0,0
36751,-100,4,2,1,50,0,0
37751,-100,4,2,1,50,0,0
38037,-100,4,2,1,50,0,0
39037,-100,4,2,1,90,0,0
39251,-100,4,2,1,60,0,0
41323,-100,4,2,1,80,0,0
41537,-100,4,2,1,60,0,0
41751,-100,4,2,1,60,0,0
42894,-100,4,2,1,60,0,0
43608,-100,4,2,1,90,0,0
44037,-100,4,2,1,60,0,0
45608,-100,4,2,1,55,0,0
45894,-100,4,2,1,45,0,0
48180,-100,4,2,1,40,0,0
48751,-100,4,2,1,60,0,0
50465,-100,4,2,1,80,0,0
50680,-100,4,2,1,60,0,0
50894,-100,4,2,1,60,0,0
52037,-100,4,2,1,60,0,0
52751,-100,4,2,1,90,0,0
53180,-100,4,2,1,60,0,0
54751,-100,4,2,1,100,0,0
55037,-100,4,2,1,50,0,0
56037,-100,4,2,1,100,0,0
56323,-100,4,2,1,40,0,0
57358,-100,4,2,1,5,0,0
57608,-100,4,2,1,15,0,0
57680,-100,4,2,1,25,0,0
57751,-100,4,2,1,35,0,0
57823,-100,4,2,1,55,0,0
57894,-100,4,2,1,50,0,0
61894,-100,4,2,1,40,0,0
62465,-100,4,2,1,50,0,0
66465,-100,4,2,1,5,0,0
66715,-100,4,2,1,15,0,0
66787,-100,4,2,1,25,0,0
66858,-100,4,2,1,35,0,0
66930,-100,4,2,1,55,0,0
67001,-100,4,2,1,50,0,0
74465,-100,4,2,1,100,0,0
74537,-100,4,2,1,50,0,0
84751,-100,4,2,1,45,0,0
89323,-100,4,2,1,40,0,0
91608,-100,4,2,1,60,0,0
92608,-100,4,2,1,40,0,0
93323,-100,4,2,1,100,0,0
93894,-100,4,2,1,100,0,0
94465,-100,4,2,1,40,0,1
94608,-100,4,2,1,80,0,1
96037,-100,4,2,2,40,0,0
96465,-100,4,2,1,70,0,0
96751,-100,4,2,1,40,0,1
96894,-100,4,2,1,80,0,1
97180,-100,4,2,2,80,0,1
97323,-100,4,2,1,80,0,1
98465,-100,4,2,1,100,0,0
98501,-100,4,2,1,100,0,0
99037,-100,4,2,1,40,0,1
99180,-100,4,2,1,80,0,1
99465,-100,4,2,2,80,0,1
99608,-100,4,2,1,80,0,1
100751,-100,4,2,1,60,0,0
103037,-100,4,2,1,40,0,0
103608,-100,4,2,1,40,0,1
103751,-100,4,2,1,80,0,1
105180,-100,4,2,2,40,0,0
105608,-100,4,2,1,70,0,0
105894,-100,4,2,1,40,0,1
106037,-100,4,2,1,80,0,1
106323,-100,4,2,2,80,0,1
106465,-100,4,2,1,80,0,1
107608,-100,4,2,1,70,0,0
110180,-100,4,2,1,90,0,0
110751,-100,4,2,1,40,0,0
111608,-100,4,2,1,90,0,0
111644,-100,4,2,1,40,0,0
112180,-100,4,2,1,30,0,0
120037,-100,4,2,1,45,0,0
121894,-100,4,2,1,38,0,0
128180,-100,4,2,1,50,0,0

[Colours]
Combo1 : 34,139,255
Combo2 : 151,255,239
Combo3 : 147,255,180
Combo4 : 255,183,221
Combo5 : 210,128,255
Combo6 : 255,62,67

[HitObjects]
57,287,2180,5,0,0:0:0:0:
86,282,2323,1,0,0:0:0:0:
116,292,2465,2,0,P|174:307|252:238,1,160,2|2,0:0|0:0,0:0:0:0:
239,169,2894,2,0,P|276:155|316:156,1,80,2|0,0:0|0:0,0:0:0:0:
386,117,3180,2,0,P|423:130|453:156,1,80,2|0,0:0|0:0,0:0:0:0:
509,99,3465,2,0,P|534:169|478:247,1,160,2|0,0:0|0:0,0:0:0:0:
493,238,3823,1,0,0:0:0:0:
493,238,3894,1,2,0:0:0:0:
443,300,4037,2,0,L|344:291,1,80,2|0,0:0|0:0,0:0:0:0:
282,295,4323,2,0,L|183:304,1,80,2|0,0:0|0:0,0:0:0:0:
131,339,4608,6,0,P|170:285|63:179,1,240,2|2,0:0|0:0,0:0:0:0:
18,116,5180,2,0,P|70:94|121:108,1,80,2|0,0:0|0:0,0:0:0:0:
155,145,5465,2,0,P|189:164|229:165,1,80,2|0,0:0|0:0,0:0:0:0:
294,117,5751,2,0,P|297:192|389:198,1,160,2|0,0:0|0:0,0:0:0:0:
368,210,6108,1,0,0:0:0:0:
368,210,6180,1,2,0:0:0:0:
440,176,6323,2,0,P|461:223|388:296,1,160,2|2,0:0|0:0,0:0:0:0:
423,371,6751,2,0,P|371:373|333:344,1,80,2|0,0:0|0:0,0:0:0:0:
316,286,7037,6,0,P|265:250|163:297,1,160,2|0,0:0|0:0,0:0:0:0:
99,295,7465,2,0,L|90:199,1,80,2|0,0:0|0:0,0:0:0:0:
25,168,7751,2,0,L|34:72,1,80,2|0,0:0|0:0,0:0:0:0:
98,41,8037,2,0,P|157:30|202:111,1,160,2|0,0:0|0:0,0:0:0:0:
203,106,8394,1,0,0:0:0:0:
203,106,8465,1,2,0:0:0:0:
247,184,8608,2,0,P|312:174|342:143,1,80,2|0,0:0|0:0,0:0:0:0:
375,106,8894,2,0,P|414:105|450:123,1,80,2|0,0:0|0:0,0:0:0:0:
477,199,9180,6,0,B|449:242|449:242|248:260,1,240,2|2,0:0|0:0,0:0:0:0:
182,273,9751,2,0,L|179:373,1,80,2|0,0:0|0:0,0:0:0:0:
102,278,10037,2,0,L|99:378,1,80,2|0,0:0|0:0,0:0:0:0:
25,325,10323,6,0,P|79:260|44:170,1,160,2|0,0:0|0:0,0:0:0:0:
64,191,10680,1,0,0:0:0:0:
64,191,10751,1,2,0:0:0:0:
120,134,10894,2,0,P|173:88|260:116,1,160,2|2,0:0|0:0,0:0:0:0:
309,50,11323,2,0,P|333:98|326:152,1,80,2|0,0:0|0:0,0:0:0:0:
357,200,11608,6,0,P|445:207|490:135,1,160,2|2,0:0|0:0,0:0:0:0:
417,57,12037,2,0,L|411:143,1,80,2|0,0:0|0:0,0:0:0:0:
357,200,12323,2,0,L|363:286,1,80,2|0,0:0|0:0,0:0:0:0:
431,320,12608,2,0,B|380:299|380:299|257:320,1,160,2|0,0:0|0:0,0:0:0:0:
276,316,12965,1,0,0:0:0:0:
276,316,13037,1,2,0:0:0:0:
204,352,13180,2,0,P|156:352|111:314,1,80,2|0,0:0|0:0,0:0:0:0:
68,286,13465,2,0,P|44:244|54:186,1,80,2|0,0:0|0:0,0:0:0:0:
123,227,13751,6,0,P|74:197|146:73,1,240,2|2,0:0|0:0,0:0:0:0:
174,150,14323,2,0,L|266:153,1,80,2|0,0:0|0:0,0:0:0:0:
312,97,14608,2,0,L|404:94,1,80,2|0,0:0|0:0,0:0:0:0:
448,37,14894,2,0,P|422:98|501:170,1,160,2|0,0:0|0:0,0:0:0:0:
507,92,15323,1,0,3:0:0:0:
507,92,15465,1,0,3:0:0:0:
481,184,15608,1,0,3:0:0:0:
350,315,15894,1,0,3:0:0:0:
350,315,16037,1,0,3:0:0:0:
270,293,16180,6,0,L|176:303,2,80,8|0|0,0:1|0:0|0:0,0:0:0:0:
142,210,16608,2,0,L|236:220,2,80,8|0|0,0:1|0:0|0:0,0:0:0:0:
306,229,17037,2,0,L|400:239,2,80,8|0|0,0:1|0:0|0:0,0:0:0:0:
447,147,17465,2,0,L|353:157,2,80,8|0|0,0:1|0:0|0:0,0:0:0:0:
313,92,17894,6,0,P|392:113|333:19,1,240,8|0,0:1|0:0,0:0:0:0:
263,25,18465,2,0,L|169:35,2,80,8|0|0,0:1|0:0|0:0,0:0:0:0:
130,110,18894,2,0,L|224:120,2,80,8|0|0,0:1|0:0|0:0,0:0:0:0:
236,196,19323,6,0,B|193:150|241:79|323:87|370:155|380:236|234:350,1,400,8|0,0:1|0:0,0:0:0:0:
170,356,20180,1,0,3:0:0:0:
170,356,20323,1,0,3:0:0:0:
256,192,25323,12,2,28180,0:0:0:0:
59,79,28608,6,0,L|153:86,1,80,2|0,0:0|0:0,0:0:0:0:
245,158,28894,2,0,L|86:175,1,160,2|0,0:0|0:0,0:0:0:0:
11,191,29323,2,0,L|22:296,1,80,2|2,0:0|0:0,0:0:0:0:
35,278,29537,1,2,0:0:0:0:
48,290,29608,2,0,L|53:326,8,20,2|0|0|0|0|0|0|0|4,0:0|0:0|0:0|0:0|0:0|0:0|0:0|0:0|0:0,0:0:0:0:
236,347,30180,6,0,P|287:333|341:355,2,80,0|0|0,0:0|0:0|0:0,0:0:0:0:
390,303,30751,1,2,0:0:0:0:
390,303,30894,2,0,L|393:202,1,80,2|0,0:0|0:0,0:0:0:0:
457,175,31180,2,0,L|454:74,1,80,2|0,0:0|0:0,0:0:0:0:
389,37,31465,2,0,B|288:125|267:14|160:90,1,240,2|2,0:0|0:0,0:0:0:0:
202,158,32037,2,0,P|137:164|109:141,1,80,2|0,0:0|0:0,0:0:0:0:
14,312,32751,6,0,L|129:304,1,80,2|2,0:0|0:0,0:0:0:0:
158,258,33037,1,2,0:0:0:0:
228,296,33180,2,0,L|227:346,2,40,0|0|0,0:0|0:0|0:0,0:0:0:0:
281,236,33465,2,0,L|383:250,1,80,0|0,0:0|0:0,0:0:0:0:
472,361,33894,1,2,0:0:0:0:
432,291,34037,2,0,L|437:236,1,40,2|0,0:0|0:0,0:0:0:0:
447,280,34180,2,0,L|454:173,1,80,2|0,0:0|0:0,0:0:0:0:
409,132,34465,6,0,P|361:147|308:129,2,80,0|0|0,0:0|0:0|0:0,0:0:0:0:
252,96,35037,2,0,P|183:78|115:153,1,160,0|0,0:0|0:0,0:0:0:0:
54,170,35465,2,0,L|63:269,1,80,2|0,0:0|0:0,0:0:0:0:
152,252,35751,2,0,L|143:351,1,80,2|0,0:0|0:0,0:0:0:0:
75,371,36037,2,0,B|212:378|212:378|284:338,1,200,2|0,0:0|0:0,0:0:0:0:
335,300,36608,1,2,0:0:0:0:
399,352,36751,6,0,P|369:307|404:234,1,120,4|0,0:1|0:0,0:0:0:0:
405,234,37037,2,0,P|409:214|357:208,1,80,0|0,0:0|0:0,0:0:0:0:
394,160,37323,2,0,P|378:112|393:64,1,80,8|8,0:0|0:1,0:0:0:0:
383,83,37751,2,0,P|335:107|241:47,1,160,12|0,0:0|0:0,0:0:0:0:
250,48,38108,2,0,P|217:41|188:47,1,40,0|0,0:0|0:0,0:0:0:0:
96,20,38323,1,2,0:0:0:0:
140,80,38465,2,0,L|136:175,1,80,2|0,0:0|0:0,0:0:0:0:
80,217,38751,2,0,L|84:312,1,80,2|0,0:0|0:0,0:0:0:0:
152,338,39037,6,0,B|187:290|292:314|292:314,1,120,10|2,0:1|0:0,0:0:0:0:
376,349,39465,2,0,P|402:358|441:358,2,40,0|0|8,0:0|0:0|0:0,0:0:0:0:
339,277,39751,2,0,L|332:230,2,40,0|0|0,0:0|0:0|0:0,0:0:0:0:
406,224,40037,2,0,P|337:237|290:138,1,160,10|0,0:1|0:0,0:0:0:0:
294,167,40394,2,0,P|296:140|316:104,1,40,0|0,0:0|0:0,0:0:0:0:
363,78,40608,1,0,0:0:0:0:
294,36,40751,2,0,P|227:25|199:39,1,80,8|0,0:0|0:0,0:0:0:0:
186,54,40965,1,0,0:0:0:0:
186,54,41037,2,0,P|146:59|109:46,1,80,0|0,0:0|0:0,0:0:0:0:
52,0,41323,6,0,B|101:45|23:134|23:134,1,120,10|2,0:1|0:0,0:0:0:0:
116,202,41751,1,0,0:0:0:0:
50,247,41894,2,0,P|96:279|142:277,1,80,8|0,0:0|0:0,0:0:0:0:
118,281,42108,1,0,0:0:0:0:
118,281,42180,1,0,0:0:0:0:
167,355,42323,2,0,P|155:296|236:254,1,160,10|8,0:1|0:1,0:0:0:0:
339,246,42894,2,0,L|436:241,2,80,0|8|0,0:0|0:0|0:0,0:0:0:0:
308,219,43251,1,0,0:0:0:0:
308,219,43323,2,0,L|318:116,1,80,8|8,0:1|0:0,0:0:0:0:
391,112,43608,6,0,P|328:126|369:63,1,160,10|2,0:1|0:0,0:0:0:0:
427,45,44037,2,0,L|429:0,2,40,0|0|8,0:0|0:0|0:0,0:0:0:0:
462,117,44323,2,0,L|500:167,2,40,0|0|0,0:0|0:0|0:0,0:0:0:0:
428,196,44608,2,0,P|482:217|483:273,1,120,10|0,0:1|0:0,0:0:0:0:
471,274,44894,2,0,P|468:306|477:333,1,40,0|0,0:0|0:0,0:0:0:0:
367,377,45180,1,0,0:0:0:0:
347,295,45323,2,0,P|301:318|284:364,1,80,8|0,0:0|0:0,0:0:0:0:
296,351,45537,1,0,0:0:0:0:
297,352,45608,2,0,L|204:352,1,80,0|0,0:0|0:0,0:0:0:0:
134,302,45894,6,0,P|195:321|200:233,1,160,8|2,0:1|0:0,0:0:0:0:
160,184,46323,2,0,P|116:123|176:35,1,160,2|2,0:0|0:0,0:0:0:0:
229,60,46751,1,2,0:0:0:0:
295,109,46894,2,0,P|344:120|381:106,2,80,12|2|12,0:1|0:0|0:1,0:0:0:0:
333,41,47323,1,2,0:0:0:0:
371,111,47465,2,0,L|364:275,1,160,2|2,0:0|0:0,0:0:0:0:
298,306,47894,2,0,P|332:312|358:360,1,80,8|10,0:1|0:0,0:0:0:0:
289,383,48180,5,8,0:1:0:0:
35,297,48751,2,0,P|80:271|119:280,1,80,8|0,0:0|0:0,0:0:0:0:
106,274,48965,1,0,0:0:0:0:
106,274,49037,1,0,0:0:0:0:
182,335,49180,2,0,P|136:285|168:203,1,160,10|0,0:1|0:0,0:0:0:0:
174,209,49537,2,0,P|189:192|222:176,1,40,0|0,0:0|0:0,0:0:0:0:
280,203,49751,1,0,0:0:0:0:
338,257,49894,2,0,P|310:204|327:151,1,80,8|0,0:0|0:0,0:0:0:0:
343,162,50108,1,0,0:0:0:0:
343,162,50180,2,0,P|371:109|354:56,1,80,0|0,0:0|0:0,0:0:0:0:
311,35,50465,6,0,B|321:77|424:69|424:69,1,120,10|2,0:1|0:0,0:0:0:0:
512,0,50894,1,0,0:0:0:0:
492,77,51037,2,0,L|491:185,1,80,8|0,0:0|0:0,0:0:0:0:
491,156,51251,1,0,0:0:0:0:
491,156,51323,1,0,0:0:0:0:
417,187,51465,2,0,P|446:229|381:304,1,160,10|8,0:1|0:1,0:0:0:0:
227,291,52037,1,0,0:0:0:0:
287,238,52180,2,0,L|281:145,1,80,8|0,0:0|0:0,0:0:0:0:
247,137,52394,1,0,0:0:0:0:
247,137,52465,2,0,L|253:44,1,80,8|8,0:1|0:0,0:0:0:0:
318,12,52751,6,0,B|354:23|356:54|334:88|293:92|225:86|179:40,1,200,10|2,0:1|0:0,0:0:0:0:
171,40,53180,2,0,L|178:-2,2,40,0|0|8,0:0|0:0|0:0,0:0:0:0:
118,100,53465,2,0,L|125:142,2,40,0|0|0,0:0|0:0|0:0,0:0:0:0:
46,62,53751,2,0,P|77:145|42:208,1,160,10|0,0:1|0:0,0:0:0:0:
31,202,54108,2,0,P|21:233|33:265,1,40,0|0,0:0|0:0,0:0:0:0:
58,311,54323,1,0,0:0:0:0:
122,264,54465,2,0,P|182:278|226:258,1,80,8|0,0:0|0:0,0:0:0:0:
198,273,54680,1,0,0:0:0:0:
198,273,54751,1,8,0:3:0:0:
355,300,55037,6,0,P|404:324|450:317,2,80,0|0|0,0:0|0:0|0:0,0:0:0:0:
310,233,55465,2,0,P|339:176|315:79,1,160,2|2,0:0|0:0,0:0:0:0:
259,31,55894,1,8,0:1:0:0:
207,94,56037,2,0,B|238:72|238:72|333:87,1,120,8|0,0:0|0:0,0:0:0:0:
359,83,56323,6,0,P|401:42|424:137,1,200,0|0,0:0|0:0,0:0:0:0:
398,158,56751,2,0,L|406:265,1,80,2|2,0:0|0:0,0:0:0:0:
434,264,56965,1,0,0:0:0:0:
434,264,57037,2,0,L|426:371,1,80,2|2,0:0|0:0,0:0:0:0:
502,375,57323,5,8,0:1:0:0:
182,353,57894,2,0,P|223:307|188:192,1,160,10|2,0:0|0:0,0:0:0:0:
133,194,58323,2,0,P|186:198|236:160,2,80,2|8|2,0:0|0:1|0:0,0:0:0:0:
164,120,58751,2,0,B|216:110|216:110|334:137,1,160,2|10,0:0|0:0,0:0:0:0:
371,196,59180,2,0,P|385:258|365:293,1,80,2|0,0:0|0:0,0:0:0:0:
323,327,59465,6,0,P|376:291|467:342,1,160,2|2,0:0|0:0,0:0:0:0:
497,254,59894,2,0,L|481:83,1,160,2|8,0:0|0:0,0:0:0:0:
402,72,60323,2,0,L|409:-20,2,80,0|0|0,0:0|0:0|0:0,0:0:0:0:
333,114,60751,2,0,P|274:81|176:122,1,160,8|2,0:1|0:0,0:0:0:0:
155,179,61180,1,2,0:0:0:0:
175,256,61323,2,0,L|165:360,3,80,8|0|0|0,0:0|0:0|0:0|0:0,0:0:0:0:
235,376,61894,5,8,0:1:0:0:
479,170,62465,2,0,P|415:135|336:192,1,160,10|2,0:0|0:0,0:0:0:0:
383,243,62894,2,0,P|316:204|248:239,1,160,2|0,0:0|0:0,0:0:0:0:
201,305,63323,2,0,P|157:328|107:318,1,80,2|0,0:0|0:0,0:0:0:0:
57,288,63608,1,10,0:0:0:0:
43,209,63751,2,0,L|61:95,1,80,2|0,0:0|0:0,0:0:0:0:
109,69,64037,6,0,P|196:96|254:50,1,160,2|0,0:0|0:0,0:0:0:0:
295,124,64465,2,0,L|291:33,1,80,0|0,0:0|0:0,0:0:0:0:
360,3,64751,1,10,0:0:0:0:
428,43,64894,2,0,P|450:84|432:135,1,80,2|0,0:0|0:0,0:0:0:0:
379,163,65180,2,0,P|436:147|461:246,1,160,2|0,0:0|0:0,0:0:0:0:
405,262,65608,2,0,L|422:373,1,80,0|0,0:0|0:0,0:0:0:0:
337,355,65894,2,0,P|284:367|256:345,3,80,10|2|2|2,0:0|0:0|0:0|0:0,0:0:0:0:
230,282,66465,5,8,0:1:0:0:
24,36,67037,2,0,P|84:58|174:6,1,160,10|2,0:0|0:0,0:0:0:0:
244,36,67465,2,0,L|352:41,2,80,2|8|2,0:0|0:1|0:0,0:0:0:0:
194,99,67894,2,0,P|223:143|175:251,1,160,2|10,0:0|0:0,0:0:0:0:
127,284,68323,2,0,P|133:343|166:377,1,80,2|0,0:0|0:0,0:0:0:0:
223,361,68608,6,0,P|284:317|386:365,1,160,2|2,0:0|0:0,0:0:0:0:
430,378,69037,2,0,P|392:328|419:240,1,160,2|8,0:0|0:0,0:0:0:0:
497,233,69465,2,0,L|488:327,2,80,0|0|0,0:0|0:0|0:0,0:0:0:0:
465,158,69894,2,0,P|422:126|311:177,1,160,8|0,0:1|0:0,0:0:0:0:
282,220,70323,1,2,0:0:0:0:
224,274,70465,2,0,P|163:289|125:262,1,80,10|0,0:0|0:0,0:0:0:0:
104,217,70751,2,0,L|110:121,1,80,2|2,0:0|0:0,0:0:0:0:
157,72,71037,5,8,0:1:0:0:
472,21,71608,2,0,P|445:69|493:162,1,160,10|2,0:0|0:0,0:0:0:0:
430,217,72037,2,0,P|457:265|409:358,1,160,2|2,0:0|0:0,0:0:0:0:
336,346,72465,2,0,P|271:313|179:348,1,160,2|10,0:0|0:0,0:0:0:0:
112,316,72894,2,0,L|116:209,1,80,2|0,0:0|0:0,0:0:0:0:
61,176,73180,2,0,P|128:186|195:109,1,160,2|0,0:0|0:0,0:0:0:0:
207,48,73608,2,0,L|299:54,1,80,0|0,0:0|0:0,0:0:0:0:
352,6,73894,1,10,0:0:0:0:
356,85,74037,2,0,L|370:184,2,80,2|0|2,0:0|0:0|0:0,0:0:0:0:
425,44,74465,5,8,0:0:0:0:
507,181,74751,1,0,0:0:0:0:
450,237,74894,2,0,L|395:233,2,40,0|0|8,0:0|0:0|0:1,0:0:0:0:
500,300,75180,1,0,0:0:0:0:
445,358,75323,2,0,L|338:353,2,80,0|0|0,0:0|3:0|0:0,0:0:0:0:
41,221,84465,6,0,P|86:211|131:227,1,80,0|0,0:0|0:0,0:0:0:0:
162,286,84751,2,0,P|139:215|275:174,2,240,2|2|2,0:0|0:0|0:0,0:0:0:0:
481,307,86180,2,0,P|404:314|368:232,2,160,2|2|2,0:0|0:0|0:0,0:0:0:0:
327,352,87037,6,0,B|288:319|223:332|223:332|169:378|90:336,2,240,2|2|0,0:0|0:0|0:0,0:0:0:0:
18,267,88465,2,0,P|71:225|55:125,1,160,2|2,0:0|0:0,0:0:0:0:
197,45,89037,2,0,P|230:63|302:56,1,80,2|2,0:0|0:0,0:0:0:0:
331,12,89323,6,0,P|293:62|424:110,2,240,2|2|2,0:0|0:0|0:0,0:0:0:0:
477,296,90751,2,0,P|457:202|511:171,2,160,2|2|2,0:0|0:0|0:0,0:0:0:0:
320,331,91608,6,0,B|267:345|226:311|226:311|192:328|192:328|146:302|93:318,2,240,10|10|10,0:0|0:0|0:0,0:0:0:0:
86,112,93037,2,0,P|157:90|173:67,1,80,0|8,3:0|3:0,0:0:0:0:
139,9,93323,2,0,B|163:101|271:77|271:77|229:71|207:24,1,240,8|0,0:0|0:0,0:0:0:0:
286,2,93894,6,0,B|413:-2|391:217|391:217,1,240,10|2,0:1|0:0,0:0:0:0:
328,235,94465,2,0,P|349:281|336:338,2,80,12|0|0,0:0|0:0|0:0,0:0:0:0:
257,195,94894,1,0,3:0:0:0:
189,238,95037,6,0,L|88:246,1,80,8|0,0:1|0:0,0:0:0:0:
45,283,95323,2,0,P|53:224|30:184,1,80,2|0,0:0|0:0,0:0:0:0:
0,143,95608,1,10,0:0:0:0:
72,104,95751,2,0,L|75:45,2,40,2|2|2,0:0|0:0|0:0,0:0:0:0:
132,156,96037,6,0,B|180:90|299:178|299:178,1,160,8|0,3:1|3:0,0:0:0:0:
269,243,96465,2,0,P|275:194|310:208,1,80,2|0,0:1|0:0,0:0:0:0:
347,254,96751,2,0,L|342:344,2,80,12|0|0,0:0|0:0|0:0,0:0:0:0:
408,201,97180,1,8,3:1:0:0:
368,131,97323,6,0,P|366:89|337:44,1,80,0|8,0:0|0:1,0:0:0:0:
280,14,97608,2,0,P|210:0|178:17,1,80,2|0,0:0|0:0,0:0:0:0:
135,43,97894,1,10,0:0:0:0:
85,105,98037,2,0,L|36:98,2,40,2|0|10,0:0|0:0|0:1,0:0:0:0:
131,171,98323,1,8,0:0:0:0:
76,229,98465,6,0,B|140:142|322:253|322:253,1,240,10|2,0:1|0:0,0:0:0:0:
343,306,99037,2,0,L|335:398,2,80,12|0|0,0:0|0:0|0:0,0:0:0:0:
406,257,99465,1,8,3:1:0:0:
384,180,99608,6,0,L|393:85,1,80,0|0,0:0|0:0,0:0:0:0:
347,32,99894,2,0,P|288:46|240:26,1,80,2|0,0:0|0:0,0:0:0:0:
202,85,100180,1,10,0:0:0:0:
131,47,100323,1,2,0:0:0:0:
131,47,100394,1,0,0:0:0:0:
131,47,100465,2,0,L|81:49,3,40,2|0|0|0,0:0|0:0|0:0|0:0,0:0:0:0:
52,38,100751,6,0,P|71:91|33:188,1,160,8|2,0:1|0:0,0:0:0:0:
58,262,101180,2,0,P|21:264|-43:227,2,80
135,242,101608,1,0,0:0:0:0:
181,307,101751,2,0,P|220:284|327:327,1,160,12|12,0:1|0:1,0:0:0:0:
398,341,102180,2,0,L|388:238,1,80
382,181,102465,1,10,0:0:0:0:
435,121,102608,2,0,L|488:125,2,40,2|0|2,0:0|0:0|0:0,0:0:0:0:
379,62,102894,1,2,0:0:0:0:
429,0,103037,5,8,0:1:0:0:
111,35,103608,2,0,P|61:64|20:56,2,80,12|0|0,0:0|0:0|0:0,0:0:0:0:
184,67,104037,1,0,3:0:0:0:
137,132,104180,2,0,L|146:228,1,80,8|0,0:1|0:0,0:0:0:0:
211,255,104465,2,0,P|254:241|291:248,1,80,2|0,0:0|0:0,0:0:0:0:
355,289,104751,1,10,0:0:0:0:
424,248,104894,2,0,L|419:199,2,40,2|2|2,0:0|0:0|0:0,0:0:0:0:
481,304,105180,6,0,B|421:255|490:134|490:134,1,160,8|0,3:0|3:0,0:0:0:0:
464,76,105608,2,0,P|446:124|400:127,1,80,2|0,0:1|0:0,0:0:0:0:
345,108,105894,2,0,L|250:97,2,80,12|0|0,0:0|0:0|0:0,0:0:0:0:
366,185,106323,1,8,3:1:0:0:
317,247,106465,6,0,L|328:344,1,80,0|8,0:0|0:1,0:0:0:0:
257,369,106751,2,0,P|205:351|166:369,1,80,2|2,0:0|0:0,0:0:0:0:
103,372,107037,1,10,0:0:0:0:
48,313,107180,2,0,L|1:314,2,40,0|0|0,0:0|0:0|0:0,0:0:0:0:
98,251,107465,1,0,0:0:0:0:
139,182,107608,6,0,P|192:197|224:190,3,80,12|0|0|0,0:1|0:0|0:0|0:0,0:0:0:0:
271,134,108180,1,8,0:0:0:0:
271,134,108323,1,0,0:0:0:0:
256,60,108465,2,0,P|273:24|303:0,3,80,8|0|0|0,0:1|0:0|0:0|0:0,0:0:0:0:
384,2,109037,1,8,0:0:0:0:
384,2,109180,1,0,0:0:0:0:
461,21,109323,2,0,P|483:53|489:92,3,80,12|0|0|0,0:1|0:0|0:0|0:0,0:0:0:0:
435,152,109894,5,8,0:0:0:0:
471,223,110037,1,0,0:0:0:0:
419,284,110180,2,0,B|349:318|268:291|268:291|161:230|262:87|396:228|268:291|268:291|146:265|87:325|87:325|136:252|66:160,1,800,8|8,0:0|0:0,0:0:0:0:
83,185,112180,5,12,0:1:0:0:
367,39,112751,2,0,P|352:87|441:147,1,160,10|2,0:0|0:0,0:0:0:0:
426,149,113180,1,8,0:1:0:0:
343,346,113894,1,8,0:0:0:0:
343,346,114037,2,0,P|361:311|351:248,2,80,0|0|0,0:0|0:0|0:0,0:0:0:0:
148,363,114751,1,2,0:0:0:0:
75,106,117323,6,0,P|123:123|198:32,1,160,10|2,0:0|0:0,0:0:0:0:
198,58,117751,1,8,0:1:0:0:
401,37,118465,1,8,0:0:0:0:
401,37,118608,2,0,L|396:137,2,80,0|0|0,0:0|0:0|0:0,0:0:0:0:
510,252,119323,1,2,0:0:0:0:
358,303,119608,6,0,B|396:296|396:296|458:313,2,80,8|0|0,0:0|0:0|0:0,0:0:0:0:
290,347,120037,1,8,0:1:0:0:
138,295,120323,2,0,B|168:249|168:249|155:120,1,160,8|0,0:1|0:0,0:0:0:0:
145,65,120751,1,8,0:0:0:0:
215,26,120894,2,0,L|222:-22,2,40,0|0|8,0:0|0:0|0:1,0:0:0:0:
263,90,121180,1,8,0:0:0:0:
339,66,121323,5,8,0:1:0:0:
463,360,121894,2,0,P|408:315|316:363,1,160,10|2,0:0|0:0,0:0:0:0:
329,340,122323,1,0,0:1:0:0:
75,300,123037,1,8,0:0:0:0:
75,300,123180,2,0,L|81:201,2,80,0|0|0,0:0|0:0|0:0,0:0:0:0:
264,342,123894,1,2,0:0:0:0:
359,44,126465,6,0,P|403:87|356:176,1,160,10|2,0:0|0:0,0:0:0:0:
371,169,126894,1,8,0:1:0:0:
103,188,127608,6,0,P|59:231|106:320,1,160,10|2,0:0|0:0,0:0:0:0:
90,313,128037,1,2,0:0:0:0:
167,292,128180,6,0,P|224:256|313:299,1,160,8|0,0:1|0:0,0:0:0:0:
322,365,128608,1,0,0:0:0:0:
387,318,128751,1,8,0:0:0:0:
455,358,128894,5,8,0:1:0:0:
455,358,129180,2,0,B|467:317|467:317|442:256|442:256|448:171|448:171|481:226,1,240,0|0,0:0|0:0,0:0:0:0:
