osu file format v14

[General]
AudioFilename: audio.mp3
AudioLeadIn: 0
PreviewTime: 39037
Countdown: 0
SampleSet: Soft
StackLeniency: 0.3
Mode: 0
LetterboxInBreaks: 0
WidescreenStoryboard: 1

[Editor]
Bookmarks: 2465,20751,29894,36751,39037,45894,48751,55037,57323,64180,65323,65573,66465,67037,71037,75608,84751,93894,98465,103037,106608,107608,112180,129894
DistanceSpacing: 0.4
BeatDivisor: 4
GridSize: 4
TimelineZoom: 3.199998

[Metadata]
Title:Pandemonium
TitleUnicode:Pandemonium
Artist:Memme
ArtistUnicode:Memme
Creator:Rose Pacifica
Version:Confusion
Source:O2Jam U
Tags:rhythm game o2 jam parkmemme
BeatmapID:1669372
BeatmapSetID:794788

[Difficulty]
HPDrainRate:5.5
CircleSize:4
OverallDifficulty:8
ApproachRate:9.7
SliderMultiplier:1.6
SliderTickRate:1

[Events]
//Background and Video events
0,0,"BG.jpg",0,0
//Break Periods
2,20950,26048
//Storyboard Layer 0 (Background)
//Storyboard Layer 1 (Fail)
//Storyboard Layer 2 (Pass)
//Storyboard Layer 3 (Foreground)
//Storyboard Sound Samples

[TimingPoints]
1323,285.714285714286,4,2,0,100,1,0
2465,-71.4285714285714,4,2,0,100,0,0
2894,-83.3333333333333,4,2,0,100,0,0
3180,-100,4,2,0,100,0,0
3465,-125,4,2,0,100,0,0
4180,-83.3333333333333,4,2,0,100,0,0
4608,-62.5,4,2,0,100,0,0
5465,-76.9230769230769,4,2,0,100,0,0
5751,-142.857142857143,4,2,0,100,0,0
6037,-66.6666666666667,4,2,0,100,0,0
7037,-71.4285714285714,4,2,0,100,0,0
7751,-83.3333333333333,4,2,0,100,0,0
8037,-125,4,2,0,100,0,0
8608,-71.4285714285714,4,2,0,100,0,0
9180,-62.5,4,2,0,100,0,0
10037,-76.9230769230769,4,2,0,100,0,0
10323,-142.857142857143,4,2,0,100,0,0
10608,-66.6666666666667,4,2,0,100,0,0
11608,-76.9230769230769,4,2,0,100,0,0
12323,-142.857142857143,4,2,0,100,0,0
13180,-83.3333333333333,4,2,0,100,0,0
13894,-71.4285714285714,4,2,0,100,0,0
14608,-125,4,2,0,100,0,0
15323,-40,4,2,0,100,0,0
15608,-125,4,2,0,100,0,0
15894,-83.3333333333333,4,2,0,100,0,0
16180,-33.3333333333333,4,2,0,100,0,0
17894,-200,4,2,0,100,0,0
18465,-33.3333333333333,4,2,0,100,0,0
19323,-250,4,2,0,100,0,0
20180,-33.3333333333333,4,2,0,100,0,0
20465,-125,4,2,0,10,0,0
20513,-125,4,2,0,15,0,0
20561,-125,4,2,0,22,0,0
20608,-125,4,2,0,31,0,0
20656,-125,4,2,0,42,0,0
20703,-125,4,2,0,55,0,0
20751,-500,4,2,0,70,0,0
27608,-250,4,2,0,70,0,0
28608,-125,4,2,0,70,0,0
29894,-100,4,2,0,70,0,0
35465,-133.333333333333,4,2,0,70,0,0
36465,-83.3333333333333,4,2,0,70,0,0
36751,-31.25,4,2,0,70,0,1
37037,-25,4,2,0,70,0,1
37465,-100,4,2,0,70,0,0
37751,-28.5714285714286,4,2,0,70,0,1
38037,-100,4,2,0,70,0,0
38465,-50,4,2,0,70,0,0
38751,-100,4,2,0,70,0,0
39037,-200,4,2,0,70,0,1
39251,-33.3333333333333,4,2,0,70,0,1
39465,-100,4,2,0,70,0,1
40037,-33.3333333333333,4,2,0,70,0,1
40323,-100,4,2,0,70,0,1
40537,-66.6666666666667,4,2,0,70,0,1
40751,-40,4,2,0,70,0,1
41323,-133.333333333333,4,2,0,70,0,1
41537,-33.3333333333333,4,2,0,70,0,1
41751,-50,4,2,0,70,0,1
42323,-33.3333333333333,4,2,0,70,0,1
42608,-100,4,2,0,70,0,1
42894,-50,4,2,0,70,0,1
43180,-125,4,2,0,70,0,1
43323,-40,4,2,0,70,0,1
43608,-125,4,2,0,70,0,1
44037,-66.6666666666667,4,2,0,70,0,1
44608,-25,4,2,0,70,0,1
44894,-66.6666666666667,4,2,0,70,0,1
45180,-33.3333333333333,4,2,0,70,0,1
45608,-50,4,2,0,70,0,0
45644,-50,4,2,0,70,0,0
45894,-100,4,2,0,70,0,0
48180,-250,4,2,0,70,0,0
48751,-100,4,2,0,70,0,1
49180,-33.3333333333333,4,2,0,70,0,1
49465,-100,4,2,0,70,0,1
49680,-66.6666666666667,4,2,0,70,0,1
49894,-40,4,2,0,70,0,1
50465,-125,4,2,0,70,0,1
50680,-28.5714285714286,4,2,0,70,0,1
50894,-100,4,2,0,70,0,1
51465,-28.5714285714286,4,2,0,70,0,1
51751,-66.6666666666667,4,2,0,70,0,1
51894,-50,4,2,0,70,0,1
52323,-125,4,2,0,70,0,1
52465,-40,4,2,0,70,0,1
52751,-83.3333333333333,4,2,0,70,0,1
53323,-50,4,2,0,70,0,1
53751,-33.3333333333333,4,2,0,70,0,1
54108,-66.6666666666667,4,2,0,70,0,1
54251,-50,4,2,0,70,0,1
54465,-40,4,2,0,70,0,1
54608,-50,4,2,0,70,0,1
54751,-200,4,2,0,70,0,1
55037,-200,4,2,0,70,0,0
56323,-66.6666666666667,4,2,0,70,0,0
57037,-133.333333333333,4,2,0,70,0,0
57180,-200,4,2,0,70,0,0
57323,-38.4615384615385,4,2,0,70,0,0
57358,-38.4615384615385,4,2,0,40,0,0
57394,-38.4615384615385,4,2,0,20,0,0
57430,-38.4615384615385,4,2,0,10,0,0
57573,-38.4615384615385,4,2,0,15,0,0
57608,-38.4615384615385,4,2,0,17,0,0
57644,-38.4615384615385,4,2,0,20,0,0
57680,-38.4615384615385,4,2,0,24,0,0
57715,-38.4615384615385,4,2,0,29,0,0
57751,-38.4615384615385,4,2,0,35,0,0
57787,-38.4615384615385,4,2,0,42,0,0
57823,-38.4615384615385,4,2,0,50,0,0
57858,-38.4615384615385,4,2,0,60,0,0
57894,-71.4285714285714,4,2,0,70,0,0
59465,-83.3333333333333,4,2,0,70,0,0
61323,-40,4,2,0,70,0,0
61465,-50,4,2,0,70,0,0
61608,-66.6666666666667,4,2,0,70,0,0
61751,-100,4,2,0,70,0,0
61894,-33.3333333333333,4,2,0,70,0,0
62180,-28.5714285714286,4,2,0,70,0,0
62465,-66.6666666666667,4,2,0,70,0,0
64037,-76.9230769230769,4,2,0,70,0,0
66465,-38.4615384615385,4,2,0,70,0,0
66501,-38.4615384615385,4,2,0,40,0,0
66537,-38.4615384615385,4,2,0,10,0,0
66680,-38.4615384615385,4,2,0,19,0,0
66715,-38.4615384615385,4,2,0,25,0,0
66751,-38.4615384615385,4,2,0,32,0,0
66787,-38.4615384615385,4,2,0,40,0,0
66823,-38.4615384615385,4,2,0,49,0,0
66858,-38.4615384615385,4,2,0,59,0,0
66894,-38.4615384615385,4,2,0,70,0,0
67037,-62.5,4,2,0,70,0,0
68608,-71.4285714285714,4,2,0,70,0,0
70465,-50,4,2,0,70,0,0
70608,-58.8235294117647,4,2,0,70,0,0
70751,-71.4285714285714,4,2,0,70,0,0
70894,-90.9090909090909,4,2,0,70,0,0
71037,-200,4,2,0,70,0,0
71608,-66.6666666666667,4,2,0,70,0,0
73180,-76.9230769230769,4,2,0,70,0,0
74465,-100,4,2,0,70,0,0
74751,-50,4,2,0,70,0,0
75037,-100,4,2,0,70,0,0
75323,-62.5,4,2,0,70,0,0
75608,-125,4,2,0,70,0,0
77894,-111.111111111111,4,2,0,70,0,0
80180,-99.9999999999999,4,2,0,70,0,0
82323,-90.9090909090909,4,2,0,70,0,0
84751,-83.3333333333333,4,2,0,70,0,0
85608,-125,4,2,0,70,0,0
86180,-200,4,2,0,70,0,0
87037,-83.3333333333333,4,2,0,70,0,0
87894,-125,4,2,0,70,0,0
88465,-200,4,2,0,70,0,0
89323,-83.3333333333333,4,2,0,70,0,0
90180,-125,4,2,0,70,0,0
91608,-50,4,2,0,70,0,0
93037,-500,4,2,0,70,0,0
93894,-33.3333333333333,4,2,0,70,0,1
94465,-100,4,2,0,70,0,1
94608,-40,4,2,0,70,0,1
94894,-33.3333333333333,4,2,0,70,0,1
95037,-40,4,2,0,70,0,1
95323,-33.3333333333333,4,2,0,70,0,1
95608,-66.6666666666667,4,2,0,70,0,1
96037,-33.3333333333333,4,2,0,70,0,1
96465,-25,4,2,0,70,0,1
96751,-100,4,2,0,70,0,1
96894,-40,4,2,0,70,0,1
97180,-33.3333333333333,4,2,0,70,0,1
97323,-40,4,2,0,70,0,1
98037,-66.6666666666667,4,2,0,70,0,1
98465,-33.3333333333333,4,2,0,70,0,1
99037,-100,4,2,0,70,0,1
99180,-40,4,2,0,70,0,1
99465,-33.3333333333333,4,2,0,70,0,1
99608,-40,4,2,0,70,0,1
99894,-33.3333333333333,4,2,0,70,0,1
100323,-66.6666666666667,4,2,0,70,0,1
100751,-50,4,2,0,70,0,1
101751,-55.5555555555556,4,2,0,70,0,1
102894,-66.6666666666667,4,2,0,70,0,1
103037,-250,4,2,0,70,0,1
103608,-66.6666666666667,4,2,0,70,0,1
103751,-40,4,2,0,70,0,1
104037,-33.3333333333333,4,2,0,70,0,1
104180,-40,4,2,0,70,0,1
104465,-33.3333333333333,4,2,0,70,0,1
104608,-40,4,2,0,70,0,1
104894,-66.6666666666667,4,2,0,70,0,1
105180,-33.3333333333333,4,2,0,70,0,1
105608,-25,4,2,0,70,0,1
105894,-66.6666666666667,4,2,0,70,0,1
106037,-40,4,2,0,70,0,1
106323,-33.3333333333333,4,2,0,70,0,1
106465,-40,4,2,0,70,0,1
107037,-66.6666666666667,4,2,0,70,0,1
107608,-100,4,2,0,70,0,0
110180,-133.333333333333,4,2,0,70,0,0
112180,-166.666666666667,4,2,0,70,0,0
120465,-125,4,2,0,70,0,0
121037,-100,4,2,0,70,0,0
121323,-90.9090909090909,4,2,0,70,0,0
125323,-83.3333333333333,4,2,0,70,0,0
125894,-76.9230769230769,4,2,0,70,0,0
128180,-50,4,2,0,70,0,0
129180,-166.666666666667,4,2,0,70,0,0

[Colours]
Combo1 : 194,175,158
Combo2 : 208,223,218
Combo3 : 108,163,183
Combo4 : 239,237,216

[HitObjects]
17,163,2180,5,0,0:0:0:0:
173,75,2323,1,0,0:0:0:0:
125,313,2465,6,0,B|79:245|99:178|99:178|138:183|177:226,1,223.999993164063,0|0,0:0|0:0,0:0:0:0:
168,217,2894,6,0,B|144:225|144:225|173:152,1,95.9999970703126,0|0,0:0|0:0,0:0:0:0:
260,88,3180,6,0,B|280:93|280:93|255:23,1,80,0|0,0:0|0:0,0:0:0:0:
125,59,3465,6,0,L|213:76,1,64,0|0,0:0|0:0,0:0:0:0:
260,37,3751,1,0,0:0:0:0:
263,36,3823,1,0,0:0:0:0:
266,35,3894,1,0,0:0:0:0:
345,50,4037,6,0,P|375:60|398:82,1,64,0|0,0:0|0:0,0:0:0:0:
362,193,4323,1,0,0:0:0:0:
270,245,4465,2,0,L|210:236,1,47.9999985351563,0|0,0:0|0:0,0:0:0:0:
204,246,4608,6,0,L|472:283,1,256,0|0,0:0|0:0,0:0:0:0:
506,201,5037,1,0,0:0:0:0:
510,190,5180,2,0,P|438:203|395:245,1,128,0|0,0:0|0:0,0:0:0:0:
337,170,5465,6,0,P|306:220|326:302,1,103.999995239258,0|0,0:0|0:0,0:0:0:0:
218,277,5751,6,0,P|237:325|284:348,1,83.9999974365235,0|0,0:0|0:0,0:0:0:0:
355,343,6037,6,0,L|425:324,2,60.0000022888184,0|0|0,0:0|0:0|0:0,0:0:0:0:
256,351,6323,6,0,B|206:345|206:345|196:338|196:338|165:335|165:335|154:340|154:340|75:332|75:332,1,180.000006866455,0|0,0:0|0:0,0:0:0:0:
1,262,6608,1,0,0:0:0:0:
204,81,6751,5,0,0:0:0:0:
129,262,6894,1,0,0:0:0:0:
23,115,7037,6,0,B|82:104|127:150|127:150|172:194|226:180,1,223.999993164063,0|0,0:0|0:0,0:0:0:0:
330,278,7465,2,0,P|369:239|384:142,1,111.999996582031
511,206,7751,6,0,P|480:159|472:87,1,95.9999970703126,0|0,0:0|0:0,0:0:0:0:
391,69,8037,6,0,P|412:28|414:-5,1,64,0|0,0:0|0:0,0:0:0:0:
308,44,8323,1,0,0:0:0:0:
305,45,8394,1,0,0:0:0:0:
302,46,8465,1,0,0:0:0:0:
204,81,8608,6,0,B|90:63,1,111.999996582031,0|0,0:0|0:0,0:0:0:0:
0,20,8894,1,0,0:0:0:0:
72,221,9037,2,0,L|86:167,1,55.9999982910157,0|0,0:0|0:0,0:0:0:0:
74,151,9180,6,0,B|33:331|33:331|55:287|124:286,1,256,0|0,0:0|0:0,0:0:0:0:
151,228,9608,2,0,P|186:237|214:259,1,64,0|0,0:0|0:0,0:0:0:0:
220,345,9751,6,0,P|164:374|102:368,1,128,0|0,0:0|0:0,0:0:0:0:
302,286,10037,6,0,P|320:331|305:395,1,103.999995239258,0|0,0:0|0:0,0:0:0:0:
282,201,10323,6,0,P|318:199|362:224,1,83.9999974365235,0|0,0:0|0:0,0:0:0:0:
427,294,10608,6,0,P|464:291|491:270,2,60.0000022888184,0|0|0,0:0|0:0|0:0,0:0:0:0:
359,221,10894,6,0,B|312:189|312:189|297:192|297:192|282:201|282:201|264:198|264:198|192:211,1,180.000006866455,0|0,0:0|0:0,0:0:0:0:
90,175,11180,1,0,0:0:0:0:
220,345,11323,5,0,0:0:0:0:
286,66,11465,1,0,0:0:0:0:
37,252,11608,5,0,0:0:0:0:
193,210,11751,2,0,P|217:158|206:84,1,103.999995239258,0|0,0:0|0:0,0:0:0:0:
115,276,12037,1,0,0:0:0:0:
281,224,12323,6,0,P|299:220|336:214,1,55.9999982910157,0|0,0:0|0:0,0:0:0:0:
90,175,12608,6,0,P|42:145|46:101,1,83.9999974365235
111,43,12894,1,0,0:0:0:0:
121,45,12965,1,0,0:0:0:0:
131,47,13037,1,0,0:0:0:0:
131,47,13180,6,0,L|296:30,1,143.999995605469,0|0,0:0|0:0,0:0:0:0:
364,73,13465,1,0,0:0:0:0:
478,8,13608,2,0,P|464:57|452:122,1,95.9999970703126,0|0,0:0|0:0,0:0:0:0:
459,272,13894,6,0,P|386:181|262:192,1,223.999993164063,0|0,0:0|0:0,0:0:0:0:
171,273,14323,1,0,0:0:0:0:
61,153,14608,2,0,P|48:114|51:79,1,64,0|0,0:0|0:0,0:0:0:0:
219,215,14894,6,0,L|201:347,1,128,0|0,0:0|0:0,0:0:0:0:
110,274,15323,6,0,B|96:256|96:256|128:261|128:261|137:267|137:267|199:277,1,100,0|0,0:0|0:0,0:0:0:0:
281,357,15465,2,0,B|267:375|267:375|299:370|299:370|308:364|308:364|370:354,1,100,0|0,0:0|0:0,0:0:0:0:
440,284,15608,6,0,B|445:245|445:245|452:236|452:236|458:181,1,96,0|0,0:0|0:0,0:0:0:0:
465,111,15894,5,0,0:0:0:0:
405,61,15965,1,0,0:0:0:0:
333,87,16037,1,0,0:0:0:0:
319,163,16108,1,0,0:0:0:0:
379,212,16180,6,0,B|300:253|210:189|210:189|294:243|303:364|144:431|111:289|178:262|185:261,1,480.000018310548,0|0,0:0|0:0,0:0:0:0:
113,202,16608,6,0,B|60:243|61:327|61:327|52:258|11:219|11:219|26:177|67:145|67:145|63:106|63:106|105:72|96:4,1,480.000018310548,0|0,0:0|0:0,0:0:0:0:
16,35,17037,6,0,B|75:80|144:52|144:52|156:63|156:63|226:17|282:51|282:51|317:88|382:74|382:74|322:106|310:164|310:164,1,480.000018310548,0|0,0:0|0:0,0:0:0:0:
278,218,17465,6,0,B|230:190|227:134|227:134|144:242|194:330|194:330|208:227|91:195,1,480.000018310548,0|0,0:0|0:0,0:0:0:0:
25,165,17894,6,0,P|20:224|50:275,1,120.000004577637,0|0,0:0|0:0,0:0:0:0:
113,202,18465,6,0,B|206:237|194:330|194:330|144:242|227:134|227:134|230:190|278:218,1,480.000018310548,0|0,0:0|0:0,0:0:0:0:
458,161,18894,6,0,B|538:123|521:3|457:-20|326:-27|292:74|311:140|311:140|339:96|418:99,1,480.000018310548,0|0,0:0|0:0,0:0:0:0:
509,224,19323,6,0,P|434:241|380:188,1,160,0|0,0:0|0:0,0:0:0:0:
431,90,20180,5,0,0:0:0:0:
278,218,20323,1,0,0:0:0:0:
271,229,20465,6,0,L|237:222,6,21.3333333333333,0|0|0|0|0|0|0,0:0|0:0|0:0|0:0|0:0|0:0|0:0,0:0:0:0:
27,263,27608,6,0,L|94:252,1,64,0|0,0:0|0:0,0:0:0:0:
211,195,28037,1,0,0:0:0:0:
217,196,28108,1,0,0:0:0:0:
223,197,28180,2,0,L|265:201,1,32,0|0,0:0|0:0,0:0:0:0:
345,210,28465,1,0,0:0:0:0:
345,210,28608,6,0,B|337:157|337:157|322:137|322:137|329:85,2,128,0|0|0,0:0|0:0|0:0,0:0:0:0:
330,292,29323,5,0,0:0:0:0:
291,365,29465,1,0,0:0:0:0:
278,371,29537,1,0,0:0:0:0:
264,377,29608,6,0,L|235:369,3,16,0|0|0|0,0:0|0:0|0:0|0:0,0:0:0:0:
189,308,29751,6,0,L|173:312,3,16,0|0|0|0,0:0|0:0|0:0|0:0,0:0:0:0:
93,356,29894,6,0,L|117:194,1,160,0|0,0:0|0:0,0:0:0:0:
80,85,30323,1,0,0:0:0:0:
76,78,30394,1,0,0:0:0:0:
72,71,30465,2,0,B|16:108|16:108|-2:207,1,160,0|0,0:0|0:0,0:0:0:0:
185,235,30894,6,0,B|260:230|260:230|256:224|256:224|364:216,2,160,0|0|0,0:0|0:0|0:0,0:0:0:0:
104,283,31608,2,0,P|62:302|8:300,1,80,0|0,0:0|0:0,0:0:0:0:
98,170,31894,6,0,P|126:172|148:182,1,40,0|0,0:0|0:0,0:0:0:0:
191,123,32037,2,0,P|207:145|213:169,1,40,0|0,0:0|0:0,0:0:0:0:
258,224,32180,2,0,L|277:57,1,160,0|0,0:0|0:0,0:0:0:0:
343,167,32608,1,0,0:0:0:0:
344,174,32680,1,0,0:0:0:0:
346,181,32751,2,0,P|384:209|442:207,1,80,0|0,0:0|0:0,0:0:0:0:
496,203,33037,1,0,0:0:0:0:
508,195,33180,2,0,L|495:251,2,40,0|0|0,0:0|0:0|0:0,0:0:0:0:
493,88,33465,6,0,P|436:99|405:131,1,80,0|0,0:0|0:0,0:0:0:0:
346,181,33751,1,0,0:0:0:0:
383,28,33894,1,0,0:0:0:0:
431,207,34037,5,0,0:0:0:0:
423,210,34108,1,0,0:0:0:0:
415,213,34180,2,0,L|401:242,6,20,0|0|0|0|0|0|0,0:0|0:0|0:0|0:0|0:0|0:0|0:0,0:0:0:0:
340,307,34465,2,0,P|352:365|364:398,1,80,0|0,0:0|0:0,0:0:0:0:
439,314,34751,1,0,0:0:0:0:
263,257,34894,1,0,0:0:0:0:
263,257,35037,6,0,L|278:175,2,80,0|0|0,0:0|0:0|0:0,0:0:0:0:
208,335,35465,6,0,P|149:352|105:333,1,90.0000034332277,0|0,0:0|0:0,0:0:0:0:
123,363,35751,2,0,P|78:320|73:272,1,90.0000034332277,0|0,0:0|0:0,0:0:0:0:
90,196,36037,1,0,0:0:0:0:
90,196,36180,2,0,L|9:208,1,60.0000022888184,0|0,0:0|0:0,0:0:0:0:
183,108,36465,6,0,L|307:123,1,95.9999970703126,0|0,0:0|0:0,0:0:0:0:
407,62,36751,6,0,B|375:31|375:31|367:30|367:30|363:19|363:19|343:0|343:0|347:45|347:45|340:69|340:69|350:86|350:86|358:134|358:134|351:147|351:147|358:194|358:194|367:207|367:207|388:320,1,384,0|0,0:0|0:0,0:0:0:0:
219,269,37037,6,0,B|189:227|189:227|230:234|230:234|244:243|244:243|324:260,1,160,0|0,0:0|0:0,0:0:0:0:
505,176,37180,2,0,B|535:134|535:134|494:141|494:141|480:150|480:150|400:167,1,160,0|0,0:0|0:0,0:0:0:0:
316,335,37323,5,0,0:0:0:0:
422,354,37465,2,0,P|365:366|316:335,1,120,0|0,0:0|0:0,0:0:0:0:
101,184,37751,6,0,B|95:118|25:71|25:71|92:72|126:108|126:108|147:91|147:91|187:130|239:117|239:117|275:109|306:137,1,420.000004005432,0|0,0:0|0:0,0:0:0:0:
329,213,38037,1,0,0:0:0:0:
332,226,38108,1,0,0:0:0:0:
335,239,38180,1,0,0:0:0:0:
315,334,38323,1,0,0:0:0:0:
430,160,38465,6,0,P|451:144|538:145,1,80,0|0,0:0|0:0,0:0:0:0:
279,119,38608,6,0,P|242:81|183:57,1,80,0|0,0:0|0:0,0:0:0:0:
120,179,38751,6,0,P|93:185|83:188,2,20,0|0|0,0:0|0:0|0:0,0:0:0:0:
209,273,38894,2,0,P|235:279|244:282,2,20,0|0|0,0:0|0:0|0:0,0:0:0:0:
102,352,39037,6,0,P|69:359|50:366,1,40,0|0,0:0|0:0,0:0:0:0:
53,367,39251,6,0,B|74:304|31:234|31:234|72:285|140:260,1,240.000009155274,0|0,0:0|0:0,0:0:0:0:
203,190,39465,6,0,P|203:166|196:144,1,40,0|0,0:0|0:0,0:0:0:0:
87,55,39608,1,0,0:0:0:0:
81,40,39680,1,0,0:0:0:0:
76,25,39751,5,0,0:0:0:0:
155,38,39823,1,0,0:0:0:0:
233,53,39894,1,0,0:0:0:0:
233,53,40037,6,0,B|288:46|288:46|315:52|315:52|364:27|364:27|392:33|392:33|477:20|477:20|408:58|412:155,1,360.000013732911,0|0,0:0|0:0,0:0:0:0:
354,208,40323,5,0,0:0:0:0:
357,222,40394,2,0,P|374:245|400:258,1,40,0|0,0:0|0:0,0:0:0:0:
281,126,40537,1,0,0:0:0:0:
261,146,40608,2,0,P|252:174|257:204,1,60.0000022888184,0|0,0:0|0:0,0:0:0:0:
380,339,40751,2,0,L|508:355,1,100
267,330,40894,5,0,0:0:0:0:
188,320,40965,1,0,0:0:0:0:
108,311,41037,2,0,B|78:284|78:284|68:176,1,100,0|0,0:0|0:0,0:0:0:0:
142,141,41180,2,0,B|172:168|172:168|177:227,1,100,0|0,0:0|0:0,0:0:0:0:
24,53,41323,6,0,B|47:37|47:37|95:42,1,60.0000022888184,0|0,0:0|0:0,0:0:0:0:
88,50,41537,6,0,B|178:60|178:60|220:37|220:37|346:50,1,240.000009155274,0|0,0:0|0:0,0:0:0:0:
409,100,41751,1,0,0:0:0:0:
424,97,41823,1,0,0:0:0:0:
439,94,41894,2,0,B|434:129|434:129|429:135|429:135|423:178,1,80,0|0,0:0|0:0,0:0:0:0:
267,330,42037,5,0,0:0:0:0:
253,253,42109,1,0,0:0:0:0:
239,177,42180,1,0,0:0:0:0:
239,177,42323,6,0,B|311:251|311:251|249:241|249:241|236:227|236:227|193:220|193:220|177:228|177:228|119:219|119:219|109:211|109:211|51:201,1,360.000013732911,0|0,0:0|0:0,0:0:0:0:
6,120,42608,1,0,0:0:0:0:
2,105,42680,2,0,P|12:72|33:40,1,40,0|0,0:0|0:0,0:0:0:0:
14,67,42894,6,0,P|63:117|21:258,1,160,0|0,0:0|0:0,0:0:0:0:
30,300,43108,1,0,0:0:0:0:
16,320,43180,2,0,L|67:309,1,32,0|0,0:0|0:0,0:0:0:0:
164,191,43323,6,0,B|123:199|123:199|109:194|109:194|67:203,1,100,0|0,0:0|0:0,0:0:0:0:
202,303,43465,2,0,B|244:294|244:294|258:299|258:299|299:291,1,100,0|0,0:0|0:0,0:0:0:0:
439,94,43608,6,0,P|362:114|395:173,1,160,0|0,0:0|0:0,0:0:0:0:
453,254,44037,5,0,0:0:0:0:
467,243,44108,1,0,0:0:0:0:
479,229,44180,2,0,P|492:199|490:153,1,60.0000022888184,0|0,0:0|0:0,0:0:0:0:
258,0,44323,5,0,0:0:0:0:
268,78,44394,1,0,0:0:0:0:
278,156,44465,1,0,0:0:0:0:
278,156,44608,6,0,B|312:153|333:127|333:127|284:209|342:303|342:303|207:169|130:299|225:310,1,480
217,304,44894,1,0,0:0:0:0:
231,301,44965,2,0,P|240:262|224:226,1,60.0000022888184,0|0,0:0|0:0,0:0:0:0:
137,65,45108,1,0,0:0:0:0:
102,90,45180,2,0,P|81:130|80:190,1,80,0|0,0:0|0:0,0:0:0:0:
278,156,45323,6,0,L|431:136,1,120.000004577637,0|0,0:0|0:0,0:0:0:0:
166,272,45465,5,0,0:0:0:0:
86,254,45537,1,0,0:0:0:0:
10,237,45608,2,0,P|18:260|19:303,6,40,0|0|0|0|0|0|0,0:0|0:0|0:0|0:0|0:0|0:0|0:0,0:0:0:0:
128,367,45894,6,0,P|136:278|158:202,1,160,0|0,0:0|0:0,0:0:0:0:
134,87,46323,2,0,B|172:100|203:74|203:74|215:84|215:84|249:55|312:65,1,160,0|0,0:0|0:0,0:0:0:0:
406,174,46751,1,0,0:0:0:0:
489,11,46894,1,0,0:0:0:0:
352,102,47037,1,0,0:0:0:0:
463,250,47180,1,0,0:0:0:0:
463,250,47251,1,0,0:0:0:0:
463,250,47323,1,0,0:0:0:0:
203,161,47465,6,0,P|206:206|219:226,1,40,0|0,0:0|0:0,0:0:0:0:
134,292,47608,2,0,P|175:311|199:310,1,40,0|0,0:0|0:0,0:0:0:0:
262,301,47751,1,0,0:0:0:0:
277,295,47823,1,0,0:0:0:0:
290,286,47894,1,0,0:0:0:0:
334,202,48037,1,0,0:0:0:0:
395,314,48180,6,0,B|423:317|423:317|435:314|435:314|456:332|456:332|469:329|469:329|506:333,1,112,0|0,0:0|0:0,0:0:0:0:
398,159,48751,5,0,0:0:0:0:
390,144,48823,1,0,0:0:0:0:
382,130,48894,5,0,0:0:0:0:
302,137,48965,1,0,0:0:0:0:
221,145,49037,1,0,0:0:0:0:
221,145,49180,6,0,B|205:86|205:86|274:54|274:54|260:129|260:129|263:160|263:160|252:175|252:175|247:207|247:207|252:220|252:220|242:284,1,360.000013732911,0|0,0:0|0:0,0:0:0:0:
240,372,49465,5,0,0:0:0:0:
258,379,49537,2,0,L|297:374,1,40,0|0,0:0|0:0,0:0:0:0:
137,217,49680,1,0,0:0:0:0:
127,254,49751,2,0,B|124:274|124:274|140:314,1,60.0000022888184,0|0,0:0|0:0,0:0:0:0:
426,215,49894,6,0,L|303:203,1,100,0|0,0:0|0:0,0:0:0:0:
205,87,50037,5,0,0:0:0:0:
126,103,50108,1,0,0:0:0:0:
46,118,50180,2,0,L|145:127,1,100,0|0,0:0|0:0,0:0:0:0:
291,46,50323,2,0,B|265:18|265:18|162:8,1,100,0|0,0:0|0:0,0:0:0:0:
427,195,50465,6,0,P|442:157|439:125,1,64,0|0,0:0|0:0,0:0:0:0:
444,188,50680,6,0,B|437:240|476:280|476:280|429:258|385:283|385:283|370:282|370:282|333:316|275:297,1,280.000002670288,0|0,0:0|0:0,0:0:0:0:
239,229,50894,5,0,0:0:0:0:
252,220,50965,1,0,0:0:0:0:
267,214,51037,2,0,P|308:223|329:244,1,40,0|0,0:0|0:0,0:0:0:0:
139,343,51180,5,0,0:0:0:0:
120,264,51251,1,0,0:0:0:0:
102,186,51323,1,0,0:0:0:0:
102,186,51465,6,0,B|37:191|-3:151|-3:151|-14:227|46:265|46:265|121:206|240:231,1,420.000004005432
275,295,51751,5,0,0:0:0:0:
280,308,51823,2,0,L|264:380,1,60.0000022888184,0|0,0:0|0:0,0:0:0:0:
267,367,52037,6,0,P|321:309|423:315,1,160,0|0,0:0|0:0,0:0:0:0:
490,359,52251,5,0,0:0:0:0:
503,375,52323,2,0,L|491:320,1,32,0|0,0:0|0:0,0:0:0:0:
411,227,52465,2,0,B|383:186|383:186|399:123,1,100,0|0,0:0|0:0,0:0:0:0:
491,30,52608,2,0,B|511:67|511:67|488:163,1,100,0|0,0:0|0:0,0:0:0:0:
282,86,52751,6,0,B|218:61|218:61|277:55|277:55|293:45|293:45|327:57|327:57|343:47|343:47|382:43,1,239.999992675781,0|0,0:0|0:0,0:0:0:0:
497,123,53180,5,0,0:0:0:0:
486,134,53251,1,0,0:0:0:0:
473,143,53323,2,0,P|430:149|380:125,1,80,0|0,0:0|0:0,0:0:0:0:
219,62,53465,5,0,0:0:0:0:
246,137,53537,1,0,0:0:0:0:
274,211,53608,1,0,0:0:0:0:
274,211,53751,6,0,B|232:219|205:192|205:192|240:284|328:286|328:286|313:346|272:359|272:359|230:331,1,360.000013732911,0|0,0:0|0:0,0:0:0:0:
117,310,54037,5,0,0:0:0:0:
106,319,54108,2,0,P|98:277|83:234,1,60.0000022888184,0|0,0:0|0:0,0:0:0:0:
140,122,54251,5,0,0:0:0:0:
183,113,54323,2,0,P|230:120|272:155,1,80,0|0,0:0|0:0,0:0:0:0:
99,249,54465,6,0,L|-3:235,1,100,0|0,0:0|0:0,0:0:0:0:
252,345,54608,5,0,0:0:0:0:
330,327,54680,1,0,0:0:0:0:
408,312,54751,6,0,P|416:270|431:227,1,60.0000022888184,0|0,0:0|0:0,0:0:0:0:
443,238,55037,5,0,0:0:0:0:
215,118,55180,1,0,0:0:0:0:
302,315,55323,1,0,0:0:0:0:
404,168,55465,1,0,0:0:0:0:
119,233,55608,5,0,0:0:0:0:
342,367,55751,1,0,0:0:0:0:
226,61,55894,1,0,0:0:0:0:
44,345,56037,5,0,0:0:0:0:
427,315,56323,5,0,0:0:0:0:
403,313,56394,1,0,0:0:0:0:
361,292,56465,1,0,0:0:0:0:
328,251,56537,1,0,0:0:0:0:
310,186,56608,1,0,0:0:0:0:
271,121,56680,1,0,0:0:0:0:
198,89,56751,6,0,P|157:93|125:114,1,60.0000022888184,0|0,0:0|0:0,0:0:0:0:
82,36,56894,5,0,0:0:0:0:
67,47,56965,1,0,0:0:0:0:
58,61,57037,2,0,P|48:89|52:116,1,30.0000011444092,0|0,0:0|0:0,0:0:0:0:
0,153,57180,6,0,P|11:166|21:172,1,20,0|0,0:0|0:0,0:0:0:0:
93,234,57323,6,0,P|51:244|23:260,15,51.999997619629,0|0|0|0|0|0|0|0|0|0|0|0|0|0|0|0,0:0|0:0|0:0|0:0|0:0|0:0|0:0|0:0|0:0|0:0|0:0|0:0|0:0|0:0|0:0|0:0,0:0:0:0:
106,245,57894,6,0,L|236:261,1,111.999996582031,0|0,0:0|0:0,0:0:0:0:
334,203,58180,1,0,0:0:0:0:
406,343,58323,2,0,P|445:310|425:186,1,167.999994873047,0|0,0:0|0:0,0:0:0:0:
441,202,58608,2,0,P|418:168|417:136,1,55.9999982910157,0|0,0:0|0:0,0:0:0:0:
457,63,58751,2,0,B|387:69|387:69|363:84|363:84|267:91,1,167.999994873047,0|0,0:0|0:0,0:0:0:0:
181,37,59037,1,0,0:0:0:0:
256,183,59180,1,0,0:0:0:0:
332,5,59323,1,0,0:0:0:0:
178,131,59465,6,0,L|17:110,1,143.999995605469,0|0,0:0|0:0,0:0:0:0:
35,112,59751,2,0,B|29:131|29:131|39:171,1,47.9999985351563,0|0,0:0|0:0,0:0:0:0:
91,343,59894,2,0,L|112:213,1,95.9999970703126,0|0,0:0|0:0,0:0:0:0:
181,37,60180,5,0,0:0:0:0:
198,160,60323,1,0,0:0:0:0:
293,239,60465,1,0,0:0:0:0:
418,237,60608,1,0,0:0:0:0:
504,147,60751,5,0,0:0:0:0:
319,94,60894,1,0,0:0:0:0:
299,88,60965,1,0,0:0:0:0:
280,82,61037,1,0,0:0:0:0:
361,301,61180,1,0,0:0:0:0:
466,41,61323,6,0,P|411:78|381:120,1,100,0|0,0:0|0:0,0:0:0:0:
293,239,61465,6,0,P|243:228|204:192,1,80,0|0,0:0|0:0,0:0:0:0:
163,46,61608,6,0,B|139:61|139:61|121:116,1,60.0000022888184,0|0,0:0|0:0,0:0:0:0:
43,162,61751,6,0,B|54:173|54:173|61:208,1,40,0|0,0:0|0:0,0:0:0:0:
131,312,61894,5,0,0:0:0:0:
86,312,61965,5,0,0:0:0:0:
128,325,62037,5,0,0:0:0:0:
84,326,62108,5,0,0:0:0:0:
125,339,62180,6,0,B|180:334|180:334|204:346|204:346|285:339,1,140.000001335144,0|0,0:0|0:0,0:0:0:0:
343,238,62323,2,0,B|312:203|312:203|218:211,1,140.000001335144,0|0,0:0|0:0,0:0:0:0:
425,373,62465,6,0,L|447:235,1,120.000004577637,0|0,0:0|0:0,0:0:0:0:
337,160,62751,1,0,0:0:0:0:
426,20,62894,2,0,P|386:71|246:47,1,180.000006866455,0|0,0:0|0:0,0:0:0:0:
277,74,63180,2,0,P|230:82|195:102,1,60.0000022888184,0|0,0:0|0:0,0:0:0:0:
101,247,63323,2,0,B|148:201|148:201|128:78,1,180.000006866455
56,0,63608,1,0,0:0:0:0:
219,87,63751,1,0,0:0:0:0:
53,177,63894,1,0,0:0:0:0:
199,10,64037,6,0,L|380:38,1,155.999992858887,0|0,0:0|0:0,0:0:0:0:
353,33,64323,2,0,B|360:56|360:56|347:93,1,51.999997619629,0|0,0:0|0:0,0:0:0:0:
291,241,64465,1,0,0:0:0:0:
218,86,64608,1,0,0:0:0:0:
425,160,64751,1,0,0:0:0:0:
425,160,64823,1,0,0:0:0:0:
425,160,64894,2,0,P|394:183|374:186,1,51.999997619629,0|0,0:0|0:0,0:0:0:0:
369,263,65037,2,0,P|333:247|320:231,1,51.999997619629,0|0,0:0|0:0,0:0:0:0:
251,266,65180,2,0,P|246:227|253:208,1,51.999997619629,0|0,0:0|0:0,0:0:0:0:
189,165,65323,6,0,P|220:141|240:139,1,51.999997619629,0|0,0:0|0:0,0:0:0:0:
368,113,65465,1,0,0:0:0:0:
277,31,65608,6,0,P|309:53|317:71,1,51.999997619629,0|0,0:0|0:0,0:0:0:0:
369,263,65750,1,0,0:0:0:0:
431,73,65894,6,0,P|420:110|405:124,1,51.999997619629,0|0,0:0|0:0,0:0:0:0:
189,165,66037,6,0,P|220:141|240:139,1,51.999997619629,0|0,0:0|0:0,0:0:0:0:
438,232,66180,6,0,P|398:233|381:223,1,51.999997619629,0|0,0:0|0:0,0:0:0:0:
277,31,66323,6,0,P|309:53|317:71,1,51.999997619629,0|0,0:0|0:0,0:0:0:0:
290,289,66465,6,0,P|276:252|281:232,15,51.999997619629,0|0|0|0|0|0|0|0|0|0|0|0|0|0|0|0,0:0|0:0|0:0|0:0|0:0|0:0|0:0|0:0|0:0|0:0|0:0|0:0|0:0|0:0|0:0|0:0,0:0:0:0:
325,367,67037,6,0,P|259:323|191:343,1,128,0|0,0:0|0:0,0:0:0:0:
36,258,67323,1,0,0:0:0:0:
124,379,67465,2,0,L|150:180,1,192,0|0,0:0|0:0,0:0:0:0:
144,175,67751,2,0,P|120:155|74:152,1,64,0|0,0:0|0:0,0:0:0:0:
277,240,67894,2,0,P|365:263|434:177,1,192,0|0,0:0|0:0,0:0:0:0:
372,87,68180,1,0,0:0:0:0:
511,233,68323,1,0,0:0:0:0:
295,140,68465,1,0,0:0:0:0:
467,36,68608,6,0,B|455:105|455:105|441:123|441:123|426:221,1,167.999994873047,0|0,0:0|0:0,0:0:0:0:
429,197,68894,2,0,L|417:272,1,55.9999982910157,0|0,0:0|0:0,0:0:0:0:
256,346,69037,2,0,B|228:306|228:306|244:214,1,111.999996582031,0|0,0:0|0:0,0:0:0:0:
258,41,69323,5,0,0:0:0:0:
398,73,69465,1,0,0:0:0:0:
480,194,69608,1,0,0:0:0:0:
439,333,69751,1,0,0:0:0:0:
275,176,69894,5,0,0:0:0:0:
442,172,70037,1,0,0:0:0:0:
463,180,70108,1,0,0:0:0:0:
480,194,70180,1,0,0:0:0:0:
339,346,70323,1,0,0:0:0:0:
146,226,70465,6,0,P|164:189|194:164,1,80,0|0,0:0|0:0,0:0:0:0:
178,79,70608,6,0,P|213:79|245:91,1,68.0000012969971,0|0,0:0|0:0,0:0:0:0:
314,47,70751,6,0,P|325:72|329:99,1,55.9999982910157,0|0,0:0|0:0,0:0:0:0:
396,144,70894,6,0,P|382:159|364:172,1,44.0000013427735,0|0,0:0|0:0,0:0:0:0:
238,243,71037,6,0,L|385:266,1,140,0|0,0:0|0:0,0:0:0:0:
150,302,71608,6,0,B|124:258|124:258|151:163,1,120.000004577637,0|0,0:0|0:0,0:0:0:0:
124,48,71894,1,0,0:0:0:0:
272,157,72037,2,0,B|350:150|350:150|365:136|365:136|466:127,1,180.000006866455,0|0,0:0|0:0,0:0:0:0:
445,128,72323,2,0,B|458:152|458:152|453:195,1,60.0000022888184,0|0,0:0|0:0,0:0:0:0:
307,346,72465,2,0,P|316:276|365:244,1,120.000004577637
487,286,72751,1,0,0:0:0:0:
349,150,72894,1,0,0:0:0:0:
408,347,73037,1,0,0:0:0:0:
445,128,73180,6,0,L|464:6,2,103.999995239258
277,252,73608,1,0,0:0:0:0:
228,59,73751,1,0,0:0:0:0:
386,187,73894,1,0,0:0:0:0:
386,187,73965,1,0,0:0:0:0:
386,187,74037,1,0,0:0:0:0:
143,313,74180,2,0,L|162:187,1,103.999995239258
154,28,74465,5,0,0:0:0:0:
281,170,74608,1,0,0:0:0:0:
70,178,74751,2,0,P|89:146|132:118,1,80,0|0,0:0|0:0,0:0:0:0:
154,28,74894,5,0,0:0:0:0:
169,28,74965,1,0,0:0:0:0:
183,33,75037,2,0,P|217:47|252:84,1,80,0|0,0:0|0:0,0:0:0:0:
345,118,75323,6,0,P|337:154|306:195,1,64,0|0,0:0|0:0,0:0:0:0:
292,275,75465,6,0,L|309:331,3,32
320,323,75608,6,0,L|188:307,1,128
92,238,76037,1,0,0:0:0:0:
92,238,76323,2,0,B|70:282|70:282|109:366,1,128
176,205,76894,1,0,0:0:0:0:
179,193,76966,1,0,0:0:0:0:
182,181,77037,2,0,L|173:112,1,64
111,41,77323,2,0,P|64:28|29:32,2,64
176,119,77751,1,0,0:0:0:0:
176,119,77894,6,0,L|320:107,1,143.999995605469
428,56,78323,1,0,0:0:0:0:
428,56,78608,2,0,P|481:84|470:185,1,143.999995605469
416,281,79180,1,0,0:0:0:0:
408,292,79251,1,0,0:0:0:0:
400,304,79323,2,0,L|312:294,1,71.9999978027344
192,264,79608,2,0,L|200:346,1,71.9999978027344
303,214,79894,1,0,0:0:0:0:
134,133,80037,1,0,0:0:0:0:
198,335,80180,6,0,L|221:156,1,160
162,50,80608,2,0,P|97:54|66:77,1,80
20,176,80894,2,0,P|43:210|51:260,1,80
42,377,81180,2,0,P|94:348|176:355,1,120
248,359,81465,1,0,0:0:0:0:
264,357,81537,1,0,0:0:0:0:
279,352,81608,1,0,0:0:0:0:
323,264,81751,2,0,L|335:175,1,80
294,63,82037,1,0,0:0:0:0:
452,172,82180,1,0,0:0:0:0:
191,209,82323,6,0,P|127:187|14:176,1,176.000005371094
248,359,82751,2,0,L|342:343,1,88.000002685547
113,286,83037,2,0,P|88:330|77:371,1,88.000002685547
271,233,83323,2,0,P|263:178|242:121,1,88.000002685547
244,131,83537,1,0,0:0:0:0:
233,116,83608,5,0,0:0:0:0:
410,190,83751,2,0,L|439:182,3,22.0000006713867
395,194,83894,2,0,P|374:213|360:236,1,44.0000013427735
268,248,84037,2,0,P|283:271|290:297,1,44.0000013427735
260,368,84180,6,0,L|347:363,1,88.000002685547
409,313,84394,1,0,0:0:0:0:
418,319,84465,6,0,L|456:327,6,22.0000006713867
320,292,84751,6,0,B|236:296|236:296|215:309|215:309|119:313,1,191.999994140625
20,232,85180,2,0,P|46:147|135:153,1,191.999994140625
247,186,85608,6,0,B|194:221|194:221|227:77,1,191.999994140625
232,84,86180,2,0,L|320:68,1,80
448,28,86680,1,0,0:0:0:0:
371,175,87037,6,0,B|367:255|367:255|351:283|351:283|347:363,1,191.999994140625
472,384,87465,2,0,B|476:304|476:304|492:276|492:276|496:196,1,191.999994140625
403,68,87894,6,0,P|330:71|261:171,1,192
185,238,88465,6,0,P|134:230|101:202,1,80
9,142,89037,1,0,0:0:0:0:
78,304,89180,1,0,0:0:0:0:
174,145,89323,6,0,B|211:141|211:141|220:137|220:137|228:139|228:139|248:137|248:137|267:143|267:143|304:139|304:139|319:129|319:129|363:122,1,191.999994140625
462,190,89751,2,0,B|488:119|488:119|430:16,1,191.999994140625
277,68,90180,6,0,L|260:271,1,192
251,355,90751,1,0,0:0:0:0:
337,330,91037,1,0,0:0:0:0:
423,307,91323,1,0,0:0:0:0:
423,307,91608,6,0,B|379:243|426:170|426:170|318:273|217:164|232:124|262:74|316:71|348:115,2,480
423,307,93037,5,0,0:0:0:0:
509,149,93180,1,0,0:0:0:0:
273,297,93323,6,0,L|211:287,1,56
217,288,93894,6,0,B|183:290|149:345|149:345|141:274|185:220|185:220|93:235|69:185|69:144|90:116|90:116|99:193|28:229|28:229|-30:163|30:63,1,720.000027465821
258,172,94465,6,0,P|267:191|273:223,1,40
229,99,94608,6,0,P|224:60|266:-8,1,100
341,27,94751,2,0,P|346:66|304:134,1,100
217,288,94894,6,0,B|248:284|248:284|260:279|260:279|278:284|278:284|298:275|298:275|350:268,1,120.000004577637
512,265,95037,6,0,P|498:313|466:351,1,100
386,161,95180,2,0,P|410:205|414:255,1,100
217,288,95323,6,0,L|241:107,2,120.000004577637
37,195,95608,5,0,0:0:0:0:
257,26,95751,1,0,0:0:0:0:
285,111,95823,1,0,0:0:0:0:
315,195,95894,1,0,0:0:0:0:
414,254,96037,6,0,P|449:265|498:254,10,60.0000022888184
232,169,96465,6,0,B|166:170|139:223|139:223|127:136|67:113|67:113|51:194|-12:226|-12:226|43:204|77:233,1,480
175,93,96751,6,0,P|188:57|190:35,1,40
292,33,96894,6,0,P|298:100|327:138,1,100
404,103,97037,2,0,P|398:36|369:-2,1,100
220,257,97180,6,0,B|183:250|183:250|166:253|166:253|144:242|144:242|83:230,1,120.000004577637
273,341,97323,6,0,P|305:305|320:240,1,100
416,232,97465,2,0,P|390:189|349:161,1,100
178,67,97608,6,0,P|173:114|199:176,1,100
220,257,97751,2,0,P|170:258|124:238,1,100
269,103,97894,6,0,P|308:72|356:61,1,100
273,341,98037,1,0,0:0:0:0:
184,329,98108,1,0,0:0:0:0:
94,317,98180,1,0,0:0:0:0:
416,232,98323,6,0,P|458:251|477:270,1,60.0000022888184
270,120,98465,6,0,B|229:143|184:133|151:100|148:45|184:8|184:8|148:65|97:65|97:65|100:84|100:84|80:150|115:196|151:232|151:232|101:187|23:181|23:181|51:223|36:276,1,720.000027465821
137,356,99037,6,0,P|155:348|206:333,1,40
351,343,99180,6,0,P|288:367|235:351,1,100
234,278,99323,2,0,P|297:254|350:270,1,100
446,376,99465,6,0,B|454:321|454:321|460:314|460:314|468:256,1,120.000004577637
318,23,99608,6,0,P|301:76|313:135,1,100
204,134,99751,2,0,P|230:183|280:216,1,100
512,132,99894,6,0,B|486:96|486:96|385:83,2,120.000004577637
351,343,100180,5,0,0:0:0:0:
161,229,100323,1,0,0:0:0:0:
180,141,100394,1,0,0:0:0:0:
200,53,100465,5,0,0:0:0:0:
194,70,100536,1,0,0:0:0:0:
174,103,100607,1,0,0:0:0:0:
127,137,100679,1,0,0:0:0:0:
54,140,100751,6,0,P|144:117|79:252,1,320
0,223,101180,1,0,0:0:0:0:
180,379,101323,2,0,P|189:334|213:293,1,80
271,185,101465,1,0,0:0:0:0:
98,280,101608,1,0,0:0:0:0:
336,338,101751,6,0,B|343:292|343:292|362:269|362:269|354:221|354:221|367:131,1,215.999993408203
360,116,102037,2,0,L|437:100,1,71.9999978027344
230,145,102180,1,0,0:0:0:0:
285,249,102323,6,0,L|208:233,1,71.9999978027344
415,278,102466,1,0,0:0:0:0:
265,359,102608,5,0,0:0:0:0:
251,363,102680,1,0,0:0:0:0:
236,364,102751,2,0,P|194:347|167:307,1,71.9999978027344
100,358,102894,6,0,P|93:313|114:269,1,60.0000022888184
130,215,103037,6,0,L|26:227,1,96
132,137,103608,6,0,B|173:133|173:133|199:150,1,60.0000022888184
227,235,103751,6,0,P|229:292|197:339,1,100
111,308,103894,2,0,P|109:251|141:204,1,100
193,62,104037,6,0,B|229:57|229:57|254:65|254:65|265:54|265:54|328:45,1,120.000004577637
448,191,104180,6,0,P|409:222|360:229,1,100
410,39,104323,2,0,P|404:88|375:127,1,100
132,137,104465,6,0,B|104:71|104:71|120:6,2,120.000004577637
360,229,104751,5,0,0:0:0:0:
22,351,104894,1,0,0:0:0:0:
34,262,104965,1,0,0:0:0:0:
48,172,105037,1,0,0:0:0:0:
148,229,105180,6,0,P|186:243|249:232,10,60.0000022888184
467,191,105608,6,0,B|427:253|460:319|460:319|421:256|369:250|369:250|375:232|375:232|315:237|269:182|269:182|304:229|285:288,1,480
158,373,105894,2,0,P|165:337|179:308,1,60.0000022888184
205,243,106037,6,0,P|143:271|89:260,1,100
89,179,106180,2,0,P|151:151|205:162,1,100
290,261,106323,6,0,B|295:224|295:224|294:215|294:215|297:194|297:194|301:186|301:186|308:128,1,120.000004577637
423,49,106465,6,0,P|476:60|509:90,1,100
433,140,106608,2,0,P|449:186|440:235,1,100
237,92,106751,6,0,B|262:62|262:62|363:49,1,100
205,243,106894,2,0,L|70:267,1,100
30,85,107037,5,0,0:0:0:0:
312,175,107180,1,0,0:0:0:0:
290,261,107251,1,0,0:0:0:0:
271,349,107323,1,0,0:0:0:0:
142,148,107465,2,0,L|128:51,1,60.0000022888184
215,18,107608,5,0,0:0:0:0:
312,175,107751,1,0,0:0:0:0:
106,260,107894,1,0,0:0:0:0:
237,92,108037,1,0,0:0:0:0:
137,348,108180,5,0,0:0:0:0:
65,163,108323,1,0,0:0:0:0:
290,261,108465,5,0,0:0:0:0:
47,364,108608,1,0,0:0:0:0:
133,88,108751,1,0,0:0:0:0:
194,269,108894,1,0,0:0:0:0:
343,100,109037,5,0,0:0:0:0:
158,172,109180,1,0,0:0:0:0:
336,9,109323,5,0,0:0:0:0:
423,268,109465,1,0,0:0:0:0:
218,118,109608,1,0,0:0:0:0:
504,187,109751,1,0,0:0:0:0:
406,378,109894,5,0,0:0:0:0:
334,193,110037,1,0,0:0:0:0:
512,309,110180,2,0,L|317:279,1,180.000006866455
229,245,110751,6,0,L|154:260,3,60.0000022888184
329,202,111323,2,0,P|337:181|338:142,1,60.0000022888184
282,45,111608,5,0,0:0:0:0:
282,45,112180,6,0,L|87:67,1,191.999994140625
91,66,113180,2,0,B|36:129|57:204|57:204|115:204|142:147,1,239.999992675781
133,162,114465,6,0,P|214:138|310:189,1,191.999994140625
377,257,115465,2,0,P|393:239|406:192,1,71.9999978027344
404,184,115751,2,0,L|391:122,1,47.9999985351563
369,58,116180,1,0,0:0:0:0:
306,184,116465,1,0,0:0:0:0:
471,109,116608,1,0,0:0:0:0:
306,184,116751,6,0,L|327:381,1,191.999994140625
408,255,117608,1,0,0:0:0:0:
243,333,117751,2,0,P|156:349|58:246,1,239.999992675781
28,136,118608,1,0,0:0:0:0:
173,238,118751,1,0,0:0:0:0:
15,357,118894,1,0,0:0:0:0:
116,163,119037,6,0,L|230:148,1,95.9999970703126
314,102,119465,1,0,0:0:0:0:
322,103,119537,1,0,0:0:0:0:
331,104,119608,2,0,L|390:94,2,47.9999985351563
286,195,120037,1,0,0:0:0:0:
282,204,120108,1,0,0:0:0:0:
280,213,120180,6,0,L|292:273,1,47.9999985351563
290,279,120394,1,0,0:0:0:0:
288,297,120465,2,0,B|382:279|382:279,1,96
252,368,120751,2,0,P|195:351|177:327,1,64
141,275,120965,1,0,0:0:0:0:
146,269,121037,2,0,L|153:237,2,20
213,199,121180,2,0,L|206:167,2,20
163,94,121323,6,0,P|102:80|71:76,1,88.000002685547
260,111,121608,2,0,P|303:104|346:93,1,88.000002685547
452,25,121894,6,0,L|431:214,1,176.000005371094
455,318,122323,2,0,B|398:300|398:300|341:313|341:313|285:295,2,176.000005371094
284,196,123037,2,0,P|234:207|205:239,1,88.000002685547
160,359,123323,1,0,0:0:0:0:
80,190,123465,1,0,0:0:0:0:
287,296,123608,6,0,L|396:281,1,88.000002685547
478,186,123894,2,0,P|464:130|435:103,1,88.000002685547
342,66,124108,1,0,0:0:0:0:
324,70,124180,1,0,0:0:0:0:
307,74,124251,1,0,0:0:0:0:
289,78,124323,2,0,L|244:74,1,44.0000013427735
133,19,124465,2,0,L|163:143,1,88.000002685547
152,205,124680,1,0,0:0:0:0:
145,224,124751,2,0,L|203:211,1,44.0000013427735
47,285,124942,6,0,L|0:271,2,29.3333342285157
180,351,125323,6,0,P|243:334|283:329,1,95.9999970703126
368,358,125537,1,0,0:0:0:0:
385,368,125608,2,0,L|392:335,2,23.9999992675781
333,268,125751,2,0,L|326:235,2,23.9999992675781
406,175,125894,6,0,P|454:156|505:149,1,103.999995239258
290,140,126180,2,0,P|238:134|189:117,1,103.999995239258
35,29,126465,2,0,L|66:234,1,207.999990478516
230,291,126894,6,0,B|203:226|132:182|132:182|157:218|148:258,2,207.999990478516
48,335,127608,6,0,P|52:275|70:227,1,103.999995239258
176,107,127894,1,0,0:0:0:0:
0,175,128037,1,0,0:0:0:0:
159,331,128180,6,0,B|214:337|214:337|238:330|238:330|299:350|299:350|324:343|324:343|402:351,1,240
469,212,128465,2,0,B|481:179|481:179|460:118,1,80
344,83,128608,2,0,B|331:115|331:115|352:176,1,80
422,281,128751,1,0,0:0:0:0:
213,203,128894,2,0,P|136:181|58:166,1,160
58,166,129180,6,0,P|45:86|167:101,1,239.999992675781
