osu file format v14

[General]
AudioFilename: audio.mp3
AudioLeadIn: 0
PreviewTime: 38965
Countdown: 0
SampleSet: Normal
StackLeniency: 0.7
Mode: 1
LetterboxInBreaks: 0
WidescreenStoryboard: 1

[Editor]
Bookmarks: 48180,93894
DistanceSpacing: 0.4
BeatDivisor: 4
GridSize: 32
TimelineZoom: 3.4

[Metadata]
Title:Pandemonium
TitleUnicode:Pandemonium
Artist:Memme
ArtistUnicode:Memme
Creator:Raiden
Version:Muzukashii
Source:O2Jam
Tags:rhythm video game o2 jam parkmemme electronic instrumental skull kid skid
BeatmapID:2562603
BeatmapSetID:922918

[Difficulty]
HPDrainRate:6.5
CircleSize:2
OverallDifficulty:5
ApproachRate:10
SliderMultiplier:1.4
SliderTickRate:1

[Events]
//Background and Video events
0,0,"0turtle.jpg",0,0
//Break Periods
//Storyboard Layer 0 (Background)
//Storyboard Layer 1 (Fail)
//Storyboard Layer 2 (Pass)
//Storyboard Layer 3 (Foreground)
//Storyboard Layer 4 (Overlay)
//Storyboard Sound Samples

[TimingPoints]
1335,285.714285714286,4,1,0,65,1,0
1335,-125,4,1,0,65,0,0
11047,-125,4,1,0,75,0,0
11190,-121.212121212121,4,1,0,75,0,0
11333,-117.647058823529,4,1,0,75,0,0
11475,-114.285714285714,4,1,0,75,0,0
11618,-111.111111111111,4,1,0,75,0,0
15047,-111.111111111111,4,1,0,85,0,0
15118,-110.348724037704,4,1,0,85,0,0
15190,-109.596847994652,4,1,0,85,0,0
15261,-108.855030136515,4,1,0,85,0,0
15333,-108.123303815671,4,1,0,85,0,0
15475,-106.688744124117,4,1,0,85,0,0
15618,-105.29186378181,4,1,0,85,0,0
15690,-104.606996743584,4,1,0,85,0,0
15761,-103.931089530398,4,1,0,85,0,0
15833,-103.263754215743,4,1,0,85,0,0
15904,-102.605039343902,4,1,0,85,0,0
16047,-101.312298198566,4,1,0,85,0,0
16190,-100.051826846306,4,1,0,85,0,0
20835,-100.051826846306,4,1,0,15,0,0
21904,-125.080989940986,4,1,0,25,0,0
23049,-125.080989940986,4,1,0,35,0,0
28904,-125,4,1,0,75,0,0
28975,-123.893783381631,4,1,0,75,0,0
29047,-122.806974453693,4,1,0,75,0,0
29190,-120.68971759813,4,1,0,75,0,0
29261,-119.658160566893,4,1,0,75,0,0
29333,-118.644087905778,4,1,0,75,0,0
29475,-116.666647222225,4,1,0,75,0,0
29618,-114.754041924242,4,1,0,75,0,0
29666,-114.130496810053,4,1,0,75,0,0
29713,-113.51356260046,4,1,0,75,0,0
29761,-112.903262226859,4,1,0,75,0,0
29904,-111.111111111111,4,1,0,75,0,0
36761,-111.111111111111,4,1,0,75,0,0
37047,-109.374965820323,4,1,0,75,0,0
37190,-108.527081305233,4,1,0,75,0,0
37333,-107.692357396473,4,1,0,75,0,0
37475,-106.870261639775,4,1,0,75,0,0
37761,-105.263157894737,4,1,0,75,0,0
38047,-103.703672976689,4,1,0,75,0,0
38118,-103.321048460671,4,1,0,75,0,0
38190,-102.941131055383,4,1,0,75,0,0
38333,-102.189825776566,4,1,0,75,0,0
38475,-101.449304767914,4,1,0,75,0,0
38618,-100.719438952437,4,1,0,75,0,0
38761,-100,4,1,0,75,0,0
39049,-100,4,1,0,100,0,1
45906,-100,4,1,0,100,0,0
46190,-100,4,1,0,95,0,0
48763,-100,4,1,0,100,0,1
55049,-100,4,1,0,100,0,0
57192,-100,4,1,0,100,0,1
57335,-100,4,1,0,85,0,0
70975,-100,4,1,0,15,0,0
71118,-100,4,1,0,85,0,0
75833,-125,4,1,0,65,0,0
83618,-125,4,1,0,75,0,0
83761,-123.086770018525,4,1,0,75,0,0
83809,-122.46197555659,4,1,0,75,0,0
83856,-121.843492034482,4,1,0,75,0,0
83904,-121.231224314134,4,1,0,75,0,0
84047,-119.430650204346,4,1,0,75,0,0
84190,-117.682917500744,4,1,0,75,0,0
84333,-115.985599228,4,1,0,75,0,0
84404,-115.155102407433,4,1,0,75,0,0
84475,-114.336545046884,4,1,0,75,0,0
84618,-112.733598106977,4,1,0,75,0,0
84761,-111.175098556725,4,1,0,75,0,0
91618,-100,4,1,0,85,0,0
92047,-100,4,1,0,85,0,0
92475,-100,4,1,0,85,0,0
92761,-100,4,1,0,85,0,0
93906,-100,4,1,0,100,0,1
100763,-100,4,1,0,100,0,0
101047,-100,4,1,0,100,0,0
103620,-100,4,1,0,100,0,1
107618,-100,4,1,0,100,0,1
107904,-100,4,1,0,100,0,1
108475,-100,4,1,0,100,0,1
108761,-100,4,1,0,100,0,1
109333,-100,4,1,0,100,0,1
109618,-100,4,1,0,100,0,1
110190,-100,4,1,0,100,0,1
111047,-100,4,1,0,100,0,1
111618,-100,4,1,0,100,0,1
112192,-100,4,1,0,85,0,0

[HitObjects]
256,192,2192,5,0,0:0:0:0:
256,192,2335,5,0,0:0:0:0:
256,192,2477,5,12,0:0:0:0:
256,192,2763,5,8,0:0:0:0:
256,192,2906,5,0,0:0:0:0:
256,192,3192,5,8,0:0:0:0:
256,192,3335,5,8,0:0:0:0:
256,192,3620,5,0,0:0:0:0:
256,192,3763,5,8,0:0:0:0:
256,192,3906,5,8,0:0:0:0:
256,192,4049,5,0,0:0:0:0:
256,192,4192,5,8,0:0:0:0:
256,192,4763,5,8,0:0:0:0:
256,192,5049,5,8,0:0:0:0:
256,192,5192,5,0,0:0:0:0:
256,192,5477,5,8,0:0:0:0:
256,192,5763,5,8,0:0:0:0:
256,192,5906,5,8,0:0:0:0:
256,192,6049,5,0,0:0:0:0:
256,192,6192,5,8,0:0:0:0:
256,192,6335,5,0,0:0:0:0:
256,192,6477,5,8,0:0:0:0:
256,192,7049,5,8,0:0:0:0:
256,192,7192,5,0,0:0:0:0:
256,192,7335,5,0,0:0:0:0:
256,192,7477,5,8,0:0:0:0:
256,192,7763,5,8,0:0:0:0:
256,192,8049,5,8,0:0:0:0:
256,192,8192,5,0,0:0:0:0:
256,192,8335,5,8,0:0:0:0:
256,192,8477,5,8,0:0:0:0:
256,192,8620,5,0,0:0:0:0:
256,192,8763,5,0,0:0:0:0:
256,192,8906,5,8,0:0:0:0:
256,192,9335,5,0,0:0:0:0:
256,192,9477,5,0,0:0:0:0:
256,192,9620,5,0,0:0:0:0:
256,192,9763,5,8,0:0:0:0:
256,192,10049,5,8,0:0:0:0:
256,192,10335,5,8,0:0:0:0:
256,192,10477,5,0,0:0:0:0:
256,192,10620,5,8,0:0:0:0:
256,192,10763,5,0,0:0:0:0:
256,192,10906,5,8,0:0:0:0:
256,192,11049,5,0,0:0:0:0:
256,192,11335,5,8,0:0:0:0:
256,192,11620,5,4,0:0:0:0:
256,192,12049,5,0,0:0:0:0:
256,192,12335,5,0,0:0:0:0:
256,192,12477,5,8,0:0:0:0:
256,192,12620,5,8,0:0:0:0:
256,192,12763,5,0,0:0:0:0:
256,192,12906,5,8,0:0:0:0:
256,192,13192,5,0,0:0:0:0:
256,192,13335,5,8,0:0:0:0:
256,192,13477,5,0,0:0:0:0:
256,192,13620,5,8,0:0:0:0:
256,192,13763,5,8,0:0:0:0:
256,192,13906,5,0,0:0:0:0:
256,192,14335,5,0,0:0:0:0:
256,192,14620,5,0,0:0:0:0:
256,192,14763,5,8,0:0:0:0:
256,192,14906,5,0,0:0:0:0:
256,192,15049,5,0,0:0:0:0:
256,192,15192,5,8,0:0:0:0:
256,192,15335,5,0,0:0:0:0:
256,192,15477,5,8,0:0:0:0:
256,192,15620,5,0,0:0:0:0:
256,192,15906,5,8,0:0:0:0:
256,192,16192,5,4,0:0:0:0:
256,192,16477,1,0,0:0:0:0:
256,192,16620,5,12,0:0:0:0:
256,192,16906,1,0,0:0:0:0:
256,192,17049,5,12,0:0:0:0:
256,192,17335,1,0,0:0:0:0:
256,192,17477,5,12,0:0:0:0:
256,192,17763,1,0,0:0:0:0:
256,192,17906,5,12,0:0:0:0:
256,192,18192,5,8,0:0:0:0:
256,192,18335,5,0,0:0:0:0:
256,192,18477,5,4,0:0:0:0:
256,192,18763,5,8,0:0:0:0:
256,192,18906,5,12,0:0:0:0:
256,192,19192,5,0,0:0:0:0:
256,192,19335,5,12,0:0:0:0:
256,192,20192,5,8,0:0:0:0:
256,192,20335,5,8,0:0:0:0:
256,192,20620,5,8,0:0:0:0:
256,192,20763,5,4,0:0:0:0:
256,192,20906,12,0,25192,0:0:0:0:
256,192,25335,5,0,0:0:0:0:
256,192,25620,5,0,0:0:0:0:
256,192,25763,5,0,0:0:0:0:
256,192,25906,5,8,0:0:0:0:
256,192,26192,5,0,0:0:0:0:
256,192,26477,5,0,0:0:0:0:
256,192,26620,5,0,0:0:0:0:
256,192,26763,5,8,0:0:0:0:
256,192,26906,5,8,0:0:0:0:
256,192,27049,5,0,0:0:0:0:
256,192,27335,5,8,0:0:0:0:
256,192,27620,5,0,0:0:0:0:
256,192,28049,5,0,0:0:0:0:
256,192,28192,5,8,0:0:0:0:
256,192,28335,5,8,0:0:0:0:
256,192,28477,5,0,0:0:0:0:
256,192,28620,5,8,0:0:0:0:
256,192,28906,5,8,0:0:0:0:
256,192,29049,5,0,0:0:0:0:
256,192,29192,5,8,0:0:0:0:
256,192,29335,5,8,0:0:0:0:
256,192,29477,5,8,0:0:0:0:
256,192,29620,5,0,0:0:0:0:
256,192,29763,5,8,0:0:0:0:
256,192,29906,5,0,0:0:0:0:
256,192,30192,5,8,0:0:0:0:
256,192,30335,5,0,0:0:0:0:
256,192,30477,5,8,0:0:0:0:
256,192,30906,5,8,0:0:0:0:
256,192,31049,5,0,0:0:0:0:
256,192,31192,5,8,0:0:0:0:
256,192,31477,5,8,0:0:0:0:
256,192,31906,5,0,0:0:0:0:
256,192,32049,5,0,0:0:0:0:
256,192,32192,5,8,0:0:0:0:
256,192,32477,5,0,0:0:0:0:
256,192,32620,5,0,0:0:0:0:
256,192,32763,5,8,0:0:0:0:
256,192,32906,5,0,0:0:0:0:
256,192,33049,5,8,0:0:0:0:
256,192,33192,5,8,0:0:0:0:
256,192,33477,5,8,0:0:0:0:
256,192,33906,5,8,0:0:0:0:
256,192,34049,5,0,0:0:0:0:
256,192,34192,5,8,0:0:0:0:
256,192,34335,5,8,0:0:0:0:
256,192,34477,5,0,0:0:0:0:
256,192,34763,5,8,0:0:0:0:
256,192,34906,5,0,0:0:0:0:
256,192,35049,5,8,0:0:0:0:
256,192,35477,5,8,0:0:0:0:
256,192,35620,5,0,0:0:0:0:
256,192,35763,5,8,0:0:0:0:
256,192,35906,5,0,0:0:0:0:
256,192,36049,5,8,0:0:0:0:
256,192,36477,5,8,0:0:0:0:
256,192,36620,5,8,0:0:0:0:
256,192,36763,5,4,0:0:0:0:
256,192,37049,5,8,0:0:0:0:
256,192,37192,5,8,0:0:0:0:
256,192,37335,5,8,0:0:0:0:
256,192,37477,5,0,0:0:0:0:
256,192,37763,5,12,0:0:0:0:
256,192,38049,5,0,0:0:0:0:
256,192,38120,5,0,0:0:0:0:
256,192,38192,5,0,0:0:0:0:
256,192,38335,5,0,0:0:0:0:
256,192,38477,5,8,0:0:0:0:
256,192,38620,5,0,0:0:0:0:
256,192,38763,5,8,0:0:0:0:
256,192,39049,5,4,0:0:0:0:
256,192,39263,5,8,0:0:0:0:
256,192,39477,5,0,0:0:0:0:
256,192,39620,5,8,0:0:0:0:
256,192,39763,5,8,0:0:0:0:
256,192,39835,5,8,0:0:0:0:
256,192,39906,5,8,0:0:0:0:
256,192,40049,5,0,0:0:0:0:
256,192,40477,5,0,0:0:0:0:
256,192,40620,5,8,0:0:0:0:
256,192,40692,5,8,0:0:0:0:
256,192,40763,5,8,0:0:0:0:
256,192,40906,5,8,0:0:0:0:
256,192,41049,5,0,0:0:0:0:
256,192,41192,5,8,0:0:0:0:
256,192,41335,5,0,0:0:0:0:
256,192,41549,5,8,0:0:0:0:
256,192,41763,5,0,0:0:0:0:
256,192,41906,5,8,0:0:0:0:
256,192,42049,5,0,0:0:0:0:
256,192,42120,5,0,0:0:0:0:
256,192,42192,5,0,0:0:0:0:
256,192,42335,5,8,0:0:0:0:
256,192,42763,5,8,0:0:0:0:
256,192,42906,5,0,0:0:0:0:
256,192,43049,5,8,0:0:0:0:
256,192,43192,5,8,0:0:0:0:
256,192,43263,1,8,0:0:0:0:
256,192,43335,1,8,0:0:0:0:
256,192,43477,5,8,0:0:0:0:
256,192,43620,5,0,0:0:0:0:
256,192,44049,5,8,0:0:0:0:
256,192,44120,5,8,0:0:0:0:
256,192,44192,5,8,0:0:0:0:
256,192,44335,5,8,0:0:0:0:
256,192,44620,5,0,0:0:0:0:
256,192,44763,5,8,0:0:0:0:
256,192,44977,5,0,0:0:0:0:
256,192,45192,5,8,0:0:0:0:
256,192,45335,5,0,0:0:0:0:
256,192,45477,5,8,0:0:0:0:
256,192,45620,5,8,0:0:0:0:
256,192,45763,5,0,0:0:0:0:
256,192,45906,5,4,0:0:0:0:
256,192,46335,5,0,0:0:0:0:
256,192,46477,5,8,0:0:0:0:
256,192,46763,5,0,0:0:0:0:
256,192,46906,5,4,0:0:0:0:
256,192,47192,5,4,0:0:0:0:
256,192,47477,5,0,0:0:0:0:
256,192,47620,5,8,0:0:0:0:
256,192,47906,5,0,0:0:0:0:
256,192,48049,5,8,0:0:0:0:
256,192,48192,5,0,0:0:0:0:
256,192,48263,5,0,0:0:0:0:
256,192,48335,5,0,0:0:0:0:
256,192,48763,5,8,0:0:0:0:
256,192,48906,5,8,0:0:0:0:
256,192,49049,5,0,0:0:0:0:
256,192,49192,5,0,0:0:0:0:
256,192,49335,5,8,0:0:0:0:
256,192,49477,5,8,0:0:0:0:
256,192,49763,5,8,0:0:0:0:
256,192,49835,5,8,0:0:0:0:
256,192,49906,5,8,0:0:0:0:
256,192,50049,5,0,0:0:0:0:
256,192,50192,5,8,0:0:0:0:
256,192,50335,5,8,0:0:0:0:
256,192,50477,5,0,0:0:0:0:
256,192,50692,5,8,0:0:0:0:
256,192,50906,5,0,0:0:0:0:
256,192,51049,5,8,0:0:0:0:
256,192,51192,5,8,0:0:0:0:
256,192,51263,5,8,0:0:0:0:
256,192,51335,5,8,0:0:0:0:
256,192,51477,5,8,0:0:0:0:
256,192,51906,5,0,0:0:0:0:
256,192,52049,5,8,0:0:0:0:
256,192,52192,5,8,0:0:0:0:
256,192,52335,5,0,0:0:0:0:
128,96,52406,1,0,0:0:0:0:
256,192,52477,5,0,0:0:0:0:
256,192,52620,5,8,0:0:0:0:
256,192,52763,5,0,0:0:0:0:
256,192,53192,5,8,0:0:0:0:
256,192,53263,5,8,0:0:0:0:
256,192,53335,5,8,0:0:0:0:
256,192,53477,5,8,0:0:0:0:
256,192,53763,5,0,0:0:0:0:
256,192,53906,5,8,0:0:0:0:
256,192,54049,5,8,0:0:0:0:
256,192,54192,5,0,0:0:0:0:
256,192,54335,5,8,0:0:0:0:
256,192,54477,5,8,0:0:0:0:
256,192,54620,5,0,0:0:0:0:
256,192,54763,5,4,0:0:0:0:
256,192,55049,5,0,0:0:0:0:
256,192,55335,5,0,0:0:0:0:
256,192,55477,5,0,0:0:0:0:
256,192,55620,5,8,0:0:0:0:
256,192,55906,5,0,0:0:0:0:
256,192,56049,5,12,0:0:0:0:
256,192,56335,5,0,0:0:0:0:
256,192,56477,5,8,0:0:0:0:
256,192,56620,5,8,0:0:0:0:
256,192,56763,5,0,0:0:0:0:
256,192,56906,5,8,0:0:0:0:
256,192,57049,5,0,0:0:0:0:
256,192,57192,5,0,0:0:0:0:
256,192,57335,5,0,0:0:0:0:
256,192,57906,5,8,0:0:0:0:
256,192,58049,5,0,0:0:0:0:
256,192,58192,5,8,0:0:0:0:
256,192,58335,5,0,0:0:0:0:
256,192,58620,5,0,0:0:0:0:
256,192,58763,5,8,0:0:0:0:
256,192,59049,5,0,0:0:0:0:
256,192,59192,5,0,0:0:0:0:
256,192,59335,5,8,0:0:0:0:
256,192,59477,5,8,0:0:0:0:
256,192,59763,5,0,0:0:0:0:
256,192,59906,5,8,0:0:0:0:
256,192,60049,5,8,0:0:0:0:
256,192,60335,5,8,0:0:0:0:
256,192,60477,5,8,0:0:0:0:
256,192,60620,5,0,0:0:0:0:
256,192,60763,5,8,0:0:0:0:
256,192,60906,5,0,0:0:0:0:
256,192,61049,5,8,0:0:0:0:
256,192,61192,5,0,0:0:0:0:
256,192,61620,5,8,0:0:0:0:
256,192,61906,5,0,0:0:0:0:
256,192,62049,5,0,0:0:0:0:
256,192,62192,5,8,0:0:0:0:
256,192,62335,5,8,0:0:0:0:
256,192,62477,5,12,0:0:0:0:
256,192,62763,5,8,0:0:0:0:
256,192,62906,5,0,0:0:0:0:
256,192,63335,5,8,0:0:0:0:
256,192,63620,5,0,0:0:0:0:
256,192,63763,5,0,0:0:0:0:
256,192,63906,5,8,0:0:0:0:
256,192,64049,5,0,0:0:0:0:
256,192,64477,5,8,0:0:0:0:
256,192,64620,5,8,0:0:0:0:
256,192,64906,5,8,0:0:0:0:
256,192,65192,5,8,0:0:0:0:
256,192,65620,5,8,0:0:0:0:
256,192,65763,5,0,0:0:0:0:
256,192,66049,5,0,0:0:0:0:
256,192,66192,5,8,0:0:0:0:
256,192,66335,5,8,0:0:0:0:
256,192,66477,5,0,0:0:0:0:
256,192,67049,5,8,0:0:0:0:
256,192,67335,5,8,0:0:0:0:
256,192,67477,5,0,0:0:0:0:
256,192,67906,5,8,0:0:0:0:
256,192,68192,5,0,0:0:0:0:
256,192,68335,5,0,0:0:0:0:
256,192,68477,5,8,0:0:0:0:
256,192,68620,5,0,0:0:0:0:
256,192,68906,5,0,0:0:0:0:
256,192,69049,5,8,0:0:0:0:
256,192,69192,5,8,0:0:0:0:
256,192,69477,5,0,0:0:0:0:
256,192,69620,5,0,0:0:0:0:
256,192,69763,5,8,0:0:0:0:
256,192,69906,5,8,0:0:0:0:
256,192,70049,5,0,0:0:0:0:
256,192,70192,5,8,0:0:0:0:
256,192,70335,5,0,0:0:0:0:
256,192,70620,5,0,0:0:0:0:
256,192,70763,5,8,0:0:0:0:
256,192,70906,5,8,0:0:0:0:
256,192,71049,5,4,0:0:0:0:
256,192,71620,5,8,0:0:0:0:
256,192,71906,5,8,0:0:0:0:
256,192,72049,5,0,0:0:0:0:
256,192,72335,5,0,0:0:0:0:
256,192,72477,5,8,0:0:0:0:
256,192,72906,5,0,0:0:0:0:
256,192,73049,5,8,0:0:0:0:
256,192,73192,5,0,0:0:0:0:
256,192,73620,5,8,0:0:0:0:
256,192,73763,5,8,0:0:0:0:
256,192,74049,5,8,0:0:0:0:
256,192,74192,5,0,0:0:0:0:
256,192,74335,5,8,0:0:0:0:
256,192,74477,5,4,0:0:0:0:
256,192,74763,5,8,0:0:0:0:
256,192,74906,5,8,0:0:0:0:
256,192,74977,5,8,0:0:0:0:
256,192,75049,5,8,0:0:0:0:
256,192,75192,5,8,0:0:0:0:
256,192,75335,5,0,0:0:0:0:
256,192,75477,5,8,0:0:0:0:
256,192,75620,5,0,0:0:0:0:
256,192,76049,5,0,0:0:0:0:
256,192,76477,5,8,0:0:0:0:
256,192,76763,5,0,0:0:0:0:
256,192,76906,5,8,0:0:0:0:
256,192,77049,5,8,0:0:0:0:
256,192,77192,5,0,0:0:0:0:
256,192,77335,5,8,0:0:0:0:
256,192,77763,5,8,0:0:0:0:
256,192,77906,5,8,0:0:0:0:
256,192,78335,5,0,0:0:0:0:
256,192,78763,5,8,0:0:0:0:
256,192,79049,5,8,0:0:0:0:
256,192,79192,5,0,0:0:0:0:
256,192,79335,5,0,0:0:0:0:
256,192,79477,5,0,0:0:0:0:
256,192,79620,5,8,0:0:0:0:
256,192,79906,5,8,0:0:0:0:
256,192,80049,5,0,0:0:0:0:
256,192,80192,5,8,0:0:0:0:
256,192,80477,5,0,0:0:0:0:
256,192,80620,5,8,0:0:0:0:
256,192,80906,5,8,0:0:0:0:
256,192,81192,5,8,0:0:0:0:
256,192,81335,5,0,0:0:0:0:
256,192,81477,5,8,0:0:0:0:
256,192,81620,5,8,0:0:0:0:
256,192,81763,5,8,0:0:0:0:
256,192,81906,5,0,0:0:0:0:
256,192,82049,5,8,0:0:0:0:
256,192,82477,5,0,0:0:0:0:
256,192,82620,5,0,0:0:0:0:
256,192,82763,5,0,0:0:0:0:
256,192,82906,5,8,0:0:0:0:
256,192,83049,5,0,0:0:0:0:
256,192,83192,5,8,0:0:0:0:
256,192,83335,5,0,0:0:0:0:
256,192,83620,5,0,0:0:0:0:
256,192,83763,5,0,0:0:0:0:
256,192,83906,5,8,0:0:0:0:
256,192,84049,5,8,0:0:0:0:
256,192,84192,5,0,0:0:0:0:
256,192,84335,5,0,0:0:0:0:
256,192,84477,5,8,0:0:0:0:
256,192,84620,5,8,0:0:0:0:
256,192,84763,5,4,0:0:0:0:
256,192,84906,12,0,89192,0:0:0:0:
256,192,89335,5,0,0:0:0:0:
256,192,89620,5,0,0:0:0:0:
256,192,89763,5,0,0:0:0:0:
256,192,89906,5,8,0:0:0:0:
256,192,90192,5,0,0:0:0:0:
256,192,90335,5,8,0:0:0:0:
256,192,90477,5,0,0:0:0:0:
256,192,90620,5,8,0:0:0:0:
256,192,90763,5,0,0:0:0:0:
256,192,90906,5,0,0:0:0:0:
256,192,91049,5,8,0:0:0:0:
256,192,91335,5,8,0:0:0:0:
256,192,91620,5,12,0:0:0:0:
256,192,92049,5,12,0:0:0:0:
256,192,92477,5,12,0:0:0:0:
256,192,93049,5,0,0:0:0:0:
256,192,93192,5,0,0:0:0:0:
256,192,93335,5,12,0:0:0:0:
256,192,93906,5,8,0:0:0:0:
256,192,93977,5,8,0:0:0:0:
256,192,94049,5,8,0:0:0:0:
256,192,94477,5,8,0:0:0:0:
256,192,94620,5,0,0:0:0:0:
256,192,94692,5,0,0:0:0:0:
256,192,94763,5,0,0:0:0:0:
256,192,94906,5,8,0:0:0:0:
256,192,95049,5,0,0:0:0:0:
256,192,95192,5,0,0:0:0:0:
256,192,95335,5,8,0:0:0:0:
256,192,95477,5,0,0:0:0:0:
256,192,95620,5,8,0:0:0:0:
256,192,96049,5,8,0:0:0:0:
256,192,96120,1,8,0:0:0:0:
256,192,96192,1,8,0:0:0:0:
256,192,96335,1,0,0:0:0:0:
256,192,96477,5,8,0:0:0:0:
256,192,96763,5,8,0:0:0:0:
256,192,96906,5,0,0:0:0:0:
256,192,97049,5,0,0:0:0:0:
256,192,97192,5,0,0:0:0:0:
256,192,97335,5,8,0:0:0:0:
256,192,97477,5,8,0:0:0:0:
256,192,97620,5,0,0:0:0:0:
256,192,97763,5,0,0:0:0:0:
256,192,97906,5,8,0:0:0:0:
256,192,98049,5,8,0:0:0:0:
256,192,98120,1,8,0:0:0:0:
256,192,98192,5,8,0:0:0:0:
256,192,98477,5,8,0:0:0:0:
256,192,98549,1,8,0:0:0:0:
256,192,98620,5,8,0:0:0:0:
256,192,99049,5,8,0:0:0:0:
256,192,99192,5,0,0:0:0:0:
256,192,99335,5,0,0:0:0:0:
256,192,99477,5,8,0:0:0:0:
256,192,99620,5,8,0:0:0:0:
256,192,99763,5,0,0:0:0:0:
256,192,99906,5,8,0:0:0:0:
256,192,100049,5,0,0:0:0:0:
256,192,100192,5,8,0:0:0:0:
256,192,100335,5,8,0:0:0:0:
256,192,100763,5,8,0:0:0:0:
256,192,101049,5,8,0:0:0:0:
256,192,101192,5,0,0:0:0:0:
256,192,101335,5,8,0:0:0:0:
256,192,101477,5,0,0:0:0:0:
256,192,101763,5,4,0:0:0:0:
256,192,102049,5,4,0:0:0:0:
256,192,102335,5,8,0:0:0:0:
256,192,102477,5,8,0:0:0:0:
256,192,102620,5,8,0:0:0:0:
256,192,102763,5,0,0:0:0:0:
256,192,102906,5,0,0:0:0:0:
256,192,103049,5,0,0:0:0:0:
256,192,103620,5,8,0:0:0:0:
256,192,103763,5,0,0:0:0:0:
256,192,103906,5,0,0:0:0:0:
256,192,104049,5,8,0:0:0:0:
256,192,104192,5,0,0:0:0:0:
256,192,104335,5,0,0:0:0:0:
256,192,104477,5,8,0:0:0:0:
256,192,104620,5,0,0:0:0:0:
256,192,104763,5,8,0:0:0:0:
256,192,104906,5,8,0:0:0:0:
256,192,105049,5,0,0:0:0:0:
256,192,105192,5,8,0:0:0:0:
256,192,105263,5,8,0:0:0:0:
256,192,105335,5,8,0:0:0:0:
256,192,105620,5,8,0:0:0:0:
256,192,105906,5,8,0:0:0:0:
256,192,106049,5,0,0:0:0:0:
256,192,106192,5,0,0:0:0:0:
256,192,106335,5,8,0:0:0:0:
256,192,106477,5,8,0:0:0:0:
256,192,106620,5,0,0:0:0:0:
256,192,106763,5,8,0:0:0:0:
256,192,106906,5,0,0:0:0:0:
256,192,107049,5,8,0:0:0:0:
256,192,107192,5,8,0:0:0:0:
256,192,107263,5,8,0:0:0:0:
256,192,107335,5,8,0:0:0:0:
256,192,107477,5,0,0:0:0:0:
256,192,107620,5,12,0:0:0:0:
256,192,108192,5,8,0:0:0:0:
256,192,108477,5,12,0:0:0:0:
256,192,109049,5,0,0:0:0:0:
256,192,109192,5,0,0:0:0:0:
256,192,109335,5,12,0:0:0:0:
256,192,109620,1,0,0:0:0:0:
256,192,109906,5,8,0:0:0:0:
256,192,110049,5,0,0:0:0:0:
256,192,110192,5,12,0:0:0:0:
256,192,110335,12,0,111477,0:0:0:0:
256,192,111620,5,12,0:0:0:0:
256,192,112192,5,4,0:0:0:0:
256,192,112763,5,8,0:0:0:0:
256,192,113049,5,8,0:0:0:0:
256,192,113192,5,0,0:0:0:0:
256,192,113620,5,0,0:0:0:0:
256,192,113906,5,8,0:0:0:0:
256,192,114049,5,0,0:0:0:0:
256,192,114192,5,8,0:0:0:0:
256,192,114335,5,0,0:0:0:0:
256,192,114763,5,0,0:0:0:0:
256,192,115049,5,8,0:0:0:0:
256,192,115477,5,0,0:0:0:0:
256,192,115620,5,0,0:0:0:0:
256,192,115763,5,0,0:0:0:0:
256,192,115906,5,0,0:0:0:0:
256,192,116192,5,8,0:0:0:0:
256,192,116477,5,0,0:0:0:0:
256,192,116620,5,8,0:0:0:0:
256,192,116763,5,0,0:0:0:0:
256,192,117335,5,8,0:0:0:0:
256,192,117620,5,8,0:0:0:0:
256,192,117763,5,0,0:0:0:0:
256,192,118192,5,0,0:0:0:0:
256,192,118477,5,8,0:0:0:0:
256,192,118620,5,0,0:0:0:0:
256,192,118763,5,8,0:0:0:0:
256,192,118906,5,0,0:0:0:0:
256,192,119335,5,8,0:0:0:0:
256,192,119620,5,8,0:0:0:0:
256,192,119906,5,8,0:0:0:0:
256,192,120049,5,0,0:0:0:0:
256,192,120192,5,8,0:0:0:0:
256,192,120335,5,8,0:0:0:0:
256,192,120477,5,0,0:0:0:0:
256,192,120620,5,8,0:0:0:0:
256,192,120692,5,8,0:0:0:0:
256,192,120763,5,8,0:0:0:0:
256,192,120906,5,8,0:0:0:0:
256,192,121049,5,0,0:0:0:0:
256,192,121192,5,8,0:0:0:0:
256,192,121335,5,0,0:0:0:0:
256,192,121906,5,8,0:0:0:0:
256,192,122192,5,8,0:0:0:0:
256,192,122335,5,0,0:0:0:0:
256,192,122620,5,8,0:0:0:0:
256,192,122906,5,0,0:0:0:0:
256,192,123192,5,0,0:0:0:0:
256,192,123335,5,8,0:0:0:0:
256,192,123477,5,0,0:0:0:0:
256,192,123906,5,8,0:0:0:0:
256,192,124192,5,8,0:0:0:0:
256,192,124335,5,8,0:0:0:0:
256,192,124477,5,8,0:0:0:0:
256,192,124620,5,0,0:0:0:0:
256,192,124763,5,0,0:0:0:0:
256,192,124906,5,0,0:0:0:0:
256,192,125049,5,8,0:0:0:0:
256,192,125335,5,8,0:0:0:0:
256,192,125477,5,8,0:0:0:0:
256,192,125620,5,0,0:0:0:0:
256,192,125763,5,8,0:0:0:0:
256,192,125906,5,0,0:0:0:0:
256,192,126477,5,8,0:0:0:0:
256,192,126763,5,8,0:0:0:0:
256,192,126906,5,0,0:0:0:0:
256,192,127335,5,0,0:0:0:0:
256,192,127620,5,8,0:0:0:0:
256,192,127906,5,8,0:0:0:0:
256,192,128049,5,8,0:0:0:0:
256,192,128192,5,0,0:0:0:0:
256,192,128477,5,8,0:0:0:0:
256,192,128620,5,8,0:0:0:0:
256,192,128763,5,12,0:0:0:0:
256,192,128906,5,4,0:0:0:0:
256,192,129192,5,4,0:0:0:0:
