osu file format v14

[General]
AudioFilename: audio.mp3
AudioLeadIn: 0
PreviewTime: 39699
Countdown: 1
SampleSet: Soft
StackLeniency: 0.4
Mode: 0
LetterboxInBreaks: 0
WidescreenStoryboard: 0

[Editor]
Bookmarks: 6972,13517,26608,33154,39699,52790,65881,72427,85517,98608,125608,128881
DistanceSpacing: 3
BeatDivisor: 4
GridSize: 4
TimelineZoom: 2.1

[Metadata]
Title:NineTales
TitleUnicode:NineTales
Artist:Memme
ArtistUnicode:Memme
Creator:Bacwux
Version:Expert
Source:
Tags:
BeatmapID:1580466
BeatmapSetID:750533

[Difficulty]
HPDrainRate:7
CircleSize:5
OverallDifficulty:8
ApproachRate:9.6
SliderMultiplier:1.8
SliderTickRate:1

[Events]
//Background and Video events
0,0,"goat.jpg",0,0
//Break Periods
2,66081,70281
//Storyboard Layer 0 (Background)
//Storyboard Layer 1 (Fail)
//Storyboard Layer 2 (Pass)
//Storyboard Layer 3 (Foreground)
//Storyboard Sound Samples

[TimingPoints]
427,272.727272727273,3,2,1,65,1,0
427,-133.333333333333,3,2,1,65,0,0
6972,-100,3,2,1,65,0,0
19858,-100,3,2,1,5,0,0
19927,-100,3,2,1,65,0,0
19995,-100,3,2,1,5,0,0
20063,-100,3,2,1,65,0,0
23131,-100,3,2,1,5,0,0
23199,-100,3,2,1,65,0,0
23267,-100,3,2,1,5,0,0
23336,-100,3,2,1,65,0,0
31517,-80,3,2,1,65,0,0
33154,-100,3,2,1,65,0,0
52790,-116.279069767442,3,2,1,65,0,0
71881,-500,3,2,1,65,0,0
72427,-133.333333333333,3,2,1,65,0,0
85517,-76.9230769230769,3,2,1,65,0,0
90427,-66.6666666666667,3,2,1,65,0,0
92063,-76.9230769230769,3,2,1,65,0,0
98608,-133.333333333333,3,2,1,65,0,0
99154,-100,3,2,1,65,0,0
99427,-80,3,2,1,65,0,0
112517,-71.4285714285714,3,2,1,65,0,0
125608,-50,3,2,1,65,0,1
128336,-133.333333333333,3,2,1,65,0,0
128881,-200,3,2,1,65,0,0
133927,-100,3,2,1,65,0,0
135836,-66.6666666666667,3,2,1,65,0,0
135972,-50,3,2,1,65,0,0
136108,-40,3,2,1,65,0,0

[HitObjects]
96,120,427,6,0,P|152:92|232:128,1,135
216,224,836,1,0,0:0:0:0:
226,121,972,1,0,0:0:0:0:
226,235,1108,1,0,0:0:0:0:
226,235,1177,1,0,0:0:0:0:
226,235,1245,6,0,L|307:228,1,67.5000025749208
311,142,1518,2,0,L|373:194,1,67.5000025749208
436,136,1790,2,0,L|443:217,1,67.5000025749208
311,354,2063,6,0,P|282:313|300:223,1,135.000005149842
358,283,2472,1,0,0:0:0:0:
224,350,2608,1,0,0:0:0:0:
232,200,2745,1,0,0:0:0:0:
219,356,2881,5,0,0:0:0:0:
368,283,3018,1,0,0:0:0:0:
213,227,3154,5,0,0:0:0:0:
219,356,3290,1,0,0:0:0:0:
295,228,3426,5,0,0:0:0:0:
219,356,3563,1,0,0:0:0:0:
88,228,3699,6,0,P|133:202|224:241,1,135
85,315,4108,2,0,L|81:238,2,67.5000025749208
238,226,4518,2,0,P|223:208|175:187,1,67.5000025749208
200,118,4790,2,0,P|176:115|127:134,1,67.5000025749208
96,68,5063,2,0,P|77:83|56:131,1,67.5000025749208
167,272,5336,6,0,B|274:249|274:249|242:234,1,135
181,187,5745,1,0,0:0:0:0:
165,292,5881,2,0,L|272:266,1,90
283,262,6154,6,0,P|325:267|355:293,1,67.5000025749208
370,348,6358,1,0,0:0:0:0:
370,348,6427,1,0,0:0:0:0:
232,304,6631,1,0,0:0:0:0:
232,304,6699,1,0,0:0:0:0:
408,168,6972,6,0,B|412:31|412:31|368:95,1,180
306,142,7381,1,0,0:0:0:0:
245,56,7517,2,0,B|200:45|171:57|171:57|194:72,1,90
271,245,7790,5,0,0:0:0:0:
306,142,7927,1,0,0:0:0:0:
191,189,8063,5,0,0:0:0:0:
365,259,8199,1,0,0:0:0:0:
306,142,8336,5,0,0:0:0:0:
246,318,8472,1,0,0:0:0:0:
191,189,8608,6,0,B|137:166|74:186|74:186|86:218|129:230,1,180
191,264,9017,1,0,0:0:0:0:
306,142,9154,1,0,0:0:0:0:
185,51,9290,1,0,0:0:0:0:
185,73,9358,1,0,0:0:0:0:
186,99,9427,6,0,L|191:193,1,90
361,283,9699,1,0,0:0:0:0:
306,142,9836,1,0,0:0:0:0:
251,283,9972,1,0,0:0:0:0:
306,142,10109,1,0,0:0:0:0:
371,293,10245,6,0,L|369:389,1,90
199,228,10517,2,0,P|252:211|297:225,2,90
177,313,10927,1,0,0:0:0:0:
357,226,11063,2,0,P|389:151|316:158,1,180
284,218,11472,1,0,0:0:0:0:
342,118,11608,2,0,P|398:125|413:202,1,135
412,211,11881,6,0,L|417:302,1,90
190,284,12154,5,0,0:0:0:0:
223,199,12290,1,0,0:0:0:0:
280,270,12427,1,0,0:0:0:0:
190,284,12563,1,0,0:0:0:0:
313,185,12699,5,0,0:0:0:0:
247,355,12836,1,0,0:0:0:0:
133,213,12972,6,0,B|135:155|113:120|113:120|89:79|89:26|126:-2|126:-2|162:24|165:78,1,315
170,87,13517,6,0,P|249:140|336:105,1,180
414,43,13927,2,0,L|405:193,1,135
405,199,14199,1,0,0:0:0:0:
238,261,14336,2,0,P|292:255|329:278,1,90
189,337,14608,2,0,L|95:331,1,90
79,338,14813,1,0,0:0:0:0:
46,323,14881,5,0,0:0:0:0:
134,181,15017,1,0,0:0:0:0:
300,336,15154,6,0,B|430:328|430:328|378:307,1,180
324,264,15495,1,0,0:0:0:0:
314,254,15563,2,0,P|306:209|309:197,1,45
433,201,15836,2,0,P|398:230|386:233,1,45
245,284,15972,5,0,0:0:0:0:
173,188,16245,2,0,L|184:51,1,135
186,37,16517,1,0,0:0:0:0:
69,128,16654,1,0,0:0:0:0:
143,260,16790,5,0,0:0:0:0:
143,260,16858,2,0,P|190:267|251:182,1,135
183,71,17199,2,0,P|150:126|173:188,1,135
178,192,17472,2,0,P|213:202|240:198,1,45
313,108,17608,6,0,P|383:100|432:120,1,90
364,187,17881,2,0,P|419:230|439:279,1,90
344,278,18154,2,0,P|351:347|332:396,1,90
185,306,18427,5,0,0:0:0:0:
185,306,18495,2,0,P|225:297|285:320,1,90
226,370,18699,2,0,L|233:248,1,90
294,149,18972,1,0,0:0:0:0:
163,201,19108,1,0,0:0:0:0:
344,278,19245,5,0,0:0:0:0:
344,278,19517,5,0,0:0:0:0:
163,201,19654,1,0,0:0:0:0:
294,149,19790,2,0,P|308:180|307:215,1,45
196,302,19927,2,0,P|200:280|211:260,1,45
384,211,20063,6,0,P|401:141|328:46,1,180
294,149,20472,1,0,0:0:0:0:
294,149,20745,1,0,0:0:0:0:
141,84,20881,2,0,P|191:68|232:86,1,90
109,248,21154,2,0,L|103:151,1,90
111,162,21358,2,0,P|146:169|163:169,1,45
298,78,21563,1,0,0:0:0:0:
111,162,21699,5,0,0:0:0:0:
295,251,21836,1,0,0:0:0:0:
224,80,21972,1,0,0:0:0:0:
165,268,22108,5,0,0:0:0:0:
224,80,22245,1,0,0:0:0:0:
324,314,22381,1,0,0:0:0:0:
111,162,22517,5,0,0:0:0:0:
111,162,22790,5,0,0:0:0:0:
308,151,22927,1,0,0:0:0:0:
101,91,23063,2,0,P|78:91|48:102,1,45
318,222,23199,2,0,P|339:228|361:228,1,45
299,69,23336,6,0,P|242:104|252:211,1,180
271,273,23677,1,0,0:0:0:0:
271,273,23745,1,0,0:0:0:0:
308,151,23881,1,0,0:0:0:0:
361,228,24017,1,0,0:0:0:0:
262,340,24154,6,0,L|163:334,1,90
61,261,24427,2,0,L|160:255,1,90
308,151,24699,2,0,L|209:145,1,90
51,32,24972,6,0,B|59:196|59:196|99:124,1,225
95,132,25381,2,0,P|122:112|148:103,1,45
223,97,25517,6,0,P|285:119|321:193,1,135
322,200,25790,1,0,0:0:0:0:
291,306,26063,6,0,P|295:257|357:323,1,180
337,362,26472,1,0,0:0:0:0:
221,309,26608,5,0,0:0:0:0:
94,326,26745,1,0,0:0:0:0:
206,271,26881,5,0,0:0:0:0:
110,258,27018,1,0,0:0:0:0:
164,207,27154,5,0,0:0:0:0:
91,216,27291,1,0,0:0:0:0:
45,140,27427,5,0,0:0:0:0:
118,149,27564,1,0,0:0:0:0:
64,98,27700,5,0,0:0:0:0:
160,85,27837,1,0,0:0:0:0:
48,30,27973,5,0,0:0:0:0:
175,47,28108,1,0,0:0:0:0:
235,166,28245,6,0,B|267:155|310:166|310:166|357:178|414:171|443:141|443:141|417:99|382:86|337:97,1,315
349,93,28790,2,0,P|330:143|334:194,1,90
346,328,29063,5,0,0:0:0:0:
267,220,29199,1,0,0:0:0:0:
395,260,29336,1,0,0:0:0:0:
267,303,29472,1,0,0:0:0:0:
345,193,29608,1,0,0:0:0:0:
267,303,29745,1,0,0:0:0:0:
186,231,29881,6,0,B|165:169|187:126|187:126|211:87|174:17|174:17|183:72|166:115,1,315
157,125,30427,1,0,0:0:0:0:
269,176,30563,1,0,0:0:0:0:
427,122,30699,6,0,B|372:106|336:147|336:147|313:109|268:104|268:104|225:97|205:56|205:56|232:77|282:78,1,315
265,66,31245,1,0,0:0:0:0:
400,199,31381,1,0,0:0:0:0:
273,301,31517,6,0,B|230:275|157:310|157:310|73:350|35:296|16:258|31:201|73:189|107:194|126:225|111:250,1,393.75
112,252,32063,1,0,0:0:0:0:
228,384,32199,1,0,0:0:0:0:
328,196,32336,5,0,0:0:0:0:
273,301,32472,1,0,0:0:0:0:
189,130,32608,5,0,0:0:0:0:
233,214,32744,1,0,0:0:0:0:
284,112,32881,5,0,0:0:0:0:
290,103,32949,1,0,0:0:0:0:
292,76,33017,1,0,0:0:0:0:
274,39,33086,1,0,0:0:0:0:
230,9,33154,6,0,B|184:57|190:117|190:117|200:182|137:238|137:238|163:213|222:191|259:226|279:264|280:300,1,450
196,295,33972,2,0,P|189:343|194:389,1,90
276,204,34245,2,0,P|283:252|278:298,1,90
208,157,34517,2,0,P|244:129|343:159,1,135
345,149,34790,6,0,B|402:171|479:138|479:138|436:117|406:120,1,180
378,85,35199,1,0,0:0:0:0:
407,230,35336,1,0,0:0:0:0:
480,138,35472,1,0,0:0:0:0:
365,69,35608,2,0,L|268:68,1,90
201,146,35881,2,0,P|234:99|224:21,1,135
220,14,36154,1,0,0:0:0:0:
293,137,36290,1,0,0:0:0:0:
192,237,36427,6,0,B|157:225|124:235|124:235|87:245|42:231|42:231|93:212,1,180
215,177,36836,2,0,B|220:307|220:307|245:252,1,180
311,221,37245,2,0,P|363:234|288:277,1,180
281,160,37654,1,0,0:0:0:0:
291,85,37790,1,0,0:0:0:0:
301,10,37927,1,0,0:0:0:0:
350,131,38063,5,0,0:0:0:0:
215,177,38199,1,0,0:0:0:0:
360,56,38336,1,0,0:0:0:0:
340,206,38472,2,0,P|322:169|310:157,1,45
225,102,38608,2,0,P|266:104|282:100,1,45
419,102,38745,2,0,P|395:136|391:152,1,45
403,264,38881,5,0,0:0:0:0:
393,282,39154,6,0,L|335:280,3,45
330,293,39427,2,0,P|301:298|271:309,1,45
229,354,39563,2,0,P|200:349|170:338,1,45
92,272,39699,6,0,B|73:227|73:183|89:145|89:145|91:177|108:201,1,180
180,242,40108,2,0,P|232:253|276:244,1,90
360,168,40381,1,0,0:0:0:0:
168,114,40517,2,0,P|196:158|234:183,1,90
426,236,40790,2,0,P|450:188|452:143,1,90
445,129,40995,1,0,0:0:0:0:
455,87,41063,5,0,0:0:0:0:
295,184,41199,1,0,0:0:0:0:
132,45,41336,1,0,0:0:0:0:
132,45,41404,2,0,P|177:34|244:92,1,135
232,155,41677,1,0,0:0:0:0:
224,171,41745,2,0,L|128:169,1,90
78,108,42017,1,0,0:0:0:0:
178,245,42154,5,0,0:0:0:0:
134,169,42427,2,0,L|283:172,1,135
286,183,42699,1,0,0:0:0:0:
226,313,42836,1,0,0:0:0:0:
121,170,42972,5,0,0:0:0:0:
121,170,43040,2,0,P|116:115|175:55,1,135
283,132,43381,2,0,L|182:134,1,90
88,252,43654,1,0,0:0:0:0:
88,252,43722,1,0,0:0:0:0:
88,252,43790,6,0,L|189:254,1,90
340,178,44063,2,0,P|360:134|341:78,1,90
193,133,44336,1,0,0:0:0:0:
292,232,44472,1,0,0:0:0:0:
259,47,44608,5,0,0:0:0:0:
85,162,44745,2,0,L|88:253,1,90
259,337,45017,5,0,0:0:0:0:
94,272,45154,1,0,0:0:0:0:
340,178,45290,1,0,0:0:0:0:
150,353,45427,1,0,0:0:0:0:
164,337,45699,6,0,L|157:228,1,90
276,158,45972,1,0,0:0:0:0:
259,337,46108,1,0,0:0:0:0:
81,236,46245,6,0,P|126:176|225:207,1,180
280,259,46654,2,0,P|326:267|371:249,1,90
439,160,46927,1,0,0:0:0:0:
313,104,47063,2,0,L|317:196,1,90
259,337,47336,2,0,P|216:351|173:343,1,90
124,297,47540,1,0,0:0:0:0:
124,297,47608,2,0,L|126:206,1,90
105,75,47881,5,0,0:0:0:0:
359,152,48017,1,0,0:0:0:0:
170,129,48154,5,0,0:0:0:0:
383,146,48290,1,0,0:0:0:0:
133,195,48427,5,0,0:0:0:0:
310,93,48563,1,0,0:0:0:0:
314,288,48699,1,0,0:0:0:0:
306,295,48972,5,0,0:0:0:0:
212,28,49108,1,0,0:0:0:0:
131,301,49245,5,0,0:0:0:0:
225,34,49381,1,0,0:0:0:0:
364,167,49517,5,0,0:0:0:0:
364,167,49586,2,0,P|317:182|237:145,1,135
310,93,49927,2,0,L|416:86,1,90
479,164,50199,1,0,0:0:0:0:
225,232,50336,2,0,P|219:185|235:129,1,90
154,5,50608,2,0,P|148:52|164:108,1,90
82,278,50881,2,0,P|76:231|92:175,1,90
248,50,51154,6,0,L|360:44,1,90
313,194,51427,1,0,0:0:0:0:
238,62,51563,1,0,0:0:0:0:
385,170,51699,1,0,0:0:0:0:
253,244,51835,1,0,0:0:0:0:
349,52,51972,5,0,0:0:0:0:
422,238,52245,2,0,P|370:246|313:145,1,180
385,170,52654,1,0,0:0:0:0:
303,326,52790,6,0,B|255:336|223:298|223:298|193:313|156:305|156:305|121:298|90:306|90:306|108:290|136:287,1,270.900004133606
179,237,53336,2,0,P|187:194|177:151,1,77.4000011810303
191,84,53608,6,0,P|221:60|258:48,1,77.4000011810303
120,113,53880,2,0,P|84:99|55:73,1,77.4000011810303
181,161,54153,2,0,P|187:200|179:237,1,77.4000011810303
114,196,54427,6,0,B|170:212|222:196|222:196|238:216|238:216|254:196|254:196|306:212|366:196,1,270.900004133606
428,169,54972,1,0,0:0:0:0:
310,129,55108,1,0,0:0:0:0:
282,272,55245,1,0,0:0:0:0:
282,272,55517,5,0,0:0:0:0:
310,129,55654,1,0,0:0:0:0:
428,169,55790,1,0,0:0:0:0:
282,272,55927,1,0,0:0:0:0:
176,126,56063,6,0,P|134:114|58:143,1,116.100001771545
32,198,56336,2,0,P|42:240|105:291,1,116.100001771545
167,287,56608,2,0,P|198:256|211:176,1,116.100001771545
175,125,56881,6,0,P|183:68|222:26,1,116.100001771545
294,24,57153,2,0,P|339:60|357:115,1,116.100001771545
322,177,57426,2,0,P|269:198|213:187,1,116.100001771545
263,109,57699,5,0,0:0:0:0:
397,181,57836,2,0,L|391:270,1,77.4000011810303
255,117,58108,5,0,0:0:0:0:
390,190,58245,1,0,0:0:0:0:
258,280,58381,1,0,0:0:0:0:
123,207,58517,2,0,L|118:85,1,116.100001771545
105,75,58790,5,0,0:0:0:0:
221,180,58927,1,0,0:0:0:0:
152,268,59063,1,0,0:0:0:0:
202,339,59199,1,0,0:0:0:0:
345,271,59336,6,0,B|363:236|319:181|280:155|219:180|169:244|204:307|280:261|267:265,1,270.900004133606
281,259,59881,2,0,P|296:210|292:178,1,77.4000011810303
135,143,60154,6,0,B|174:163|174:163|221:165,1,77.4000011810303
250,26,60427,2,0,B|213:49|213:49|187:89,1,77.4000011810303
293,184,60699,2,0,B|290:140|290:140|269:98,1,77.4000011810303
118,69,60972,5,0,0:0:0:0:
131,217,61108,2,0,B|118:69|118:69|80:135,1,193.500002952576
90,122,61517,1,0,0:0:0:0:
239,229,61654,1,0,0:0:0:0:
425,159,61790,6,0,P|364:160|341:174,1,77.4000011810303
90,122,62063,2,0,P|148:138|167:158,1,77.4000011810303
429,32,62336,2,0,P|376:63|363:86,1,77.4000011810303
367,312,62608,6,0,B|364:223|364:223|343:257,1,116.100001771545
345,255,62881,5,0,0:0:0:0:
135,320,63017,1,0,0:0:0:0:
183,105,63154,1,0,0:0:0:0:
177,111,63427,6,0,B|266:97|266:97|223:79,1,116.100001771545
231,82,63699,5,0,0:0:0:0:
256,300,63836,1,0,0:0:0:0:
474,274,63972,1,0,0:0:0:0:
449,56,64108,1,0,0:0:0:0:
199,223,64245,6,0,P|151:233|87:198,1,116.100001771545
82,191,64517,5,0,0:0:0:0:
283,36,64654,1,0,0:0:0:0:
316,287,64790,2,0,L|212:290,1,77.4000011810303
79,295,65063,5,0,0:0:0:0:
70,300,65336,1,0,0:0:0:0:
157,162,65472,1,0,0:0:0:0:
245,353,65608,1,0,0:0:0:0:
380,106,65745,1,0,0:0:0:0:
499,364,65881,5,0,0:0:0:0:
256,192,70790,12,0,71745,3:0:0:0:
158,124,71881,6,0,L|225:121,1,63,0|0,3:0|3:0,3:0:0:0:
243,119,72427,6,0,L|232:266,1,135.000005149842,0|0,3:0|3:0,3:0:0:0:
172,308,72836,2,0,P|230:281|283:317,1,135.000005149842,0|0,3:0|3:0,3:0:0:0:
350,353,73245,1,0,3:0:0:0:
357,346,73517,2,0,B|350:246|350:246|372:286,1,135.000005149842,0|0,3:0|3:0,3:0:0:0:
426,315,73927,1,0,3:0:0:0:
317,167,74063,1,0,3:0:0:0:
343,238,74199,2,0,P|379:208|375:122,1,135.000005149842,0|0,3:0|3:0,3:0:0:0:
309,94,74608,2,0,L|233:98,1,67.5000025749208,0|0,3:0|3:0,3:0:0:0:
122,165,74881,6,0,L|189:161,1,67.5000025749208,0|0,3:0|3:0,3:0:0:0:
85,109,75154,1,8,3:0:0:0:
88,221,75290,1,0,3:0:0:0:
88,221,75358,1,0,3:0:0:0:
88,221,75427,1,8,3:0:0:0:
136,62,75563,1,0,3:0:0:0:
34,156,75699,5,2,3:0:0:0:
142,286,75836,1,8,3:0:0:0:
288,214,75972,2,0,P|254:206|214:217,1,67.5000025749208,8|0,3:0|3:0,3:0:0:0:
240,347,76245,1,0,3:0:0:0:
240,347,76313,1,0,3:0:0:0:
240,347,76381,2,8,L|289:345,1,33.7500012874604,8|8,3:0|3:0,3:0:0:0:
381,293,76517,5,8,3:0:0:0:
381,293,76654,1,0,3:0:0:0:
317,137,76790,1,2,3:0:0:0:
254,275,76927,1,2,3:0:0:0:
450,196,77063,1,8,3:0:0:0:
441,200,77336,5,4,3:0:0:0:
381,97,77472,1,0,3:0:0:0:
347,95,77540,1,0,3:0:0:0:
313,94,77608,1,8,3:0:0:0:
290,203,77745,1,0,3:0:0:0:
256,204,77813,1,0,3:0:0:0:
222,205,77881,1,8,3:0:0:0:
193,221,77949,1,8,3:0:0:0:
177,250,78017,1,8,3:0:0:0:
178,284,78085,1,8,3:0:0:0:
196,312,78154,5,12,3:0:0:0:
117,186,78290,1,0,3:0:0:0:
25,354,78427,2,0,L|115:351,1,67.5000025749208,4|0,3:0|3:0,3:0:0:0:
245,267,78699,1,0,3:0:0:0:
180,131,78836,1,0,3:0:0:0:
180,131,78904,1,0,3:0:0:0:
180,131,78972,5,4,3:0:0:0:
44,203,79108,2,8,L|50:273,1,67.5000025749208,8|8,3:0|3:0,3:0:0:0:
239,334,79381,2,8,L|244:266,1,67.5000025749208,8|8,3:0|3:0,3:0:0:0:
121,117,79654,5,2,3:0:0:0:
121,117,79722,1,2,3:0:0:0:
121,117,79790,1,2,3:0:0:0:
244,266,79927,1,8,3:0:0:0:
244,266,79995,1,8,3:0:0:0:
244,266,80063,1,8,3:0:0:0:
323,153,80199,1,0,3:0:0:0:
181,195,80336,1,0,3:0:0:0:
332,243,80472,1,0,3:0:0:0:
364,235,80540,1,0,3:0:0:0:
397,228,80608,6,0,L|394:279,1,33.7500012874604,4|0,3:0|3:0,3:0:0:0:
386,342,80745,1,0,3:0:0:0:
245,233,80881,2,0,L|245:286,1,33.7500012874604,4|0,3:0|3:0,3:0:0:0:
253,349,81018,1,8,3:0:0:0:
253,349,81086,1,8,3:0:0:0:
253,349,81154,1,8,3:0:0:0:
164,230,81290,1,2,3:0:0:0:
130,233,81358,1,2,3:0:0:0:
96,236,81426,5,2,3:0:0:0:
45,313,81563,1,0,3:0:0:0:
79,316,81631,1,0,3:0:0:0:
113,319,81699,1,0,3:0:0:0:
233,263,81836,1,0,3:0:0:0:
240,230,81904,1,0,3:0:0:0:
234,197,81972,2,0,L|160:193,1,67.5000025749208,4|0,3:0|3:0,3:0:0:0:
92,102,82245,5,8,3:0:0:0:
261,82,82381,1,0,3:0:0:0:
99,106,82517,1,8,3:0:0:0:
268,86,82653,1,0,3:0:0:0:
195,227,82790,5,2,3:0:0:0:
178,60,82927,1,2,3:0:0:0:
274,181,83063,5,2,3:0:0:0:
99,106,83199,1,2,3:0:0:0:
240,19,83336,5,8,3:0:0:0:
195,227,83472,1,0,3:0:0:0:
99,106,83608,1,8,3:0:0:0:
331,107,83745,1,0,3:0:0:0:
184,236,83881,6,8,P|177:273|176:300,2,45.0000017166138,12|8|8,3:0|3:0|3:0,3:0:0:0:
259,300,84154,2,8,P|266:337|267:364,2,45.0000017166138,12|8|8,3:0|3:0|3:0,3:0:0:0:
263,221,84427,1,12,3:0:0:0:
300,197,84517,1,8,3:0:0:0:
345,198,84608,1,8,3:0:0:0:
382,222,84699,5,4,3:0:0:0:
59,164,84972,1,0,0:0:0:0:
75,151,85040,1,0,0:0:0:0:
99,141,85108,1,0,0:0:0:0:
132,133,85177,1,0,0:0:0:0:
173,135,85245,1,0,0:0:0:0:
214,149,85313,1,0,0:0:0:0:
264,157,85381,1,0,0:0:0:0:
319,144,85449,1,0,0:0:0:0:
376,112,85517,5,0,0:0:0:0:
324,272,85654,1,0,0:0:0:0:
278,86,85790,5,0,0:0:0:0:
284,212,85927,1,0,0:0:0:0:
217,158,86063,5,0,0:0:0:0:
212,252,86200,1,0,0:0:0:0:
164,205,86336,5,0,0:0:0:0:
159,111,86473,1,0,0:0:0:0:
92,165,86609,5,0,0:0:0:0:
98,39,86746,1,0,0:0:0:0:
52,225,86882,5,0,0:0:0:0:
0,65,87017,1,0,0:0:0:0:
106,302,87154,6,0,B|146:315|214:297|214:297|318:271|376:309|376:309|317:290|241:313,1,409.499981254578
224,325,87699,2,0,P|202:270|222:215,1,116.999994644165
378,128,87972,5,0,0:0:0:0:
331,271,88109,1,2,0:0:0:0:
301,270,88177,1,2,0:0:0:0:
272,269,88245,1,4,0:0:0:0:
189,104,88381,1,0,0:0:0:0:
394,215,88517,1,8,0:0:0:0:
272,269,88654,1,8,0:0:0:0:
286,75,88790,6,0,B|339:54|390:74|390:74|433:93|472:72|472:72|452:56|383:106,1,292.499986610413,4|0,0:0|0:0,0:0:0:0:
374,118,89199,1,0,0:0:0:0:
356,303,89336,1,0,0:0:0:0:
474,183,89472,1,0,0:0:0:0:
272,82,89608,6,0,B|225:98|164:76|164:76|174:99|174:99|128:87|65:106|65:106|100:105|142:133|150:182,1,350.999983932496
63,187,90154,1,0,0:0:0:0:
228,7,90290,1,0,0:0:0:0:
225,166,90427,6,0,B|206:218|224:274|224:274|237:320|210:366|210:366|218:323|199:284|199:284|224:260|254:272|254:272|286:283|322:269,1,405.000015449525
134,340,90972,1,0,0:0:0:0:
286,208,91108,1,0,0:0:0:0:
121,139,91245,5,0,0:0:0:0:
270,213,91381,1,0,0:0:0:0:
176,72,91517,5,0,0:0:0:0:
199,229,91654,1,0,0:0:0:0:
291,58,91790,2,2,P|266:85|255:122,1,67.5000025749208
120,138,91927,2,2,P|153:140|184:155,1,67.5000025749208
254,197,92063,6,0,B|317:176|368:200|368:200|404:217|448:228|483:196|483:196|424:215|363:182,1,350.999983932496,4|0,0:0|0:0,0:0:0:0:
431,129,92608,2,0,L|428:264,1,116.999994644165
252,311,92881,6,0,B|293:285|343:297|343:297|318:297|302:308,1,116.999994644165,8|0,0:0|0:0,0:0:0:0:
316,199,93154,2,0,B|363:209|390:253|390:253|372:235|353:232,1,116.999994644165
213,238,93427,2,0,B|180:184|198:129|198:129|236:135|254:187,1,175.499991966248
246,180,93699,6,0,B|189:206|127:169|127:169|133:138|169:78|226:88|226:88|198:58|172:57,1,292.499986610413
191,57,94108,1,0,0:0:0:0:
290,124,94245,1,0,0:0:0:0:
120,169,94381,1,0,0:0:0:0:
288,42,94517,6,0,B|296:134|296:134|279:115,1,116.999994644165,8|0,0:0|0:0,0:0:0:0:
203,237,94790,2,0,B|195:145|195:145|211:163,1,116.999994644165
348,202,95063,6,0,P|310:214|277:208,1,58.4999973220826
242,72,95199,2,0,P|271:98|282:130,1,58.4999973220826
165,256,95336,6,0,P|182:179|239:162,1,116.999994644165,8|0,0:0|0:0,0:0:0:0:
249,302,95608,1,0,0:0:0:0:
77,249,95745,2,0,B|61:213|79:182|79:182|93:154|69:104,1,116.999994644165,8|0,0:0|0:0,0:0:0:0:
25,80,96017,1,0,0:0:0:0:
233,230,96154,5,8,0:0:0:0:
77,249,96290,1,0,0:0:0:0:
198,76,96427,1,0,0:0:0:0:
155,328,96563,5,8,0:0:0:0:
137,138,96699,1,0,0:0:0:0:
45,346,96836,1,0,0:0:0:0:
313,233,96972,5,8,0:0:0:0:
75,185,97108,1,8,0:0:0:0:
249,302,97245,1,8,0:0:0:0:
263,55,97381,6,2,P|244:87|241:118,1,58.4999973220826
349,277,97517,2,2,P|330:244|305:226,1,58.4999973220826
113,240,97654,2,2,P|150:240|178:227,1,58.4999973220826
320,108,97790,1,4,0:0:0:0:
320,108,98063,5,0,0:0:0:0:
316,122,98131,1,0,0:0:0:0:
314,136,98199,1,0,0:0:0:0:
316,151,98267,1,0,0:0:0:0:
320,165,98336,1,2,0:0:0:0:
327,193,98404,1,2,0:0:0:0:
329,222,98472,1,2,0:0:0:0:
325,251,98540,1,2,0:0:0:0:
315,279,98608,5,4,0:0:0:0:
403,249,98745,1,0,0:0:0:0:
246,218,98881,2,0,L|161:215,1,67.5000025749208
214,340,99154,1,0,0:0:0:0:
327,193,99290,1,0,0:0:0:0:
128,63,99427,6,0,P|111:121|138:181,1,112.5,4|0,0:0|0:0,0:0:0:0:
293,82,99699,2,0,P|232:83|183:127,1,112.5
223,268,99972,1,0,0:0:0:0:
264,156,100108,1,0,0:0:0:0:
75,277,100245,6,0,B|102:297|154:289|154:289|135:290|112:280,1,112.5,8|0,0:0|0:0,0:0:0:0:
192,114,100517,2,0,B|161:127|142:176|142:176|150:159|170:144,1,112.5
275,297,100790,2,0,B|278:263|245:222|245:222|256:238|259:263,1,112.5
214,351,101063,6,0,B|272:329|328:347|328:347|394:369|452:345|452:345|405:347|347:328,1,337.5
231,207,101608,1,0,0:0:0:0:
317,277,101745,1,0,0:0:0:0:
112,341,101881,2,0,B|107:258|107:258|133:291,1,112.5,8|0,0:0|0:0,0:0:0:0:
214,351,102154,5,2,0:0:0:0:
31,224,102290,1,2,0:0:0:0:
261,166,102427,1,2,0:0:0:0:
112,341,102563,1,2,0:0:0:0:
99,93,102699,6,0,B|230:81|230:81|174:112,1,168.75
151,160,102972,2,0,B|118:178|118:178|249:166,1,168.75
294,107,103245,2,0,P|326:148|263:244,1,168.75
208,278,103517,6,0,B|255:269|299:284|299:284|344:302|400:282,1,168.75
425,239,103790,2,0,P|426:163|339:102,1,168.75
294,107,104063,2,0,B|175:116|175:116|230:98,1,168.75
259,40,104336,5,0,0:0:0:0:
239,194,104472,2,0,L|113:186,1,112.5
328,42,104745,1,0,0:0:0:0:
322,277,104881,2,0,L|196:285,1,112.5
307,173,105154,5,0,0:0:0:0:
404,352,105290,1,0,0:0:0:0:
200,287,105427,5,0,0:0:0:0:
393,354,105563,1,0,0:0:0:0:
432,149,105699,1,0,0:0:0:0:
272,358,105836,1,0,0:0:0:0:
110,229,105972,6,0,B|77:163|112:97|145:22|81:0|81:0|101:58|84:107,1,337.5
179,166,106517,2,0,P|235:117|301:120,1,112.5
259,307,106790,6,0,L|257:180,1,112.5
341,49,107063,2,0,L|339:176,1,112.5
244,330,107336,2,0,L|242:203,1,112.5
308,354,107608,1,0,0:0:0:0:
267,89,107745,2,0,B|312:45|405:49|455:91|457:174|418:182|393:197,1,281.25
385,197,108154,1,0,0:0:0:0:
203,141,108290,1,0,0:0:0:0:
392,203,108427,6,0,P|415:259|395:307,1,112.5
197,147,108699,2,0,P|233:99|285:92,1,112.5
200,350,108972,2,0,P|140:341|108:300,1,112.5
125,114,109245,6,0,P|191:158|170:248,1,168.75
171,249,109517,1,0,0:0:0:0:
269,41,109654,1,0,0:0:0:0:
400,229,109790,1,0,0:0:0:0:
348,172,110063,6,0,B|381:157|435:174|435:174|484:192|517:171,1,168.75
474,114,110336,1,0,0:0:0:0:
366,277,110472,1,0,0:0:0:0:
202,170,110608,1,0,0:0:0:0:
309,6,110745,1,0,0:0:0:0:
290,317,110881,6,0,B|218:330|170:313|187:240|215:234|257:243,1,168.75
238,239,111154,1,0,0:0:0:0:
370,337,111290,1,0,0:0:0:0:
120,361,111427,2,0,L|111:227,1,112.5
87,108,111699,5,0,0:0:0:0:
76,114,111972,5,0,0:0:0:0:
159,37,112108,1,0,0:0:0:0:
239,215,112244,1,0,0:0:0:0:
349,0,112381,1,0,0:0:0:0:
455,273,112517,6,0,B|414:318|343:286|343:286|266:248|210:300,1,251.999992309571
283,351,112927,1,0,0:0:0:0:
395,226,113063,2,0,B|450:164|397:98|337:103|314:144|337:177,1,188.999994232178
329,164,113336,6,0,B|427:155|427:155|393:131,1,125.999996154785
232,54,113608,2,0,B|330:63|330:63|296:87,1,125.999996154785
135,184,113881,2,0,B|233:175|233:175|199:151,1,125.999996154785
114,86,114154,6,0,B|62:106|62:158|90:190|90:190|62:222|62:274|129:296,1,251.999992309571
292,237,114563,1,0,0:0:0:0:
88,189,114699,5,0,0:0:0:0:
189,332,114836,1,0,0:0:0:0:
283,121,114972,1,0,0:0:0:0:
268,108,115245,5,0,0:0:0:0:
486,85,115381,1,0,0:0:0:0:
268,276,115517,1,0,0:0:0:0:
486,299,115653,1,0,0:0:0:0:
343,66,115790,6,0,P|279:26|182:89,1,188.999994232178
153,144,116063,2,0,P|150:219|248:282,1,188.999994232178
315,269,116336,2,0,P|381:233|387:117,1,188.999994232178
227,193,116608,6,0,B|241:336|241:336|276:286,1,188.999994232178
301,202,116881,2,0,B|287:59|287:59|262:97,1,188.999994232178
183,252,117154,2,0,B|312:275|312:275|394:236,1,188.999994232178
373,243,117427,5,0,0:0:0:0:
227,193,117563,2,0,L|102:170,1,125.999996154785
59,274,117836,5,0,0:0:0:0:
183,252,117972,1,0,0:0:0:0:
307,230,118108,1,0,0:0:0:0:
174,83,118245,6,0,B|145:68|92:39|40:76,1,125.999996154785
103,170,118517,1,0,0:0:0:0:
322,140,118654,1,0,0:0:0:0:
159,234,118790,1,0,0:0:0:0:
303,274,118927,1,0,0:0:0:0:
240,347,119063,6,0,B|154:351|89:334|55:264|117:219|162:238,1,251.999992309571
303,274,119472,1,0,0:0:0:0:
408,148,119608,2,0,P|421:69|390:26,1,125.999996154785
219,173,119881,6,0,B|121:163|121:163|152:131,1,125.999996154785
274,220,120154,2,0,B|314:309|314:309|271:299,1,125.999996154785
287,148,120427,2,0,B|344:68|344:68|356:110,1,125.999996154785
199,253,120699,1,0,0:0:0:0:
124,267,120836,2,0,P|151:197|275:266,1,251.999992309571
180,330,121245,5,0,0:0:0:0:
118,280,121381,1,0,0:0:0:0:
246,165,121517,6,0,P|260:109|149:50,1,188.999994232178
192,206,121790,2,0,B|233:214|260:201|260:201|292:218|292:218|333:197|376:208,1,188.999994232178
300,141,122063,2,0,P|288:183|293:218,1,62.9999980773926
394,331,122199,2,0,P|363:299|330:286,1,62.9999980773926
213,304,122336,6,0,B|173:331|127:313|127:313|72:294|21:332,1,188.999994232178
17,332,122608,1,0,0:0:0:0:
136,96,122745,1,0,0:0:0:0:
281,318,122881,1,0,0:0:0:0:
274,324,123154,6,0,B|269:254|269:254|295:213|295:213|290:120,1,188.999994232178
284,133,123427,1,0,0:0:0:0:
443,339,123563,1,0,0:0:0:0:
175,300,123699,1,0,0:0:0:0:
363,172,123836,1,0,0:0:0:0:
181,62,123972,6,0,B|79:73|79:73|146:103,1,125.999996154785
257,193,124245,1,0,0:0:0:0:
331,62,124381,6,0,B|433:73|433:73|366:103,1,125.999996154785
255,193,124654,1,0,0:0:0:0:
147,307,124790,5,0,0:0:0:0:
311,292,124927,1,0,0:0:0:0:
173,234,125063,5,0,0:0:0:0:
327,282,125199,1,0,0:0:0:0:
100,339,125336,6,0,P|153:346|175:341,1,62.9999980773926
337,287,125472,2,0,P|390:280|412:285,1,62.9999980773926
51,231,125608,5,0,0:0:0:0:
330,293,125745,1,0,0:0:0:0:
169,20,125881,5,0,0:0:0:0:
210,351,126017,1,0,0:0:0:0:
309,132,126154,5,0,0:0:0:0:
106,113,126290,1,0,0:0:0:0:
276,359,126427,5,0,0:0:0:0:
304,124,126563,1,0,0:0:0:0:
92,320,126699,5,0,0:0:0:0:
469,180,126836,1,0,0:0:0:0:
153,135,126972,5,0,0:0:0:0:
351,256,127108,1,0,0:0:0:0:
80,338,127245,5,0,0:0:0:0:
256,44,127381,1,0,0:0:0:0:
432,338,127517,1,0,0:0:0:0:
80,46,127654,2,0,P|127:31|178:37,1,90
432,46,127790,2,0,P|421:94|390:135,1,90
256,340,127927,2,0,P|219:306|199:259,1,90
258,157,128063,5,0,0:0:0:0:
257,150,128336,6,0,L|368:143,1,101.250003862381
369,150,128608,6,0,L|366:175,6,16.8750006437302
403,242,128881,1,0,0:0:0:0:
345,295,129017,2,0,L|235:287,1,90
189,227,129427,1,0,0:0:0:0:
236,149,129563,1,0,0:0:0:0:
246,298,129699,2,0,L|196:295,1,45
90,182,129972,2,0,L|134:184,1,45
80,303,130245,5,0,0:0:0:0:
77,185,130381,1,0,0:0:0:0:
73,64,130517,5,0,0:0:0:0:
131,11,130654,2,0,L|241:19,1,90
287,79,131063,1,0,0:0:0:0:
240,157,131199,1,0,0:0:0:0:
230,8,131335,2,0,L|279:10,1,45
386,124,131608,2,0,L|341:121,1,45
432,81,131881,5,0,0:0:0:0:
435,199,132017,1,0,0:0:0:0:
439,320,132153,5,0,0:0:0:0:
381,373,132290,2,0,L|271:365,1,90
225,305,132699,1,0,0:0:0:0:
272,227,132835,1,0,0:0:0:0:
282,376,132971,2,0,L|232:373,1,45
126,260,133244,2,0,L|170:262,1,45
117,374,133517,5,0,0:0:0:0:
114,256,133654,1,0,0:0:0:0:
110,135,133790,5,0,0:0:0:0:
168,82,133927,2,0,L|278:90,1,90
355,158,134199,1,0,0:0:0:0:
264,98,134336,1,0,0:0:0:0:
323,225,134472,1,0,0:0:0:0:
399,99,134608,2,0,L|395:0,1,90
229,189,134881,5,0,0:0:0:0:
439,202,135017,1,0,0:0:0:0:
269,89,135154,5,0,0:0:0:0:
260,306,135290,1,0,0:0:0:0:
61,162,135427,6,0,B|89:139|128:154|128:154|169:168|213:124,1,135
205,137,135699,1,0,0:0:0:0:
71,273,135836,6,0,L|144:279,1,67.5000025749208
401,207,135972,2,0,L|298:216,1,90
35,77,136108,2,0,L|156:88,1,112.5
429,351,136245,5,0,0:0:0:0:
