osu file format v14

[General]
AudioFilename: music.mp3
AudioLeadIn: 0
PreviewTime: 86790
Countdown: 0
SampleSet: Soft
StackLeniency: 0.2
Mode: 0
LetterboxInBreaks: 0
WidescreenStoryboard: 1

[Editor]
Bookmarks: 7530,123030
DistanceSpacing: 1
BeatDivisor: 8
GridSize: 32
TimelineZoom: 2

[Metadata]
Title:NEW Astronomas
TitleUnicode:NEW Astronomas
Artist:Memme
ArtistUnicode:Memme
Creator:rrtyui
Version:tyui
Source:O2Jam U
Tags:remix Memme
BeatmapID:950679
BeatmapSetID:442034

[Difficulty]
HPDrainRate:6
CircleSize:4
OverallDifficulty:8
ApproachRate:9.3
SliderMultiplier:3.4
SliderTickRate:1

[Events]
//Background and Video events
0,0,"bg.jpg",0,0
//Break Periods
2,61730,72976
//Storyboard Layer 0 (Background)
//Storyboard Layer 1 (Fail)
//Storyboard Layer 2 (Pass)
//Storyboard Layer 3 (Foreground)
//Storyboard Sound Samples

[TimingPoints]
1530,375,4,2,0,80,1,0
19530,-80,4,2,0,80,0,0
20561,-50,4,2,0,80,0,0
21030,-80,4,2,0,80,0,0
21780,-100,4,2,0,80,0,0
31530,-200,4,2,0,80,0,0
31905,-100,4,2,0,80,0,0
33030,-200,4,2,0,80,0,0
33405,-100,4,2,0,80,0,0
34530,-200,4,2,0,80,0,0
34905,-100,4,2,0,80,0,0
36405,-50,4,2,0,80,0,0
37155,-100,4,2,0,80,0,0
37530,-66.6666666666667,4,2,0,80,0,0
37905,-100,4,2,0,80,0,0
60030,-133.333333333333,4,2,0,80,0,0
60405,-100,4,2,0,80,0,0
85858,-90.9090909090909,4,1,0,80,0,0
86655,-200,4,2,0,80,0,1
87030,-100,4,2,0,80,0,1
89655,-76.9230769230769,4,2,0,80,0,1
90030,-100,4,2,0,80,0,1
90780,-66.6666666666667,4,1,0,80,0,1
91155,-100,4,2,0,80,0,1
96780,-66.6666666666667,4,1,0,80,0,1
97155,-200,4,2,0,80,0,1
97717,-133.333333333333,4,2,0,80,0,1
97905,-100,4,2,0,80,0,1
98655,-50,4,2,0,80,0,1
99030,-100,4,2,0,80,0,1
102780,-66.6666666666667,4,1,0,80,0,1
103155,-100,4,2,0,80,0,1
108780,-66.6666666666667,4,1,0,80,0,1
109155,-200,4,2,0,80,0,1
109717,-133.333333333333,4,2,0,80,0,1
109905,-100,4,2,0,80,0,1
111030,-100,4,2,0,80,0,0

[HitObjects]
64,85,7342,5,0,0:0:0:0:
64,85,7530,6,0,B|177:66|139:116|252:98,1,169.999995231628,4|0,0:0|0:0,0:0:0:0:
300,152,7905,2,0,P|316:92|250:18,1,170,8|0,0:0|0:0,0:0:0:0:
468,120,8280,5,0,1:0:0:0:
448,124,8373,2,0,L|432:216,1,84.9999976158142
388,4,8655,5,8,0:0:0:0:
437,211,8842,1,0,0:0:0:0:
437,211,8936,1,0,0:0:0:0:
512,180,9030,6,0,B|468:236|468:236|488:352,1,169.999995231628,0|0,1:0|0:0,0:0:0:0:
216,172,9405,2,0,B|105:157|105:157|153:105,1,169.999995231628,8|0,0:0|0:0,0:0:0:0:
324,132,9780,5,0,1:0:0:0:
304,136,9873,2,0,L|294:231,1,85
512,180,10155,6,0,L|428:188,1,84.9999976158142,8|0,0:0|0:0,0:0:0:0:
167,56,10342,2,0,L|251:64,1,84.9999976158142
472,12,10530,6,0,B|464:184,1,169.999995231628,0|0,1:0|0:0,0:0:0:0:
175,226,10905,2,0,B|167:54,1,169.999995231628,8|0,0:0|0:0,0:0:0:0:
464,181,11280,5,0,1:0:0:0:
444,185,11373,2,0,L|434:282,1,85
500,340,11655,5,8,0:0:0:0:
248,256,11842,1,2,0:0:0:0:
175,225,11936,1,2,0:0:0:0:
108,276,12030,5,4,0:0:0:0:
97,257,12217,1,0,0:0:0:0:
92,236,12405,1,0,0:0:0:0:
92,215,12592,1,0,0:0:0:0:
436,88,12780,5,2,0:0:0:0:
32,48,12967,1,0,0:0:0:0:
32,48,13061,1,2,0:0:0:0:
472,16,13248,1,2,0:0:0:0:
40,68,13436,1,0,0:0:0:0:
32,48,13530,6,0,B|132:32|84:96|248:64,1,169.999995231628,4|0,0:0|0:0,0:0:0:0:
224,64,13811,1,0,0:0:0:0:
240,44,13905,2,0,L|232:128,1,84.9999976158142,8|0,0:0|0:0,0:0:0:0:
320,52,14092,2,0,L|312:136,1,84.9999976158142
404,80,14280,1,0,1:0:0:0:
400,60,14373,1,0,0:0:0:0:
508,284,14561,1,0,0:0:0:0:
504,304,14655,2,0,L|420:292,1,84.9999976158143,8|0,0:0|0:0,0:0:0:0:
376,220,14842,2,0,L|292:232,1,84.9999976158143
136,320,15030,6,0,B|76:360|76:360|100:168,1,254.999992847443,0|2,1:0|0:0,0:0:0:0:
28,132,15405,2,0,B|59:166|59:166|137:162|137:162|162:125,1,169.999995231629,8|2,0:0|0:0,0:0:0:0:
476,104,15780,5,0,1:0:0:0:
472,84,15873,2,0,L|300:72,1,169.999995231629,2|2,0:0|0:0,0:0:0:0:
228,28,16155,2,0,P|344:28|396:0,1,169.999995231629,8|2,0:0|0:0,0:0:0:0:
348,236,16530,6,0,B|256:216|280:260|180:240,1,169.999995231629,0|0,1:0|0:0,0:0:0:0:
156,224,16811,1,0,0:0:0:0:
144,200,16905,2,0,L|136:116,1,84.9999976158143,8|0,0:0|0:0,0:0:0:0:
224,192,17092,2,0,L|216:108,1,84.9999976158143
476,272,17280,1,0,1:0:0:0:
476,272,17373,2,0,B|396:304|396:304|448:392,1,169.999995231629,2|2,0:0|0:0,0:0:0:0:
348,236,17655,1,8,0:0:0:0:
304,216,17748,1,0,0:0:0:0:
344,212,17842,1,0,0:0:0:0:
308,192,17936,1,0,0:0:0:0:
224,192,18030,6,0,B|244:76|244:76|212:20,1,169.999995231629,0|0,1:0|0:0,0:0:0:0:
324,76,18311,1,2,0:0:0:0:
348,72,18405,2,0,B|476:60|476:60|432:32,1,169.999995231629,8|2,0:0|0:0,0:0:0:0:
32,68,18780,6,0,P|116:64|164:152,1,169.999995231629,0|2,1:0|2:0,0:0:0:0:
348,124,19061,1,0,0:0:0:0:
333,141,19155,2,0,L|141:125,1,169.999995231629,8|0,0:0|0:0,0:0:0:0:
85,140,19436,1,0,0:0:0:0:
81,116,19530,6,0,P|227:73|161:210,1,318.75,4|0,0:0|0:0,0:0:0:0:
164,127,19905,1,8,0:0:0:0:
85,140,20092,1,0,0:0:0:0:
81,116,20186,1,0,0:0:0:0:
164,127,20280,6,0,P|269:121|223:270,1,318.75,0|0,1:0|0:0,0:0:0:0:
221,188,20655,6,0,L|392:172,1,169.999995231629,8|0,0:0|0:0,0:0:0:0:
477,204,20842,2,0,L|306:188,1,169.999995231629
376,352,21030,6,0,P|237:297|322:210,1,318.75,0|0,1:0|0:0,0:0:0:0:
320,292,21405,1,8,0:0:0:0:
376,352,21592,1,0,0:0:0:0:
392,332,21686,1,0,0:0:0:0:
320,292,21780,5,0,1:0:0:0:
304,312,21873,1,0,0:0:0:0:
312,336,21967,2,0,P|276:360|224:356,1,84.9999976158143,2|0,0:0|0:0,0:0:0:0:
184,150,22155,2,0,P|148:126|96:130,1,84.9999976158143,8|0,0:0|0:0,0:0:0:0:
29,200,22342,2,0,L|37:296,1,84.9999976158143,2|0,0:0|0:0,0:0:0:0:
236,360,22530,6,0,P|284:276|264:208,1,169.999995231629,0|0,1:0|0:0,0:0:0:0:
196,156,22811,1,0,0:0:0:0:
176,171,22905,5,8,0:0:0:0:
152,180,22998,1,0,0:0:0:0:
127,181,23092,1,0,0:0:0:0:
102,174,23186,1,0,0:0:0:0:
42,77,23280,5,0,1:0:0:0:
67,70,23373,1,0,0:0:0:0:
92,71,23467,1,0,0:0:0:0:
116,80,23561,1,0,0:0:0:0:
172,144,23655,6,0,B|272:164|236:112|340:136,1,169.999995231629,8|0,0:0|0:0,0:0:0:0:
400,188,23936,1,0,0:0:0:0:
400,188,24030,5,8,2:0:0:0:
412,108,24123,1,8,2:0:0:0:
360,48,24217,1,8,2:0:0:0:
428,92,24311,1,8,2:0:0:0:
504,71,24405,2,0,B|508:66|508:56|508:56|524:66|525:100|501:117,1,85,8|2,2:0|0:0,0:0:0:0:
300,160,24592,5,8,0:0:0:0:
304,184,24686,2,0,L|204:176,1,84.9999976158143
136,140,24873,1,8,0:0:0:0:
140,164,24967,2,0,L|40:156,1,84.9999976158143
380,124,25155,1,8,0:0:0:0:
500,324,25342,5,10,0:0:0:0:
464,352,25436,1,2,0:0:0:0:
416,348,25530,1,4,2:0:0:0:
244,272,25811,5,0,0:0:0:0:
248,292,25905,2,0,P|300:248|324:320,1,169.999995231629,4|0,3:0|0:0,0:0:0:0:
428,328,26186,1,0,0:0:0:0:
416,348,26280,2,0,P|312:344|264:384,2,169.999995231629,4|0|4,3:0|0:0|3:0,0:0:0:0:
312,256,26842,1,0,0:0:0:0:
312,256,26936,1,0,0:0:0:0:
312,256,27030,6,0,L|104:240,1,169.999995231629,4|0,3:0|0:0,0:0:0:0:
48,176,27405,2,0,L|256:160,1,169.999995231629,4|0,3:0|0:0,0:0:0:0:
300,156,27686,1,0,0:0:0:0:
320,156,27780,6,0,B|272:156|256:200|256:200|304:208|312:256,2,169.999995231629,4|0|4,3:0|0:0|3:0,0:0:0:0:
496,232,28342,1,0,0:0:0:0:
496,232,28436,1,0,0:0:0:0:
496,232,28530,6,0,P|412:184|384:312,1,254.999992847443,4|0,3:0|0:0,0:0:0:0:
456,304,28905,1,4,3:0:0:0:
336,96,29092,1,0,0:0:0:0:
460,308,29280,1,4,3:0:0:0:
460,308,29373,2,0,P|380:348|300:348,1,169.999995231629
307,268,29655,2,0,P|227:228|147:228,1,169.999995231629,4|0,3:0|0:0,0:0:0:0:
88,280,29936,1,0,0:0:0:0:
88,280,30030,6,0,P|196:228|328:232,1,254.999992847443,4|0,3:0|0:0,0:0:0:0:
372,301,30405,2,0,P|332:316|288:304,1,84.9999976158143,4|0,3:0|0:0,0:0:0:0:
317,123,30592,2,0,P|346:153|388:160,1,84.9999976158143
504,248,30780,2,0,P|420:224|394:362,1,255,4|0,3:0|0:0,0:0:0:0:
444,300,31155,1,4,3:0:0:0:
64,260,31342,1,2,0:0:0:0:
68,280,31436,1,2,0:0:0:0:
72,300,31530,6,0,L|88:136,1,127.499996423721,4|0,0:0|0:0,0:0:0:0:
36,108,31905,2,0,P|124:64|212:96,1,169.999995231629,8|0,0:0|0:0,0:0:0:0:
252,132,32186,1,0,0:0:0:0:
256,152,32280,6,0,L|344:156,1,84.9999976158143,0|0,1:0|0:0,0:0:0:0:
492,115,32467,2,0,L|408:112,1,84.9999976158143,2|0,0:0|0:0,0:0:0:0:
372,40,32655,1,8,0:0:0:0:
384,224,32842,1,0,0:0:0:0:
388,228,32936,1,0,0:0:0:0:
392,232,33030,6,0,L|524:220,1,127.499996423721,0|0,1:0|0:0,0:0:0:0:
508,304,33405,2,0,P|416:348|344:320,1,169.999995231629,8|0,0:0|0:0,0:0:0:0:
312,260,33686,1,0,0:0:0:0:
308,240,33780,6,0,L|300:128,1,84.9999976158143,0|0,1:0|0:0,0:0:0:0:
244,16,33967,2,0,L|236:128,1,84.9999976158143,2|0,0:0|0:0,0:0:0:0:
376,116,34155,1,8,0:0:0:0:
156,124,34342,1,0,0:0:0:0:
156,124,34436,1,0,0:0:0:0:
156,124,34530,6,0,L|28:112|28:112,1,127.499996423721,0|0,1:0|0:0,0:0:0:0:
52,196,34905,2,0,P|120:136|216:164,1,169.999995231629,8|0,0:0|0:0,0:0:0:0:
252,200,35186,1,0,0:0:0:0:
256,220,35280,6,0,L|264:308,1,84.9999976158143,0|0,1:0|0:0,0:0:0:0:
328,80,35467,2,0,L|320:168,1,84.9999976158143,2|0,0:0|0:0,0:0:0:0:
193,146,35655,1,8,0:0:0:0:
376,228,35842,1,0,0:0:0:0:
380,232,35936,1,0,0:0:0:0:
384,236,36030,6,0,B|444:192|512:220|512:220|492:260,1,169.999995231629,0|0,1:0|0:0,0:0:0:0:
436,300,36311,1,2,0:0:0:0:
444,320,36405,2,0,L|528:328,14,84.9999976158143,8|0|0|0|8|0|0|0|0|0|8|0|0|0|0,0:0|0:0|0:0|0:0|0:0|0:0|0:0|0:0|0:0|0:0|0:0|0:0|0:0|0:0|0:0,0:0:0:0:
436,300,37155,6,0,L|340:292,1,84.9999976158143,8|0,0:0|0:0,0:0:0:0:
284,340,37342,2,0,L|188:332,1,84.9999976158143,8|0,0:0|0:0,0:0:0:0:
144,272,37530,6,0,B|148:172|148:172|192:128|192:128|196:32,1,255.000002574921,0|0,1:0|2:0,0:0:0:0:
112,88,37811,1,0,2:0:0:0:
108,64,37905,6,0,L|20:56,1,84.9999976158143,4|0,2:0|0:0,0:0:0:0:
268,152,38092,2,0,L|352:159,1,84.9999976158143,0|0,2:0|0:0,0:0:0:0:
144,272,38280,6,0,B|136:188,1,84.9999976158143,0|0,1:0|0:0,0:0:0:0:
56,196,38467,2,0,B|64:280,1,84.9999976158143,2|0,0:0|0:0,0:0:0:0:
284,340,38655,6,0,B|408:328|408:328|336:304,1,169.999995231629,8|0,0:0|0:0,0:0:0:0:
136,187,39030,2,0,B|12:199|12:199|84:223,1,169.999995231629,0|2,1:0|0:0,0:0:0:0:
168,268,39311,1,0,0:0:0:0:
144,272,39405,6,0,B|136:188,1,84.9999976158143,8|0,0:0|0:0,0:0:0:0:
68,116,39592,2,0,B|76:32,1,84.9999976158143,2|0,0:0|0:0,0:0:0:0:
172,16,39780,5,0,1:0:0:0:
236,48,39873,1,2,0:0:0:0:
308,52,39967,1,2,0:0:0:0:
364,104,40061,1,2,0:0:0:0:
352,180,40155,5,8,0:0:0:0:
420,152,40248,1,2,0:0:0:0:
432,76,40342,1,2,0:0:0:0:
468,12,40436,1,0,0:0:0:0:
508,72,40530,6,0,B|436:32|436:32|336:56,1,169.999995231629,0|0,1:0|0:0,0:0:0:0:
284,96,40811,1,2,0:0:0:0:
280,120,40905,2,0,L|364:128,1,84.9999976158143,8|0,0:0|0:0,0:0:0:0:
128,48,41092,2,0,L|212:56,1,84.9999976158143,2|0,0:0|0:0,0:0:0:0:
432,192,41280,5,0,1:0:0:0:
440,116,41373,1,0,0:0:0:0:
448,44,41467,1,2,0:0:0:0:
468,143,41561,1,2,0:0:0:0:
490,245,41655,2,0,B|378:221|378:221|338:269,1,169.999995231629,8|2,0:0|0:0,0:0:0:0:
68,200,42030,5,0,1:0:0:0:
92,206,42124,1,0,0:0:0:0:
118,205,42218,1,2,0:0:0:0:
142,197,42312,1,2,0:0:0:0:
162,183,42405,1,8,0:0:0:0:
132,208,42498,1,0,0:0:0:0:
116,244,42592,1,2,0:0:0:0:
120,283,42686,1,2,0:0:0:0:
141,318,42780,5,0,1:0:0:0:
134,245,42873,1,2,0:0:0:0:
128,172,42967,1,2,0:0:0:0:
122,99,43061,1,2,0:0:0:0:
153,26,43155,5,8,0:0:0:0:
146,99,43248,1,2,0:0:0:0:
140,172,43342,1,2,0:0:0:0:
134,245,43436,1,2,0:0:0:0:
28,148,43530,6,0,P|120:136|192:172,1,169.999995231629,0|2,1:0|0:0,0:0:0:0:
224,240,43811,1,2,0:0:0:0:
220,260,43905,6,0,L|344:252,1,84.9999976158143,8|0,0:0|0:0,0:0:0:0:
356,104,44092,2,0,L|364:228,1,84.9999976158143,2|2,0:0|0:0,0:0:0:0:
512,240,44280,2,0,L|388:248,1,84.9999976158143,0|0,1:0|0:0,0:0:0:0:
276,44,44467,6,0,P|240:40|192:64,1,84.9999976158143,2|2,0:0|0:0,0:0:0:0:
187,168,44655,2,0,P|116:116|0:120,1,169.999995231629,8|2,0:0|0:0,0:0:0:0:
272,124,45030,6,0,L|260:316,1,169.999995231629,0|2,1:0|0:0,0:0:0:0:
336,324,45311,1,0,0:0:0:0:
358,322,45405,2,0,L|446:314,1,84.9999976158143,8|0,0:0|0:0,0:0:0:0:
180,167,45592,2,0,L|188:252,1,84.9999976158143,2|2,0:0|0:0,0:0:0:0:
336,0,45780,6,0,P|334:49|352:80,1,84.9999976158143,0|2,1:0|0:0,0:0:0:0:
432,95,45967,2,0,P|468:63|476:15,1,84.9999976158143,0|2,0:0|0:0,0:0:0:0:
256,44,46155,6,0,P|210:44|175:24,1,84.9999976158143,8|2,0:0|0:0,0:0:0:0:
485,155,46342,2,0,P|447:174|406:172,1,84.9999976158143,0|2,0:0|0:0,0:0:0:0:
177,25,46530,6,0,P|225:105|209:181,1,169.999995231629,0|2,1:0|0:0,0:0:0:0:
131,216,46811,1,2,0:0:0:0:
107,212,46905,2,0,P|105:175|139:140,1,84.9999976158143,8|0,0:0|0:0,0:0:0:0:
343,179,47092,2,0,L|352:263,1,84.9999976158143,2|2,0:0|0:0,0:0:0:0:
121,354,47280,5,0,1:0:0:0:
69,298,47373,1,0,0:0:0:0:
93,226,47467,1,2,0:0:0:0:
169,214,47561,1,2,0:0:0:0:
229,262,47655,2,0,P|321:298|385:266,1,169.999995231629,8|2,0:0|0:0,0:0:0:0:
496,44,48030,5,0,1:0:0:0:
471,30,48123,1,0,0:0:0:0:
443,24,48217,1,2,0:0:0:0:
415,27,48311,1,2,0:0:0:0:
496,44,48405,5,8,0:0:0:0:
440,47,48498,1,0,0:0:0:0:
402,85,48592,1,8,0:0:0:0:
388,168,48686,6,0,L|472:176,1,84.9999976158143,2|0,0:0|0:0,0:0:0:0:
272,20,48873,1,8,0:0:0:0:
276,44,48967,2,0,L|192:36,1,84.9999976158143,2|0,0:0|0:0,0:0:0:0:
56,132,49155,5,8,0:0:0:0:
125,87,49248,1,8,0:0:0:0:
192,36,49342,1,8,0:0:0:0:
248,96,49436,1,8,0:0:0:0:
305,157,49530,6,0,L|392:148,1,84.9999976158143,4|0,0:0|0:0,0:0:0:0:
484,180,49717,2,0,L|397:171,1,84.9999976158143,2|2,0:0|0:0,0:0:0:0:
388,252,49905,1,8,0:0:0:0:
364,256,49998,2,0,P|372:324|452:276,1,169.999995231629,2|2,0:0|0:0,0:0:0:0:
126,134,50280,6,0,L|213:125,1,84.9999976158143,0|0,1:0|0:0,0:0:0:0:
305,157,50467,2,0,L|218:148,1,84.9999976158143,2|2,0:0|0:0,0:0:0:0:
209,229,50655,1,8,0:0:0:0:
185,233,50748,2,0,P|193:301|273:253,1,169.999995231629,2|2,0:0|0:0,0:0:0:0:
156,40,51030,5,0,1:0:0:0:
130,26,51123,1,0,0:0:0:0:
103,22,51217,1,2,0:0:0:0:
75,26,51311,1,2,0:0:0:0:
232,8,51405,6,0,P|236:52|220:88,1,84.9999976158143,8|0,0:0|0:0,0:0:0:0:
368,160,51592,2,0,L|352:68,1,84.9999976158143,2|2,0:0|0:0,0:0:0:0:
156,40,51780,5,0,1:0:0:0:
142,65,51873,1,0,0:0:0:0:
138,92,51967,1,2,0:0:0:0:
142,120,52061,1,2,0:0:0:0:
220,88,52155,6,0,P|261:92|300:75,1,84.9999976158143,8|0,0:0|0:0,0:0:0:0:
76,176,52342,2,0,L|-8:160,1,84.9999976158143,2|2,0:0|0:0,0:0:0:0:
329,252,52530,6,0,L|341:164,1,84.9999976158143,0|0,1:0|0:0,0:0:0:0:
300,75,52717,2,0,L|312:163,1,84.9999976158143,2|2,0:0|0:0,0:0:0:0:
425,164,52905,1,8,0:0:0:0:
437,144,52998,2,0,P|493:160|437:240,1,169.999995231629,2|2,0:2|0:2,0:2:0:0:
212,212,53280,6,0,L|224:124,1,84.9999976158143,0|0,1:0|0:0,0:0:0:0:
183,35,53467,2,0,L|195:123,1,84.9999976158143,2|2,0:0|0:0,0:0:0:0:
308,124,53655,1,8,0:0:0:0:
320,104,53748,2,0,P|376:120|320:200,1,169.999995231629,2|2,0:2|0:2,0:2:0:0:
96,172,54030,5,0,1:0:0:0:
82,147,54123,1,0,0:0:0:0:
78,120,54217,1,2,0:0:0:0:
82,92,54311,1,2,0:0:0:0:
172,199,54405,6,0,P|177:158|160:120,1,84.9999976158143,8|0,0:0|0:0,0:0:0:0:
33,313,54592,2,0,L|117:301,1,84.9999976158143,2|2,0:0|0:0,0:0:0:0:
220,64,54780,5,0,1:0:0:0:
245,78,54873,1,0,0:0:0:0:
272,82,54967,1,2,0:0:0:0:
300,76,55061,1,2,0:0:0:0:
356,20,55155,6,0,P|375:49|376:100,1,85,8|0,0:0|0:0,0:0:0:0:
497,252,55342,2,0,P|489:297|463:326,1,85,2|2,0:0|0:0,0:0:0:0:
206,64,55530,6,0,L|293:55,1,84.9999976158143,0|0,1:0|0:0,0:0:0:0:
385,87,55717,2,0,L|298:78,1,84.9999976158143,2|2,0:0|0:0,0:0:0:0:
289,159,55905,1,8,0:0:0:0:
265,163,55998,2,0,P|273:231|353:183,1,169.999995231629,2|2,0:0|0:0,0:0:0:0:
42,43,56280,6,0,L|129:34,1,84.9999976158143,0|0,1:0|0:0,0:0:0:0:
221,66,56467,2,0,L|134:57,1,84.9999976158143,2|2,0:0|0:0,0:0:0:0:
125,138,56655,1,8,0:0:0:0:
101,142,56748,2,0,P|109:210|189:162,1,169.999995231629,2|2,0:0|0:0,0:0:0:0:
42,43,57030,5,0,1:0:0:0:
24,66,57123,1,0,0:0:0:0:
15,93,57217,1,2,0:0:0:0:
16,121,57311,1,2,0:0:0:0:
186,134,57405,6,0,L|102:142,1,84.9999976158143,8|0,0:0|0:0,0:0:0:0:
331,216,57592,2,0,P|375:272|347:344,1,84.9999976158143,2|2,0:0|0:0,0:0:0:0:
68,279,57780,5,0,1:0:0:0:
52,256,57873,1,0,0:0:0:0:
42,229,57967,1,2,0:0:0:0:
42,201,58061,1,2,0:0:0:0:
231,61,58155,6,0,P|251:105|247:149,1,84.9999976158143,8|0,0:0|0:0,0:0:0:0:
61,282,58342,2,0,L|147:295,1,85,2|2,0:0|0:0,0:0:0:0:
336,274,58530,6,0,L|348:186,1,84.9999976158143,0|0,1:0|0:0,0:0:0:0:
307,97,58717,2,0,L|319:185,1,84.9999976158143,2|2,0:0|0:0,0:0:0:0:
432,186,58905,1,8,0:0:0:0:
444,166,58998,2,0,P|500:182|444:262,1,169.999995231629,2|2,0:2|0:2,0:2:0:0:
220,234,59280,6,0,L|232:146,1,84.9999976158143,0|0,1:0|0:0,0:0:0:0:
191,57,59467,2,0,L|203:145,1,84.9999976158143,2|2,0:0|0:0,0:0:0:0:
316,146,59655,1,8,0:0:0:0:
328,126,59748,2,0,P|384:142|328:222,1,169.999995231629,2|2,0:2|0:2,0:2:0:0:
124,168,60030,6,0,L|-4:160,1,127.50000128746,0|2,1:0|0:0,0:0:0:0:
4,80,60311,1,2,0:0:0:0:
4,80,60405,6,0,L|12:-8,1,84.9999976158143,8|0,0:0|0:0,0:0:0:0:
164,244,60592,2,0,L|172:328,1,84.9999976158143,8|2,0:0|0:0,0:0:0:0:
392,40,60780,1,0,0:0:0:0:
391,40,60873,2,0,B|427:11|471:27|471:27|455:111,1,169.999995231629,10|0,0:0|0:0,0:0:0:0:
463,120,61108,1,0,0:0:0:0:
471,129,61155,2,0,B|298:137|298:137|371:189,1,254.999992847443,10|0,0:0|0:0,0:0:0:0:
441,208,61530,5,4,3:0:0:0:
216,88,73530,6,0,L|42:70,1,169.999995231629,4|2,2:0|0:0,0:0:0:0:
280,28,73811,1,0,0:0:0:0:
296,50,73905,1,0,0:0:0:0:
303,78,73998,1,2,0:0:0:0:
300,106,74092,1,0,0:0:0:0:
288,132,74186,1,2,0:0:0:0:
348,188,74280,5,0,0:0:0:0:
348,188,74373,2,0,L|436:180,1,84.9999976158143,2|0,0:0|0:0,0:0:0:0:
508,216,74561,1,0,0:0:0:0:
508,216,74655,2,0,L|496:304,1,84.9999976158143,2|0,0:0|0:0,0:0:0:0:
428,344,74842,2,0,P|380:348|344:324,1,84.9999976158143,2|0,0:0|0:0,0:0:0:0:
224,256,75030,6,0,L|244:84,1,169.999995231629,2|0,0:0|0:0,0:0:0:0:
176,52,75311,1,2,0:0:0:0:
201,64,75405,1,0,0:0:0:0:
229,67,75498,1,0,0:0:0:0:
257,60,75592,1,2,0:0:0:0:
280,44,75686,1,0,0:0:0:0:
360,8,75780,5,0,0:0:0:0:
360,8,75873,1,2,0:0:0:0:
360,8,75967,2,0,L|352:96,1,84.9999976158143,2|0,0:0|0:0,0:0:0:0:
412,148,76155,2,0,L|496:140,1,84.9999976158143,2|0,0:0|0:0,0:0:0:0:
508,220,76342,2,0,L|500:308,1,84.9999976158143,2|0,0:0|0:0,0:0:0:0:
360,356,76530,6,0,P|328:336|192:328,1,169.999995231629,2|0,0:0|0:0,0:0:0:0:
128,288,76811,1,2,0:0:0:0:
156,297,76905,1,0,0:0:0:0:
185,298,76998,1,0,0:0:0:0:
214,291,77092,1,2,0:0:0:0:
240,276,77186,1,2,0:0:0:0:
248,196,77280,5,0,0:0:0:0:
248,196,77373,2,0,L|336:188,1,84.9999976158143,2|0,0:0|0:0,0:0:0:0:
456,236,77561,2,0,B|468:320|468:320|380:300,1,169.999995231629,2|0,0:0|0:0,0:0:0:0:
376,216,77842,2,0,L|291:224,1,84.9999976158143,2|2,0:0|0:0,0:0:0:0:
168,56,78030,6,0,B|264:36|236:100|336:76,1,169.999995231629,2|0,0:0|0:0,0:0:0:0:
388,24,78311,1,2,0:0:0:0:
373,50,78405,1,2,0:0:0:0:
366,79,78498,1,0,0:0:0:0:
367,108,78592,1,2,0:0:0:0:
376,137,78686,1,2,0:0:0:0:
440,196,78780,5,0,0:0:0:0:
440,196,78873,1,2,0:0:0:0:
440,196,78967,2,0,P|461:162|462:118,1,84.9999976158143,2|0,0:0|0:0,0:0:0:0:
340,32,79155,2,0,P|378:49|420:48,1,84.9999976158143,2|0,0:0|0:0,0:0:0:0:
502,254,79342,2,0,P|470:275|421:277,1,84.9999976158143,2|0,0:0|0:0,0:0:0:0:
288,355,79530,6,0,P|226:300|141:295,1,169.999995231629,2|2,0:0|0:0,0:0:0:0:
82,240,79811,1,0,0:0:0:0:
66,265,79904,1,0,0:0:0:0:
60,294,79998,1,2,0:0:0:0:
65,323,80092,1,0,0:0:0:0:
80,348,80186,1,2,0:0:0:0:
142,294,80280,5,0,0:0:0:0:
146,298,80373,2,0,P|186:277|231:278,1,84.9999976158143,2|0,0:0|0:0,0:0:0:0:
296,321,80561,1,2,0:0:0:0:
300,325,80655,2,0,P|330:347|379:355,1,84.9999976158143,2|0,0:0|0:0,0:0:0:0:
202,124,80842,2,0,P|230:153|241:200,1,84.9999976158143,2|2,0:0|0:0,0:0:0:0:
502,31,81030,6,0,L|480:201,1,169.999995231629,2|0,0:0|0:0,0:0:0:0:
512,273,81311,1,2,0:0:0:0:
502,245,81404,1,0,0:0:0:0:
485,220,81498,1,0,0:0:0:0:
463,200,81592,1,2,0:0:0:0:
437,187,81686,1,2,0:0:0:0:
354,200,81780,5,0,0:0:0:0:
354,200,81873,1,2,0:0:0:0:
354,200,81967,2,0,P|376:248|373:287,1,84.9999976158143,2|0,0:0|0:0,0:0:0:0:
319,11,82155,2,0,P|302:57|308:105,1,84.9999976158143,2|0,0:0|0:0,0:0:0:0:
461,145,82342,2,0,P|411:120|371:124,1,84.9999976158143,2|0,0:0|0:0,0:0:0:0:
174,38,82530,6,0,L|188:215,1,169.999995231629,2|0,0:0|0:0,0:0:0:0:
115,258,82811,1,2,0:0:0:0:
140,243,82904,1,2,0:0:0:0:
169,236,82998,1,2,0:0:0:0:
199,237,83092,1,0,0:0:0:0:
227,247,83186,1,2,0:0:0:0:
288,309,83280,5,0,0:0:0:0:
288,309,83373,2,0,P|325:313|369:297,1,84.9999976158143,2|0,0:0|0:0,0:0:0:0:
503,195,83561,2,0,P|469:240|438:251,1,84.9999976158143,2|0,0:0|0:0,0:0:0:0:
307,153,83748,1,0,0:0:0:0:
307,153,83842,2,0,P|351:180|368:233,1,84.9999976158143,2|2,0:0|0:0,0:0:0:0:
512,307,84030,6,0,L|505:352,6,42.4999988079071,0|0|0|0|2|0|2,0:0|0:0|0:0|0:0|0:0|0:0|0:0,0:0:0:0:
465,71,84405,2,0,L|472:116,6,42.4999988079071,0|0|2|0|2|0|2,0:0|0:0|0:0|0:0|0:0|0:0|0:0,0:0:0:0:
217,4,84780,2,0,L|266:11,6,42.4999988079071,0|0|2|0|0|0|2,0:0|0:0|0:0|0:0|0:0|0:0|0:0,0:0:0:0:
493,0,85155,6,0,P|497:29|488:49,1,42.4999988079071,2|0,0:0|0:0,0:0:0:0:
465,71,85248,2,0,P|468:105|488:124,1,42.4999988079071
501,142,85342,6,0,L|542:152,1,42.4999988079071,2|0,0:0|0:0,0:0:0:0:
429,190,85436,2,0,L|382:197,1,42.4999988079071,2|0,0:0|0:0,0:0:0:0:
476,264,85530,1,4,3:0:0:0:
476,264,85905,6,2,B|439:290|400:280|372:262|372:262|352:296|387:324|387:324|346:353|304:340|241:307|260:246|261:211|276:184|305:124|342:152|354:207|346:242|327:277,1,561.000017120362,2|2,2:0|2:0,0:0:0:0:
112,268,86561,1,0,2:0:0:0:
112,268,86655,6,2,L|196:260,1,84.9999976158143,4|0,1:0|0:0,0:0:0:0:
52,204,87030,6,0,B|24:256|24:256|44:368,1,169.999995231629,4|0,0:0|0:0,0:0:0:0:
204,240,87311,1,0,0:0:0:0:
197,260,87405,2,0,L|113:268,1,84.9999976158143,8|0,0:0|0:0,0:0:0:0:
25,53,87592,2,0,L|109:61,1,84.9999976158143,2|2,0:0|0:0,0:0:0:0:
25,53,87873,5,2,0:0:0:0:
189,22,87967,1,2,0:0:0:0:
25,53,88061,1,2,0:0:0:0:
240,89,88155,2,0,L|248:173,1,84.9999976158143,8|0,0:0|0:0,0:0:0:0:
464,208,88436,5,2,0:0:0:0:
464,208,88530,2,0,B|368:184|368:184|288:244,1,169.999995231629,0|0,1:0|0:0,0:0:0:0:
384,352,88811,1,0,0:0:0:0:
404,348,88905,2,0,L|384:260,1,84.9999976158143,8|0,0:0|0:0,0:0:0:0:
352,108,89092,1,0,0:0:0:0:
352,108,89186,6,2,B|304:116|312:96|272:84|232:88|236:112|186:96,1,169.999995231629
250,232,89467,2,2,P|283:207|265:173,1,85
64,36,89655,2,2,P|16:116|104:108,1,220.999983684541,10|0,0:0|0:0,0:0:0:0:
332,28,90030,6,0,B|308:88|308:88|340:216,1,169.999995231629,0|0,1:0|0:0,0:0:0:0:
392,244,90311,1,0,0:0:0:0:
388,264,90405,2,0,L|300:276,1,84.9999976158143,8|0,0:0|0:0,0:0:0:0:
247,16,90592,2,0,L|331:27,1,84.9999976158143
476,332,90780,6,2,B|425:313|384:344|384:344|370:283|370:283|329:245|260:255|242:304|242:304|265:276|304:276,1,382.500003862381,0|0,1:0|2:0,0:0:0:0:
304,356,91155,5,8,2:0:0:0:
304,356,91248,2,0,B|292:288|292:288|312:256|312:256|300:184,1,169.999995231629,2|2,0:0|2:0,0:0:0:0:
248,128,91530,6,0,L|164:120,1,84.9999976158143,0|0,1:0|0:0,0:0:0:0:
344,16,91717,1,2,2:0:0:0:
252,132,91905,1,8,2:0:0:0:
252,132,91998,6,0,B|260:48,1,84.9999976158143,2|0,2:0|2:0,0:0:0:0:
420,68,92186,2,0,B|412:152,1,84.9999976158143,2|0,2:0|1:0,0:0:0:0:
327,185,92373,2,0,B|344:16,1,169.999995231629,2|2,2:0|2:0,0:0:0:0:
260,47,92655,6,0,B|176:39,1,84.9999976158143,8|2,2:0|2:0,0:0:0:0:
396,236,92842,2,0,B|480:244,1,84.9999976158143,0|2,2:0|2:0,0:0:0:0:
175,38,93030,6,0,B|196:84|196:84|183:207,1,169.999995231629,0|0,1:0|0:0,0:0:0:0:
242,276,93311,1,0,0:0:0:0:
243,256,93405,2,0,L|328:264,1,84.9999976158143,8|0,2:0|0:0,0:0:0:0:
112,100,93592,2,0,L|24:92,1,84.9999976158143,0|2,0:0|2:0,0:0:0:0:
328,264,93873,5,2,2:0:0:0:
354,87,93967,1,0,0:0:0:0:
494,198,94061,1,2,0:0:0:0:
328,264,94155,2,0,L|243:256,1,84.9999976158143,8|2,2:0|2:0,0:0:0:0:
452,120,94436,5,2,2:0:0:0:
452,120,94530,2,0,B|408:188|408:188|430:274,1,169.999995231629,0|0,1:0|0:0,0:0:0:0:
476,336,94811,1,0,0:0:0:0:
456,348,94905,2,0,L|368:340,1,84.9999976158143,8|0,2:0|0:0,0:0:0:0:
404,52,95092,1,0,0:0:0:0:
404,52,95186,6,2,B|340:84|320:20|272:36|252:76|300:96|312:72,1,169.999995231629,2|2,2:0|2:0,0:0:0:0:
216,20,95467,2,2,P|204:52|212:104,1,84.9999976158143,2|2,2:0|2:0,0:0:0:0:
452,120,95655,2,2,P|376:62|297:85,1,170,10|0,2:0|0:0,0:0:0:0:
164,168,96030,6,0,B|204:208|204:208|188:324,1,169.999995231629,0|0,1:0|0:0,0:0:0:0:
116,348,96311,1,0,0:0:0:0:
110,324,96405,2,0,L|14:316,1,84.9999976158143,8|0,2:0|0:0,0:0:0:0:
284,196,96592,2,0,L|380:188,1,84.9999976158143
196,20,96780,6,2,B|100:12|100:12|124:56|108:108|108:108|160:96|204:128|204:128|196:20,1,382.500003862381,0|0,1:0|2:0,0:0:0:0:
276,16,97155,6,2,L|288:152,1,127.499996423721,10|0,2:0|0:0,0:0:0:0:
291,185,97530,6,2,L|287:142,1,42.4999988079071,4|0,2:0|0:0,0:0:0:0:
363,124,97717,2,2,L|369:188,1,63.7500006437302,2|0,2:0|2:0,0:0:0:0:
449,188,97905,2,2,L|440:97,1,84.9999976158143,2|0,2:0|2:0,0:0:0:0:
352,320,98092,6,0,L|176:304,1,169.999995231629,4|0,2:0|0:0,0:0:0:0:
436,284,98373,2,0,L|260:300,1,169.999995231629,4|0,2:0|0:0,0:0:0:0:
92,227,98655,6,0,L|100:312,6,84.9999976158143,0|0|0|0|2|0|2,0:0|0:0|0:0|0:0|2:0|0:0|2:0,0:0:0:0:
144,32,99030,6,0,B|184:0|184:0|160:132,1,169.999995231629,4|0,2:0|0:0,0:0:0:0:
210,204,99311,1,0,0:0:0:0:
208,184,99405,2,0,L|292:176,1,84.9999976158143,8|0,2:0|0:0,0:0:0:0:
62,23,99592,2,0,L|70:107,1,84.9999976158143,2|2,2:0|2:0,0:0:0:0:
267,6,99873,5,2,2:0:0:0:
293,176,99967,1,0,0:0:0:0:
144,85,100061,1,2,2:0:0:0:
364,126,100155,2,0,L|372:210,1,84.9999976158143,8|2,2:0|2:0,0:0:0:0:
444,64,100436,5,0,0:0:0:0:
444,64,100530,2,0,B|352:44|352:44|280:84,1,169.999995231629,0|0,1:0|0:0,0:0:0:0:
392,216,100811,1,0,0:0:0:0:
372,211,100905,2,0,L|364:127,1,84.9999976158143,8|0,2:0|2:0,0:0:0:0:
500,260,101092,1,0,0:0:0:0:
500,260,101186,6,2,B|448:276|436:340|436:340|408:320|416:280|432:272,1,169.999995231629,2|2,2:0|2:0,0:0:0:0:
364,126,101467,2,2,P|408:138|436:170,1,84.9999976158143,2|2,2:0|2:0,0:0:0:0:
500,260,101655,2,2,B|404:236|436:308|340:288,1,169.999995231629,10|0,2:0|0:0,0:0:0:0:
156,168,102030,6,0,B|208:140|208:140|188:280,1,169.999995231629,0|0,1:0|0:0,0:0:0:0:
258,316,102311,1,0,0:0:0:0:
256,296,102405,2,0,L|340:288,1,84.9999976158143,8|0,2:0|0:0,0:0:0:0:
204,60,102592,2,0,L|120:68,1,84.9999976158143,0|0,2:0|0:0,0:0:0:0:
408,332,102780,6,2,B|429:260|368:212|274:228|256:328|336:372|336:372|316:328|340:288,1,382.500003862381,0|0,1:0|2:0,0:0:0:0:
328,124,103155,5,8,2:0:0:0:
328,124,103248,2,0,B|340:184|340:184|324:224|324:224|340:288,1,169.999995231629,2|2,2:0|2:0,0:0:0:0:
336,368,103530,6,0,L|252:376,1,84.9999976158143,0|0,1:0|0:0,0:0:0:0:
256,176,103717,1,2,2:0:0:0:
472,264,103905,1,8,2:0:0:0:
472,264,103998,6,0,L|480:348,1,84.9999976158143,2|0,2:0|0:0,0:0:0:0:
456,100,104186,2,0,L|464:184,1,84.9999976158143,2|0,2:0|1:0,0:0:0:0:
312,284,104373,2,0,L|295:113,1,169.999995231629,2|2,2:0|2:0,0:0:0:0:
376,108,104655,6,0,L|384:192,1,84.9999976158143,8|0,2:0|0:0,0:0:0:0:
232,292,104842,2,0,L|224:208,1,84.9999976158143,2|0,2:0|0:0,0:0:0:0:
52,128,105030,6,0,B|168:96|168:96|220:144,1,169.999995231629,0|0,1:0|0:0,0:0:0:0:
245,198,105311,1,0,0:0:0:0:
224,208,105405,2,0,L|232:292,1,84.9999976158143,8|0,2:0|0:0,0:0:0:0:
171,15,105592,2,0,B|83:3,1,84.9999976158143,0|2,0:0|2:0,0:0:0:0:
464,71,105873,5,2,2:0:0:0:
276,32,105967,1,2,2:0:0:0:
480,0,106061,1,2,2:0:0:0:
403,132,106155,2,0,B|317:119,1,85,8|2,2:0|2:0,0:0:0:0:
100,216,106436,5,0,0:0:0:0:
100,216,106530,2,0,B|164:184|164:184|296:212,1,169.999995231629,0|0,1:0|0:0,0:0:0:0:
184,351,106811,1,0,0:0:0:0:
164,348,106905,2,0,L|172:264,1,84.9999976158143,8|0,2:0|0:0,0:0:0:0:
96,56,107092,1,0,0:0:0:0:
96,56,107186,6,2,B|124:48|136:24|136:24|192:56|172:128,1,169.999995231629,2|2,2:0|2:0,0:0:0:0:
304,156,107467,2,2,P|264:184|224:184,1,84.9999976158143,2|2,2:0|2:0,0:0:0:0:
36,8,107655,2,2,P|20:64|112:132,1,169.999995231629,10|0,2:0|0:0,0:0:0:0:
340,72,108030,6,0,B|280:52|280:52|304:156,1,169.999995231629,0|0,1:0|0:0,0:0:0:0:
380,180,108311,1,0,0:0:0:0:
372,200,108405,2,0,L|460:192,1,84.9999976158143,8|0,2:0|0:0,0:0:0:0:
212,12,108592,2,0,L|127:19,1,84.9999976158143
488,44,108780,6,2,B|448:20|392:28|344:68|336:144|388:200|456:192|456:192|412:192|392:156,1,382.500003862381,0|0,1:0|2:0,0:0:0:0:
456,116,109155,6,2,L|328:108,1,127.499996423721,10|0,2:0|0:0,0:0:0:0:
252,101,109530,6,0,L|248:58,1,42.4999988079071,4|0,2:0|0:0,0:0:0:0:
170,49,109717,2,0,L|176:113,1,63.7500006437302,2|0,2:0|0:0,0:0:0:0:
100,129,109905,2,0,L|92:43,1,84.9999976158143,2|0,2:0|0:0,0:0:0:0:
320,8,110092,6,0,L|336:184,1,169.999995231629,8|0,2:0|0:0,0:0:0:0:
480,88,110373,2,0,L|468:260,1,169.999995231629,8|0,2:0|0:0,0:0:0:0:
385,272,110655,6,0,L|469:257,1,85,8|0,2:0|0:0,0:0:0:0:
164,159,110842,5,8,2:0:0:0:
250,168,110936,1,2,2:0:0:0:
335,177,111030,6,0,P|208:176|296:264,1,254.999992847443,0|0,1:0|0:0,0:0:0:0:
312,252,111405,1,8,2:0:0:0:
40,200,111592,1,0,0:0:0:0:
342,184,111780,1,0,1:0:0:0:
342,184,111873,1,0,0:0:0:0:
342,184,111967,2,0,L|331:87,1,84.9999976158143,0|0,0:0|2:0,0:0:0:0:
468,257,112155,2,0,P|480:172|416:176,1,169.999995231629,8|0,0:0|0:0,0:0:0:0:
472,72,112436,1,0,0:0:0:0:
480,88,112530,6,0,L|468:260,1,169.999995231629,0|0,1:0|0:0,0:0:0:0:
244,132,112905,2,0,B|152:112|176:164|76:144,1,169.999995231629,8|0,2:0|0:0,0:0:0:0:
68,60,113186,1,0,0:0:0:0:
68,60,113280,2,0,L|78:145,1,84.9999976158143,0|0,1:0|0:0,0:0:0:0:
312,20,113467,1,0,0:0:0:0:
78,144,113655,1,8,0:0:0:0:
468,257,113842,1,0,0:0:0:0:
468,257,113936,1,0,0:0:0:0:
468,257,114030,6,0,B|348:216|348:216|395:262|388:332,1,254.999992847443,0|2,1:0|0:0,0:0:0:0:
468,257,114405,2,0,B|505:203|475:137|475:137|443:168,1,169.999995231629,8|2,0:0|0:0,0:0:0:0:
348,216,114686,1,0,0:0:0:0:
325,208,114780,2,0,B|285:195|285:195|254:235,1,84.9999976158143,0|0,1:0|0:0,0:0:0:0:
493,262,114967,1,0,0:0:0:0:
302,115,115155,2,0,L|315:289,1,169.999995231629,8|0,0:0|0:0,0:0:0:0:
68,358,115530,6,0,L|81:184,1,169.999995231629,0|0,1:0|0:0,0:0:0:0:
43,119,115811,1,0,0:0:0:0:
43,119,115905,2,0,P|86:109|124:123,1,84.9999976158143,8|0,0:0|0:0,0:0:0:0:
363,30,116092,1,0,0:0:0:0:
391,113,116186,1,0,0:0:0:0:
305,95,116280,2,0,B|494:45|494:45|452:182,1,254.999992847443,0|0,1:0|0:0,0:0:0:0:
469,133,116655,1,8,0:0:0:0:
249,35,116842,1,0,0:0:0:0:
249,35,116936,1,0,0:0:0:0:
249,35,117030,6,0,B|287:85|287:85|276:194,1,169.999995231629,4|0,0:0|0:0,0:0:0:0:
199,212,117311,1,2,0:0:0:0:
199,212,117405,2,0,B|90:201,1,84.9999976158143,8|0,0:0|0:0,0:0:0:0:
365,60,117592,2,0,B|449:68,1,84.9999976158143,2|0,0:0|0:0,0:0:0:0:
478,257,117780,5,0,1:0:0:0:
478,257,117873,2,0,B|455:148|455:148|422:196,1,169.999995231629,2|2,0:0|0:0,0:0:0:0:
244,197,118155,2,0,B|413:214,1,169.999995231629,8|2,0:0|0:0,0:0:0:0:
455,148,118436,1,0,0:0:0:0:
476,160,118530,6,0,B|515:192|515:192|502:311,1,169.999995231629,0|0,1:0|0:0,0:0:0:0:
438,359,118811,1,2,0:0:0:0:
438,359,118905,2,0,B|329:348,1,84.9999976158143,8|0,0:0|0:0,0:0:0:0:
336,99,119092,2,0,B|420:107,1,84.9999976158143,2|0,0:0|0:0,0:0:0:0:
115,35,119280,5,0,1:0:0:0:
115,35,119373,2,0,B|90:73|90:73|232:51,1,169.999995231629,2|2,0:0|0:0,0:0:0:0:
322,19,119655,2,0,B|293:77|293:77|315:189,1,169.999995231629,8|2,0:0|0:0,0:0:0:0:
391,208,119936,1,0,0:0:0:0:
391,208,120030,6,0,B|274:191|274:191|227:218,1,169.999995231629,0|0,1:0|0:0,0:0:0:0:
182,285,120311,1,2,0:0:0:0:
182,285,120405,2,0,B|65:268,1,84.9999976158143,8|0,0:0|0:0,0:0:0:0:
428,134,120592,2,0,B|512:146,1,84.9999976158143,2|0,0:0|0:0,0:0:0:0:
475,359,120780,5,0,1:0:0:0:
475,359,120873,2,0,B|472:312|472:312|400:282|400:282|363:308,1,169.999995231629,2|2,0:0|0:0,0:0:0:0:
303,258,121155,2,0,L|313:162,1,84.9999976158143,8|0,0:0|0:0,0:0:0:0:
117,46,121342,2,0,L|126:130,1,84.9999976158143,2|0,0:0|0:0,0:0:0:0:
31,257,121530,6,0,P|114:210|195:238,1,169.999995231629,0|0,1:0|0:0,0:0:0:0:
252,186,121811,1,2,0:0:0:0:
258,209,121905,6,0,P|257:255|233:290,1,84.9999976158143,8|0,0:0|0:0,0:0:0:0:
111,352,122092,2,0,P|154:365|195:355,1,84.9999976158143,10|0,0:0|0:0,0:0:0:0:
39,120,122280,1,0,0:0:0:0:
39,120,122373,2,0,P|6:94|-44:91,1,84.9999976158143,10|0,0:0|0:0,0:0:0:0:
181,227,122561,1,0,0:0:0:0:
205,225,122655,2,0,B|340:213|340:213|312:189,1,169.999995231629,8|2,0:0|0:0,0:0:0:0:
103,178,122936,6,0,L|94:269,1,84.9999976158143,0|4,0:0|0:0,0:0:0:0:
