osu file format v14

[General]
AudioFilename: audio.mp3
AudioLeadIn: 0
PreviewTime: 82940
Countdown: 0
SampleSet: Soft
StackLeniency: 0.7
Mode: 0
LetterboxInBreaks: 0
WidescreenStoryboard: 0

[Editor]
Bookmarks: 1485,7303,13121,18940,23303,24758,30576,36394,42212,48031,53849,59667,65485,71303,77121,82940,88758,94576,100394,106212,112031,117849,123667,129485,132031
DistanceSpacing: 0.8
BeatDivisor: 4
GridSize: 4
TimelineZoom: 2

[Metadata]
Title:Marionette
TitleUnicode:Marionette
Artist:Memme
ArtistUnicode:Memme
Creator:Gamu
Version:Standard
Source:O2Jam U
Tags:ParkMemme kagetsu
BeatmapID:1465749
BeatmapSetID:690608

[Difficulty]
HPDrainRate:4
CircleSize:3.5
OverallDifficulty:4
ApproachRate:5
SliderMultiplier:1.2
SliderTickRate:1

[Events]
//Background and Video events
0,0,"bg.jpg",0,0
//Break Periods
2,59867,68649
//Storyboard Layer 0 (Background)
//Storyboard Layer 1 (Fail)
//Storyboard Layer 2 (Pass)
//Storyboard Layer 3 (Foreground)
//Storyboard Sound Samples

[TimingPoints]
31,363.636363636364,4,2,1,70,1,0
36031,-100,4,2,2,70,0,0
36394,-100,4,2,1,70,0,0
39576,-100,4,2,4,60,0,0
39758,-100,4,2,1,70,0,0
48031,-100,4,2,3,70,0,0
49485,-100,4,2,1,70,0,0
70940,-100,4,2,2,70,0,0
71303,-100,4,2,1,70,0,0
82940,-100,4,2,1,70,0,1
105849,-100,4,2,2,70,0,1
106212,-100,4,2,1,70,0,0
130940,-100,4,2,1,65,0,0
131121,-100,4,2,1,55,0,0
131303,-100,4,2,1,45,0,0
131485,-100,4,2,1,35,0,0
131667,-100,4,2,1,25,0,0
131849,-100,4,2,1,15,0,0
132031,-100,4,2,1,5,0,0

[Colours]
Combo1 : 255,49,49
Combo2 : 170,255,170
Combo3 : 255,153,153
Combo4 : 57,255,57

[HitObjects]
72,32,1485,6,0,L|192:28,1,120,6|2,0:0|0:0,0:0:0:0:
224,120,2212,2,0,L|104:124,1,120,2|2,0:0|0:0,0:0:0:0:
16,164,2940,1,2,0:0:0:0:
64,248,3303,2,0,P|64:280|60:308,1,60,2|2,0:0|0:0,0:0:0:0:
44,352,3667,2,0,L|172:348,1,120,2|2,0:0|0:0,0:0:0:0:
256,316,4395,5,2,0:0:0:0:
338,365,4758,1,2,0:0:0:0:
413,302,5121,1,2,0:0:0:0:
375,211,5485,1,2,0:0:0:0:
276,219,5849,2,0,P|244:220|212:212,1,60,2|2,0:0|0:0,0:0:0:0:
172,200,6212,2,0,P|140:199|108:207,1,60,2|2,0:0|0:0,0:0:0:0:
72,228,6576,2,0,L|64:104,1,120,2|2,0:3|0:3,0:0:0:0:
80,64,7121,1,2,1:3:0:0:
116,32,7303,6,0,P|176:24|240:28,1,120,6|2,1:2|1:2,0:0:0:0:
328,60,8031,2,0,P|388:68|452:64,1,120,2|2,1:2|1:2,0:0:0:0:
500,144,8758,1,2,1:2:0:0:
508,240,9121,2,0,L|504:308,1,60,2|2,1:2|0:0,0:0:0:0:
500,348,9485,2,0,P|448:364|384:348,1,120,2|2,1:2|1:2,0:0:0:0:
304,300,10212,6,0,L|300:180,1,120,2|2,1:2|1:2,0:0:0:0:
204,168,10940,2,0,L|208:288,1,120,2|2,1:2|1:2,0:0:0:0:
111,275,11667,2,0,L|109:214,1,60,2|2,1:3|0:3,0:0:0:0:
108,168,12031,2,0,L|106:107,1,60,2|2,0:3|0:3,0:0:0:0:
104,60,12394,2,0,P|160:44|224:56,1,120,8|4,0:3|1:3,0:0:0:0:
292,116,13121,5,4,1:2:0:0:
376,68,13485,1,8,0:2:0:0:
376,68,13667,2,0,P|388:128|312:212,1,180,0|8,1:2|0:0,0:0:0:0:
268,224,14394,1,0,1:0:0:0:
224,208,14576,2,0,P|162:198|96:212,1,120,6|10,1:2|0:0,0:0:0:0:
60,224,15121,1,2,0:0:0:0:
20,252,15303,2,0,L|16:124,1,120,2|10,1:2|0:0,0:0:0:0:
56,44,16031,5,4,1:2:0:0:
136,96,16394,1,8,0:0:0:0:
136,96,16576,2,0,L|328:88,1,180,0|8,1:0|0:0,0:0:0:0:
364,84,17303,1,6,1:2:0:0:
440,24,17667,2,0,P|460:88|444:140,1,120,2|2,1:2|0:0,0:0:0:0:
412,172,18212,2,0,L|269:177,1,120,2|10,1:2|0:0,0:0:0:0:
196,180,18940,5,4,1:2:0:0:
116,128,19303,1,8,0:0:0:0:
116,128,19485,2,0,P|100:192|180:276,1,180,0|8,1:0|0:0,0:0:0:0:
216,284,20212,1,0,1:0:0:0:
264,272,20394,2,0,P|324:264|396:280,1,120,2|10,1:2|0:0,0:0:0:0:
428,296,20940,1,2,0:0:0:0:
460,332,21121,1,2,1:2:0:0:
496,240,21485,2,0,L|492:176,1,60,8|2,0:0|0:0,0:0:0:0:
488,132,21849,6,0,P|428:120|372:132,1,120,6|6,1:2|1:2,0:0:0:0:
292,188,22576,2,0,P|232:200|176:188,1,120,6|6,1:2|1:2,0:0:0:0:
136,164,23121,1,2,1:2:0:0:
108,128,23303,2,0,L|104:68,1,60,6|0,1:2|0:0,0:0:0:0:
92,20,23667,2,0,P|64:16|32:20,1,60,6|0,1:2|0:0,0:0:0:0:
0,56,24031,2,0,L|8:176,1,120,6|10,1:2|1:0,0:0:0:0:
16,272,24758,5,4,1:2:0:0:
92,328,25121,1,8,0:0:0:0:
184,304,25485,2,0,P|244:296|304:304,1,120,0|8,1:0|0:0,0:0:0:0:
348,324,26031,1,0,1:0:0:0:
348,324,26212,2,0,L|360:196,1,120,6|10,1:2|0:0,0:0:0:0:
404,184,26758,1,2,0:0:0:0:
452,176,26940,2,0,L|440:295,1,120,2|10,1:2|0:0,0:0:0:0:
348,324,27667,6,0,P|288:316|224:328,1,120,4|8,1:2|0:0,0:0:0:0:
144,372,28394,2,0,P|132:316|156:261,1,120,0|8,1:0|0:0,0:0:0:0:
196,232,28940,1,6,0:0:0:0:
280,188,29303,2,0,L|472:196,1,180,2|2,0:0|1:2,0:0:0:0:
444,100,30212,1,10,0:0:0:0:
464,8,30576,6,0,P|416:12|360:64,1,120,4|8,1:2|0:0,0:0:0:0:
272,92,31303,2,0,P|229:50|171:42,1,120,0|8,1:0|0:0,0:0:0:0:
124,60,31849,1,0,1:0:0:0:
84,88,32031,2,0,L|88:208,1,120,2|10,1:2|0:0,0:0:0:0:
90,255,32576,1,2,0:0:0:0:
92,302,32758,1,2,1:2:0:0:
168,360,33121,1,10,0:0:0:0:
256,320,33485,6,0,P|340:304|432:328,1,180,4|4,1:2|1:2,0:0:0:0:
468,188,34576,2,0,P|384:204|292:180,2,180,4|4|2,1:2|1:2|1:3,0:0:0:0:
500,96,36031,1,6,0:3:0:0:
428,32,36394,6,0,P|372:20|304:32,1,120,6|8,1:2|0:0,0:0:0:0:
268,52,36940,2,0,P|212:64|144:52,1,120,2|0,0:0|0:0,0:0:0:0:
104,40,37485,2,0,P|108:100|92:160,1,120,10|0,0:0|1:0,0:0:0:0:
68,200,38031,2,0,P|64:260|80:320,1,120,2|0,0:0|0:0,0:0:0:0:
116,348,38576,1,2,1:2:0:0:
212,360,38940,1,10,0:0:0:0:
300,320,39303,6,0,B|368:292|432:320|432:320|488:312,2,180,2|2|10,1:2|0:0|0:0,0:0:0:0:
212,360,40758,2,0,P|152:368|88:360,2,120,2|10|2,1:2|0:0|1:2,0:0:0:0:
300,320,41849,2,0,L|304:252,1,60,10|0,0:0|0:0,0:0:0:0:
308,212,42212,6,0,P|248:200|184:216,1,120,6|8,1:2|0:0,0:0:0:0:
148,236,42758,2,0,P|88:248|24:232,1,120,2|0,0:0|0:0,0:0:0:0:
8,192,43303,2,0,P|0:136|8:72,1,120,10|0,0:0|1:0,0:0:0:0:
28,32,43849,2,0,P|86:19|144:31,1,120,2|0,0:0|0:0,0:0:0:0:
188,52,44394,1,2,1:2:0:0:
236,136,44758,1,10,0:0:0:0:
204,228,45121,6,0,P|248:232|312:196,1,120,6|8,1:2|0:0,0:0:0:0:
340,156,45667,2,0,L|464:164,1,120,2|0,0:0|0:0,0:0:0:0:
496,192,46212,1,10,0:0:0:0:
496,192,46394,2,0,P|504:252|488:308,1,120,4|0,1:2|0:0,0:0:0:0:
456,344,46940,1,8,0:0:0:0:
360,336,47303,1,2,1:2:0:0:
264,328,47667,1,8,0:0:0:0:
176,368,48031,6,0,P|169:308|197:258,1,120,4|10,1:2|0:3,0:0:0:0:
272,200,48758,2,0,L|396:196,1,120,2|10,0:3|0:3,0:0:0:0:
476,244,49485,2,0,P|487:216|489:183,1,60,2|2,1:3|0:3,0:0:0:0:
488,140,49849,2,0,P|475:112|454:87,1,60,8|2,1:0|0:3,0:0:0:0:
416,64,50212,2,0,L|296:67,1,120,2|10,1:3|1:0,0:0:0:0:
208,108,50940,5,0,1:0:0:0:
124,60,51303,1,8,0:0:0:0:
76,144,51667,2,0,P|92:200|140:236,1,120,0|8,1:0|0:0,0:0:0:0:
184,248,52212,1,4,1:2:0:0:
272,208,52576,2,0,P|332:200|396:212,1,120,2|2,0:0|0:0,0:0:0:0:
432,232,53121,2,0,L|440:160,1,60,2|2,1:2|0:0,0:0:0:0:
444,124,53485,2,0,L|436:52,1,60,10|0,0:0|0:0,0:0:0:0:
404,32,53849,6,0,P|346:23|280:32,1,120,4|8,1:2|0:0,0:0:0:0:
208,88,54576,2,0,P|216:148|212:216,1,120,0|8,1:0|0:0,0:0:0:0:
192,252,55121,1,0,1:0:0:0:
156,284,55303,2,0,L|96:280,1,60,2|2,1:2|0:0,0:0:0:0:
48,272,55667,2,0,L|44:212,1,60,10|2,0:0|0:0,0:0:0:0:
44,164,56031,1,2,1:2:0:0:
100,84,56394,2,0,P|132:80|164:80,1,60,10|8,0:0|0:0,0:0:0:0:
204,96,56758,6,0,P|268:104|336:88,1,120,4|8,1:2|0:0,0:0:0:0:
364,68,57303,2,0,L|380:188,1,120,4|8,1:2|0:0,0:0:0:0:
388,236,57849,2,0,P|388:300|372:354,1,120,4|8,1:2|0:0,0:0:0:0:
328,368,58394,2,0,L|204:364,1,120,4|8,1:2|0:0,0:0:0:0:
164,344,58940,2,0,P|132:340|100:348,1,60,2|2,1:3|0:3,0:0:0:0:
60,364,59303,1,10,0:0:0:0:
48,268,59667,5,6,1:2:0:0:
48,268,69849,6,0,P|80:272|112:268,1,60,2|2,0:3|0:3,0:0:0:0:
156,260,70212,2,0,P|185:247|211:228,1,60,2|2,0:3|0:3,0:0:0:0:
245,199,70576,2,0,P|264:173|277:143,1,60,2|2,0:3|0:3,0:0:0:0:
291,101,70940,1,6,0:3:0:0:
368,44,71303,6,0,P|424:36|492:48,1,120,6|8,1:2|0:0,0:0:0:0:
508,88,71849,2,0,P|512:150|504:214,1,120,2|0,0:2|0:0,0:0:0:0:
484,248,72394,2,0,P|428:260|368:248,1,120,10|0,0:0|0:0,0:0:0:0:
324,232,72940,2,0,P|312:292|316:352,1,120,2|0,0:0|0:0,0:0:0:0:
272,368,73485,2,0,P|239:372|204:364,1,60,2|0,1:2|0:0,0:0:0:0:
168,352,73849,2,0,P|135:348|100:356,1,60,10|0,0:0|0:0,0:0:0:0:
64,368,74212,6,0,L|56:248,1,120,2|8,1:2|0:0,0:0:0:0:
8,248,74758,2,0,L|16:124,1,120,2|0,0:0|0:0,0:0:0:0:
20,80,75303,1,10,0:0:0:0:
92,16,75667,1,0,1:0:0:0:
172,72,76031,1,8,0:0:0:0:
256,28,76394,2,0,L|320:24,1,60,2|2,1:3|0:3,0:0:0:0:
364,20,76758,1,8,0:0:0:0:
456,52,77121,6,0,B|464:97|464:97|461:146,1,90,4|0,1:2|0:0,0:0:0:0:
443,211,77667,2,0,B|434:256|434:256|437:305,1,90,4|0,1:2|0:0,0:0:0:0:
391,356,78212,2,0,B|347:368|347:368|285:359,1,90,4|0,1:2|0:0,0:0:0:0:
235,337,78758,2,0,B|227:293|227:293|235:249,1,90,4|0,1:2|0:0,0:0:0:0:
292,204,79303,2,0,B|300:160|300:160|292:116,1,90,4|0,1:2|0:0,0:0:0:0:
244,60,79849,6,0,L|176:56,1,60,4|0,1:2|0:0,0:0:0:0:
136,68,80212,1,2,0:3:0:0:
100,100,80394,2,0,P|84:156|92:220,2,120,2|2|2,1:3|1:3|1:3,0:0:0:0:
136,68,81303,1,2,1:3:0:0:
256,148,81849,2,0,L|444:140,1,180,12|0,0:0|0:0,0:0:0:0:
484,140,82576,1,4,1:3:0:0:
476,236,82940,5,2,1:0:0:0:
420,312,83303,2,0,P|391:318|356:316,1,60,4|0,1:2|0:0,0:0:0:0:
312,308,83667,2,0,L|304:372,2,60,2|2|2,1:2|0:0|1:2,0:0:0:0:
288,264,84212,2,0,P|232:248|168:256,1,120,2|0,1:0|0:0,0:0:0:0:
128,276,84758,2,0,B|120:360|120:360|80:368,2,120,2|2|2,1:2|1:2|1:2,0:0:0:0:
136,180,85849,5,2,1:0:0:0:
144,84,86212,2,0,L|72:80,1,60,4|0,1:2|0:0,0:0:0:0:
36,72,86576,2,0,P|28:40|28:8,2,60,0|0|0,1:0|0:0|1:0,0:0:0:0:
56,116,87121,2,0,L|52:236,1,120,4|0,1:2|0:0,0:0:0:0:
48,284,87667,1,0,1:0:0:0:
112,356,88031,2,0,P|144:360|176:352,1,60,2|2,1:3|0:3,0:0:0:0:
216,340,88394,1,2,1:3:0:0:
256,312,88576,6,0,L|264:184,1,120,2|2,1:0|0:0,0:0:0:0:
264,144,89121,2,0,L|260:76,1,60,4|0,1:2|0:0,0:0:0:0:
244,40,89485,2,0,P|213:36|184:40,2,60,2|2|2,1:2|0:0|1:2,0:0:0:0:
292,48,90031,1,2,1:0:0:0:
352,124,90394,2,0,P|424:232|488:124,1,300,0|8,1:0|0:0,0:0:0:0:
444,48,91667,6,0,P|384:36|316:44,1,120,6|8,1:2|0:0,0:0:0:0:
284,60,92212,2,0,P|224:72|156:64,1,120,6|8,1:2|0:0,0:0:0:0:
120,52,92758,2,0,L|124:172,1,120,6|8,1:2|0:0,0:0:0:0:
80,192,93303,2,0,L|84:312,1,120,6|8,1:2|0:0,0:0:0:0:
84,360,93849,2,0,L|20:356,2,60,2|2|8,1:3|1:3|0:0,0:0:0:0:
176,336,94576,5,2,1:0:0:0:
216,248,94940,2,0,P|260:288|272:352,2,120,4|0|0,1:2|0:0|1:0,0:0:0:0:
172,232,95849,1,2,1:0:0:0:
64,136,96394,2,0,L|60:16,2,120,2|2|2,1:2|1:2|1:2,0:0:0:0:
68,232,97485,5,2,1:0:0:0:
108,320,97849,2,0,P|144:324|176:316,1,60,4|0,1:2|0:0,0:0:0:0:
212,304,98212,2,0,L|220:364,2,60,0|0|0,1:0|0:0|1:0,0:0:0:0:
208,256,98758,2,0,L|216:136,1,120,4|0,1:2|0:0,0:0:0:0:
220,88,99303,1,0,1:0:0:0:
288,20,99667,2,0,P|324:16|352:24,1,60,2|2,1:3|0:3,0:0:0:0:
392,40,100031,1,2,1:3:0:0:
428,72,100212,6,0,L|436:200,1,120,2|2,1:0|0:0,0:0:0:0:
436,240,100758,2,0,P|352:264|264:228,1,180,4|0,1:2|0:0,0:0:0:0:
236,196,101485,1,0,1:0:0:0:
220,152,101667,2,0,L|92:156,1,120,2|2,1:0|0:1,0:0:0:0:
52,160,102212,1,4,1:2:0:0:
68,64,102576,2,0,L|127:62,1,60,2|2,0:3|0:3,0:0:0:0:
176,52,102940,2,0,L|235:50,1,60,0|2,1:0|0:3,0:0:0:0:
284,40,103303,6,0,L|419:35,1,120,4|8,1:2|0:0,0:0:0:0:
448,60,103849,2,0,P|460:124|456:188,1,120,4|8,1:2|0:0,0:0:0:0:
444,224,104394,1,4,1:2:0:0:
408,364,104940,2,0,B|352:352|300:292|300:236|300:236|244:272|172:248,1,300,8|10,0:0|0:3,0:0:0:0:
88,232,106212,6,0,P|80:176|88:108,1,120,6|8,1:2|0:0,0:0:0:0:
108,72,106758,2,0,P|168:64|232:68,1,120,2|0,0:0|0:0,0:0:0:0:
272,84,107303,1,10,0:0:0:0:
416,64,107849,2,0,P|428:128|424:192,1,120,2|0,0:0|0:0,0:0:0:0:
412,228,108394,1,2,1:2:0:0:
380,320,108758,1,10,0:0:0:0:
296,272,109121,6,0,L|172:276,1,120,2|8,1:2|0:0,0:0:0:0:
156,320,109667,2,0,L|32:316,1,120,2|0,0:0|0:0,0:0:0:0:
8,276,110212,1,10,0:0:0:0:
32,184,110576,2,0,P|36:124|28:60,1,120,2|10,1:2|0:0,0:0:0:0:
124,60,111303,2,0,P|130:119|126:179,1,120,2|10,1:2|0:0,0:0:0:0:
108,224,111849,1,2,0:0:0:0:
72,256,112031,6,0,L|80:376,1,120,6|8,1:2|0:0,0:0:0:0:
124,360,112576,2,0,P|184:352|248:356,1,120,2|0,0:0|0:0,0:0:0:0:
288,372,113121,1,10,0:0:0:0:
212,252,113667,2,0,P|204:192|208:128,1,120,2|0,0:0|0:0,0:0:0:0:
216,84,114212,1,2,1:2:0:0:
292,24,114576,1,10,0:0:0:0:
360,92,114940,6,0,L|480:88,1,120,6|8,1:2|0:0,0:0:0:0:
500,132,115485,2,0,P|504:192|496:252,1,120,2|0,0:0|0:0,0:0:0:0:
476,296,116031,2,0,L|412:292,1,60,10|2,0:0|0:3,0:0:0:0:
368,288,116394,2,0,P|316:320|252:336,2,120,0|8|2,1:0|0:0|1:2,0:0:0:0:
392,196,117485,1,10,0:0:0:0:
320,136,117849,6,0,P|259:130|196:136,1,120,6|8,1:2|0:0,0:0:0:0:
156,148,118394,2,0,P|108:186|68:235,1,120,2|0,0:0|0:0,0:0:0:0:
48,276,118940,1,10,0:0:0:0:
168,356,119485,2,0,L|288:352,1,120,2|0,0:0|0:0,0:0:0:0:
336,352,120031,1,2,1:2:0:0:
408,288,120394,1,10,0:0:0:0:
488,344,120758,6,0,P|504:304|484:228,1,120,2|8,1:2|0:0,0:0:0:0:
452,200,121303,2,0,L|332:196,1,120,2|0,0:0|0:0,0:0:0:0:
284,192,121849,1,10,0:0:0:0:
200,144,122212,2,0,P|189:199|213:258,2,120,2|10|2,1:2|0:0|1:2,0:0:0:0:
264,72,123303,2,0,L|328:68,1,60,10|2,0:0|0:0,0:0:0:0:
372,64,123667,6,0,L|388:184,1,120,6|8,1:2|0:0,0:0:0:0:
436,192,124212,2,0,L|420:312,1,120,2|0,0:0|0:0,0:0:0:0:
412,360,124758,1,10,0:0:0:0:
276,308,125303,2,0,P|215:302|156:308,1,120,2|0,0:0|0:0,0:0:0:0:
112,328,125849,1,2,1:2:0:0:
52,252,126212,2,0,L|48:188,1,60,8|8,0:0|0:0,0:0:0:0:
44,144,126576,6,0,P|104:132|164:140,1,120,6|8,1:2|0:0,0:0:0:0:
204,164,127121,2,0,P|264:176|324:168,1,120,6|8,1:2|0:0,0:0:0:0:
364,144,127667,2,0,L|368:80,2,60,6|2|8,1:2|0:3|0:0,0:0:0:0:
360,192,128212,2,0,P|432:256|484:200,1,180,4|10,1:2|0:0,0:0:0:0:
504,120,129121,2,0,P|471:112|440:116,1,60,4|0,1:2|1:2,0:0:0:0:
308,160,129849,5,4,1:2:0:0:
256,192,129940,12,0,132031,0:0:0:0:
